<?xml version="1.0" standalone="no"?>
<!DOCTYPE svg PUBLIC "-//W3C//DTD SVG 1.1//EN" "http://www.w3.org/Graphics/SVG/1.1/DTD/svg11.dtd" >
<svg xmlns="http://www.w3.org/2000/svg" xmlns:xlink="http://www.w3.org/1999/xlink" version="1.1">
<metadata>
Created by FontForge 20201107 at Wed May 31 05:49:00 2017
 By 
(c) 2015-2017 Apple Inc. All rights reserved.
</metadata>
<defs>
<font id="SFProDisplay-BlackItalic" horiz-adv-x="0" >
  <font-face 
    font-family="SF Pro Display"
    font-weight="900"
    font-style="italic"
    font-stretch="normal"
    units-per-em="2048"
    panose-1="0 0 10 0 0 0 0 0 0 0"
    ascent="1638"
    descent="-410"
    x-height="1104"
    cap-height="1443"
    bbox="-615 -545 2894 2234"
    underline-thickness="260"
    underline-position="-380"
    slope="-12"
    unicode-range="U+0020-FB02"
  />
<missing-glyph horiz-adv-x="2048" 
d="M-95 -494l27 128h1847l-27 -128h-1847zM3 -31l28 128h1847l-27 -128h-1848zM102 432l27 129h1847l-27 -129h-1847zM200 896l28 128h1847l-27 -128h-1848zM299 1359l27 128h1847l-27 -128h-1847zM397 1822l27 128h1848l-28 -128h-1847z" />
    <glyph glyph-name=".notdef" horiz-adv-x="2048" 
d="M-95 -494l27 128h1847l-27 -128h-1847zM3 -31l28 128h1847l-27 -128h-1848zM102 432l27 129h1847l-27 -129h-1847zM200 896l28 128h1847l-27 -128h-1848zM299 1359l27 128h1847l-27 -128h-1847zM397 1822l27 128h1848l-28 -128h-1847z" />
    <glyph glyph-name=".null" 
 />
    <glyph glyph-name="nonmarkingreturn" 
 />
    <glyph glyph-name="space" unicode=" " horiz-adv-x="412" 
 />
    <glyph glyph-name="exclam" unicode="!" horiz-adv-x="755" 
d="M393 1443h420l-243 -972h-348zM321 -40q-89 0 -151 58t-62 142q0 83 62 141t151 58q87 0 149.5 -58t62.5 -141q0 -84 -62.5 -142t-149.5 -58z" />
    <glyph glyph-name="quotedbl" unicode="&#x22;" horiz-adv-x="1023" 
d="M507 826h-340l131 617h340zM1027 826h-340l131 617h340z" />
    <glyph glyph-name="numbersign" unicode="#" horiz-adv-x="1377" 
d="M610 0l116 357h-191l-116 -357h-299l115 357h-216l90 287h217l57 177h-214l89 284h216l110 339h299l-109 -339h191l109 339h301l-109 -339h223l-88 -284h-227l-56 -177h221l-89 -287h-224l-115 -357h-301zM588 610h244l81 244h-246z" />
    <glyph glyph-name="dollar" unicode="$" horiz-adv-x="1413" 
d="M798 526l-48 -225q74 6 117.5 39.5t43.5 85.5q0 32 -24 55t-89 45zM733 912l49 231q-68 -6 -107.5 -38t-39.5 -83q0 -67 98 -110zM872 871l79 -21q187 -50 273.5 -143.5t86.5 -232.5q0 -218 -163.5 -343t-444.5 -125h-15l-30 -140h-147l32 152q-203 32 -316.5 142
t-115.5 279h386q5 -87 110 -122l53 249l-71 19q-171 47 -265 154t-94 243q0 206 158.5 330.5t416.5 124.5q27 0 40 -1l30 143h147l-34 -161q178 -39 283 -150.5t108 -267.5h-373q-1 37 -23 67.5t-59 49.5z" />
    <glyph glyph-name="percent" unicode="%" horiz-adv-x="1863" 
d="M172 1022q0 199 113 325.5t289 126.5q164 0 254 -84t90 -238q0 -197 -115.5 -326t-291.5 -129q-161 0 -250 85t-89 240zM511 921q35 0 67 83t32 175q0 71 -36 71q-34 0 -64 -81.5t-30 -175.5q0 -72 31 -72zM471 0h-310l727 773l631 670h310l-707 -751zM1073 299
q0 199 113 325.5t289 126.5q164 0 254 -84t90 -238q0 -197 -115.5 -326t-291.5 -129q-161 0 -250 85t-89 240zM1412 198q35 0 67 83t32 175q0 71 -36 71q-34 0 -64 -81.5t-30 -175.5q0 -72 31 -72z" />
    <glyph glyph-name="ampersand" unicode="&#x26;" horiz-adv-x="1526" 
d="M687 1066q0 -62 78 -159q92 38 132 83.5t40 109.5q0 47 -31.5 76.5t-81.5 29.5q-57 0 -97 -41t-40 -99zM625 243q90 0 180 41l-201 305q-21 -7 -37 -13q-151 -60 -151 -180q0 -68 58.5 -110.5t150.5 -42.5zM992 0l-40 60q-179 -88 -367 -88q-234 0 -384.5 109t-150.5 279
q0 276 340 413l82 33q-116 163 -116 299q0 151 130.5 251t327.5 100q193 0 322 -91.5t129 -228.5q0 -264 -363 -419l145 -216q82 128 90 246l1 15h321l-2 -19q-28 -270 -241 -491l170 -252h-394z" />
    <glyph glyph-name="quotesingle" unicode="'" horiz-adv-x="502" 
d="M507 826h-340l131 617h340z" />
    <glyph glyph-name="parenleft" unicode="(" horiz-adv-x="810" 
d="M628 -313h-371q-59 118 -94 300t-35 364q0 311 118 597t333 495h423q-99 -97 -180.5 -216t-145.5 -264.5t-99 -321.5t-33 -365q3 -378 84 -589z" />
    <glyph glyph-name="parenright" unicode=")" horiz-adv-x="810" 
d="M242 1443h371q61 -116 95 -296.5t34 -367.5q0 -311 -118 -597t-333 -495h-423q99 97 180.5 216t145.5 264.5t99 321.5t33 365q-3 378 -84 589z" />
    <glyph glyph-name="asterisk" unicode="*" horiz-adv-x="966" 
d="M875 768l-194 198l-9 -284l-239 25l88 265l-243 -143l-82 215l276 77l-236 130l145 189l186 -189l10 276l242 -25l-85 -263l243 142l83 -218l-280 -80l239 -128z" />
    <glyph glyph-name="plus" unicode="+" horiz-adv-x="1413" 
d="M881 414l-88 -416h-370l88 416h-378l74 348h378l88 416h370l-88 -416h394l-74 -348h-394z" />
    <glyph glyph-name="comma" unicode="," horiz-adv-x="615" 
d="M219 -344h-292l184 617h370z" />
    <glyph glyph-name="hyphen" unicode="-" horiz-adv-x="830" 
d="M90 422l74 348h650l-74 -348h-650z" />
    <glyph glyph-name="hyphen" unicode="&#x2011;" horiz-adv-x="830" 
d="M90 422l74 348h650l-74 -348h-650z" />
    <glyph glyph-name="period" unicode="." horiz-adv-x="618" 
d="M261 -14q-86 0 -147 61t-61 147t61 147t147 61t147 -61t61 -147t-61 -147t-147 -61z" />
    <glyph glyph-name="slash" unicode="/" horiz-adv-x="810" 
d="M244 -313h-400l783 1756h400z" />
    <glyph glyph-name="zero" unicode="0" horiz-adv-x="1452" 
d="M695 -25q-253 0 -408 160.5t-155 422.5t95.5 469.5t266.5 324t386 116.5q256 0 412 -159.5t156 -419.5q0 -157 -36 -298t-103.5 -253t-159.5 -193.5t-208.5 -125.5t-245.5 -44zM560 568q0 -270 152 -270q79 0 150.5 80.5t114.5 215t43 284.5q0 267 -156 267
q-79 0 -149.5 -80t-112.5 -213.5t-42 -283.5z" />
    <glyph glyph-name="one" unicode="1" horiz-adv-x="1066" 
d="M362 0l228 1071h-8l-404 -235l77 365l414 242h424l-307 -1443h-424z" />
    <glyph glyph-name="two" unicode="2" horiz-adv-x="1312" 
d="M185 974q14 214 189.5 354t430.5 140q234 0 385 -116t151 -296q0 -95 -39.5 -170.5t-138.5 -165.5t-300 -235l-218 -157l-1 -8h566l-68 -320h-1127l64 291l498 364q220 161 285.5 229t65.5 136q0 57 -43 93t-110 36q-81 0 -136.5 -45.5t-71.5 -129.5h-382z" />
    <glyph glyph-name="three" unicode="3" horiz-adv-x="1367" 
d="M527 591l60 293h168q102 0 159 36.5t57 102.5q0 57 -48 91.5t-128 34.5q-71 0 -122 -30t-68 -82h-381q41 199 204 315t402 116q238 0 389.5 -109.5t151.5 -281.5q0 -136 -96.5 -235t-247.5 -118l-1 -8q117 -29 183 -107t66 -189q0 -193 -171 -319t-434 -126
q-269 0 -429 119t-160 317q0 41 8 82h388q-17 -79 41.5 -137.5t156.5 -58.5q84 0 138 44.5t54 113.5q0 63 -49.5 99.5t-134.5 36.5h-156z" />
    <glyph glyph-name="four" unicode="4" horiz-adv-x="1423" 
d="M696 0l45 214h-715l72 367q245 338 700 862h605l-193 -905h172l-69 -324h-172l-45 -214h-400zM452 530l-1 -8h368l134 630h-8q-273 -308 -493 -622z" />
    <glyph glyph-name="five" unicode="5" horiz-adv-x="1368" 
d="M685 -25q-163 0 -293 57.5t-203 160.5t-73 232q0 15 2 46h380q5 -79 63.5 -127.5t147.5 -48.5q93 0 157.5 64.5t64.5 157.5q0 87 -52 138.5t-139 51.5q-49 0 -101.5 -25.5t-81.5 -63.5h-377l241 825h1001l-71 -321h-666l-87 -262h8q122 117 313 117q172 0 287 -119
t115 -298q0 -168 -81 -302t-226.5 -208.5t-328.5 -74.5z" />
    <glyph glyph-name="six" unicode="6" horiz-adv-x="1435" 
d="M1352 515q0 -150 -79.5 -274t-218.5 -195t-307 -71q-287 0 -446.5 161.5t-159.5 450.5q0 251 96.5 452.5t267 315t383.5 113.5q241 0 397 -125.5t156 -318.5h-403q-12 58 -56 90t-111 32q-114 0 -200.5 -104t-107.5 -266h8q59 81 149.5 124t202.5 43q188 0 308.5 -120.5
t120.5 -307.5zM759 665q-91 0 -151 -56t-60 -141q0 -76 55 -126t139 -50q90 0 149 55.5t59 140.5q0 77 -54 127t-137 50z" />
    <glyph glyph-name="seven" unicode="7" horiz-adv-x="1220" 
d="M46 0l817 1115v8h-664l68 320h1110l-68 -319l-803 -1124h-460z" />
    <glyph glyph-name="eight" unicode="8" horiz-adv-x="1430" 
d="M1343 404q0 -123 -83.5 -221t-233.5 -153t-339 -55q-271 0 -442 115.5t-171 297.5q0 154 111.5 262.5t302.5 141.5l2 7q-97 31 -154 103.5t-57 164.5q0 173 167.5 287t422.5 114q156 0 285.5 -51t203.5 -139.5t74 -195.5q0 -137 -94 -232t-250 -115l-1 -9
q121 -36 188.5 -121t67.5 -201zM726 606q-88 0 -147 -52t-59 -129q0 -70 51.5 -114t133.5 -44q89 0 148.5 51.5t59.5 128.5q0 70 -52 114.5t-135 44.5zM679 1018q0 -61 44 -100.5t111 -39.5q73 0 127 48.5t54 114.5q0 61 -44.5 101.5t-111.5 40.5q-74 0 -127 -49t-53 -116z
" />
    <glyph glyph-name="nine" unicode="9" horiz-adv-x="1435" 
d="M803 771q92 0 150 52t58 135q0 79 -54 132.5t-134 53.5q-90 0 -149 -55.5t-59 -140.5q0 -78 52.5 -127.5t135.5 -49.5zM210 923q0 155 78.5 279.5t218.5 195t314 70.5q280 0 434 -168t154 -474q0 -247 -90 -441t-251.5 -302t-367.5 -108q-157 0 -289 55.5t-210.5 153
t-83.5 215.5h405q5 -46 54.5 -74.5t121.5 -28.5q123 0 212.5 104t100.5 261h-7q-118 -167 -348 -167q-192 0 -319 122t-127 307z" />
    <glyph glyph-name="colon" unicode=":" horiz-adv-x="618" 
d="M261 -14q-86 0 -147 61t-61 147t61 147t147 61t147 -61t61 -147t-61 -147t-147 -61zM408 679q-86 0 -147 61t-61 147t61 147t147 61t147 -61t61 -147t-61 -147t-147 -61z" />
    <glyph glyph-name="semicolon" unicode=";" horiz-adv-x="618" 
d="M408 679q-86 0 -147 61t-61 147t61 147t147 61t147 -61t61 -147t-61 -147t-147 -61zM219 -344h-292l184 617h370z" />
    <glyph glyph-name="less" unicode="&#x3c;" horiz-adv-x="1413" 
d="M1199 326l-80 -379l-925 485l66 310l1131 485l-86 -403l-656 -239l-4 -20z" />
    <glyph glyph-name="equal" unicode="=" horiz-adv-x="1413" 
d="M1214 137h-1138l74 349h1138zM1332 690h-1138l74 349h1138z" />
    <glyph glyph-name="greater" unicode="&#x3e;" horiz-adv-x="1413" 
d="M283 848l80 379l925 -485l-66 -310l-1131 -485l86 403l656 239l4 20z" />
    <glyph glyph-name="question" unicode="?" horiz-adv-x="1166" 
d="M183 1023q17 189 165 311t372 122q237 0 379.5 -105.5t142.5 -278.5q0 -128 -69 -231.5t-209 -164.5q-118 -51 -163.5 -90t-59.5 -103l-6 -28h-362l6 47q18 140 69 213.5t166 123.5q127 55 173.5 100t46.5 104q0 48 -36 76.5t-95 28.5q-53 0 -94.5 -34.5t-53.5 -90.5
h-372zM459 -40q-89 0 -151 58t-62 142q0 83 62 141t151 58q87 0 149.5 -58t62.5 -141q0 -84 -62.5 -142t-149.5 -58z" />
    <glyph glyph-name="at" unicode="@" horiz-adv-x="1851" 
d="M1065 1448q167 0 307.5 -50.5t238.5 -141t153 -220t55 -282.5q0 -171 -62 -309t-171.5 -216.5t-245.5 -78.5q-118 0 -191.5 42.5t-73.5 113.5q0 6 0.5 17.5t0.5 15.5l-20 -6q-44 -77 -99 -111.5t-129 -34.5q-130 0 -208.5 97t-78.5 257q0 130 51.5 239.5t141 173
t194.5 63.5q88 0 148.5 -42.5t77.5 -115.5l20 -3l25 127h256l-111 -520q-5 -22 -5 -44q0 -34 17.5 -53.5t47.5 -19.5q48 0 91.5 56t69.5 149t26 196q0 228 -148 368t-389 140q-195 0 -356 -93.5t-253.5 -257t-92.5 -360.5q0 -270 179 -426.5t488 -155.5q61 0 91 7l-41 -194
q-56 -7 -117 -7q-246 0 -432.5 95t-288.5 269t-102 403q0 191 72 360.5t196.5 290.5t298 191.5t369.5 70.5zM1089 640q0 66 -26.5 102.5t-74.5 36.5q-64 0 -110 -68.5t-46 -162.5q0 -65 29.5 -103t79.5 -38q63 0 105.5 67t42.5 166z" />
    <glyph glyph-name="A" unicode="A" horiz-adv-x="1494" 
d="M902 1089l-247 -503h278l-22 503h-9zM959 0l-13 287h-438l-141 -287h-447l794 1443h532l148 -1443h-435z" />
    <glyph glyph-name="B" unicode="B" horiz-adv-x="1387" 
d="M808 0h-790l307 1443h669q207 0 318 -86t111 -221q0 -143 -94 -245t-246 -130l-1 -8q118 -27 193 -105.5t75 -187.5q0 -201 -153 -330.5t-389 -129.5zM682 1180l-62 -293h180q90 0 145.5 48.5t55.5 123.5q0 55 -40 88t-115 33h-164zM494 291h206q105 0 166.5 53t61.5 143
q0 64 -46 100.5t-132 36.5h-186z" />
    <glyph glyph-name="C" unicode="C" horiz-adv-x="1540" 
d="M1153 862q1 6 1 40q0 95 -66.5 160t-163.5 65q-159 0 -260.5 -146t-101.5 -375q0 -133 62 -209.5t170 -76.5q105 0 184 62.5t111 169.5h411q-25 -171 -125 -302t-259 -203t-352 -72q-290 0 -464.5 165t-174.5 440q0 406 229 647t614 241q262 0 431.5 -153t169.5 -389
q0 -37 -5 -64h-411z" />
    <glyph glyph-name="D" unicode="D" horiz-adv-x="1492" 
d="M325 1443h600q256 0 414.5 -147.5t158.5 -403.5q0 -258 -94 -460.5t-268 -317t-399 -114.5h-719zM681 1108l-163 -772h158q172 0 279 135t107 367q0 122 -63.5 196t-174.5 74h-143z" />
    <glyph glyph-name="E" unicode="E" horiz-adv-x="1208" 
d="M1107 336l-71 -336h-1018l307 1443h1017l-72 -336h-593l-49 -234h556l-65 -304h-556l-50 -233h594z" />
    <glyph glyph-name="F" unicode="F" horiz-adv-x="1169" 
d="M460 0h-442l307 1443h1013l-72 -336h-571l-59 -278h516l-69 -318h-515z" />
    <glyph glyph-name="G" unicode="G" horiz-adv-x="1539" 
d="M1544 790l-26 -154q-54 -321 -247 -491t-500 -170q-290 0 -467.5 170t-177.5 451q0 188 60.5 350t167 277t259 180t329.5 65q135 0 253.5 -40t199 -106.5t127 -154t46.5 -181.5q0 -16 -2 -32h-406q-6 78 -69.5 129t-160.5 51q-107 0 -192.5 -67.5t-133 -186.5t-47.5 -266
q0 -143 68.5 -224t195.5 -81q96 0 169 56.5t95 142.5h-233l60 282h632z" />
    <glyph glyph-name="H" unicode="H" horiz-adv-x="1572" 
d="M1374 0h-434l120 562h-488l-120 -562h-434l307 1443h434l-118 -551h488l118 551h434z" />
    <glyph glyph-name="I" unicode="I" horiz-adv-x="640" 
d="M442 0h-424l307 1443h424z" />
    <glyph glyph-name="J" unicode="J" horiz-adv-x="1260" 
d="M38 434q0 40 3 71h404v-21q0 -69 36 -109t101 -40q125 0 160 160l202 948h424l-212 -996q-49 -231 -196 -351.5t-381 -120.5q-247 0 -394 125t-147 334z" />
    <glyph glyph-name="K" unicode="K" horiz-adv-x="1457" 
d="M442 0h-424l307 1443h424l-126 -590h8l561 590h480l-644 -675l322 -768h-464l-212 530l-154 -162z" />
    <glyph glyph-name="L" unicode="L" horiz-adv-x="1154" 
d="M1103 346l-74 -346h-1011l307 1443h424l-233 -1097h587z" />
    <glyph glyph-name="M" unicode="M" horiz-adv-x="1850" 
d="M393 0h-374l306 1443h491l119 -905h8l487 905h529l-307 -1443h-375l195 908h-12l-502 -908h-244l-120 908h-8z" />
    <glyph glyph-name="N" unicode="N" horiz-adv-x="1509" 
d="M423 0h-405l307 1443h320l393 -792h8l167 792h405l-307 -1443h-320l-393 792h-8z" />
    <glyph glyph-name="O" unicode="O" horiz-adv-x="1586" 
d="M915 1130q-96 0 -178.5 -69t-131.5 -188t-49 -258q0 -137 65.5 -219.5t175.5 -82.5q146 0 253 151.5t107 364.5q0 138 -66 219.5t-176 81.5zM784 -25q-151 0 -276 46.5t-208 129t-128.5 195t-45.5 243.5q0 194 62.5 359.5t170.5 279t254.5 177t311.5 63.5q155 0 281 -47
t209 -129.5t127.5 -194.5t44.5 -243q0 -195 -63.5 -361t-172 -278.5t-255.5 -176t-312 -63.5z" />
    <glyph glyph-name="P" unicode="P" horiz-adv-x="1357" 
d="M325 1443h547q252 0 392 -122t140 -327q0 -276 -181 -438t-491 -162h-205l-84 -394h-423zM681 1123l-89 -415h143q109 0 176.5 70.5t67.5 177.5q0 167 -187 167h-111z" />
    <glyph glyph-name="Q" unicode="Q" horiz-adv-x="1586" 
d="M1387 -123h-378l-47 118q-88 -20 -178 -20q-151 0 -276 46.5t-208 129t-128.5 195t-45.5 243.5q0 194 62.5 359.5t170.5 279t254.5 177t311.5 63.5q155 0 281 -47t209 -129.5t127.5 -194.5t44.5 -243q0 -220 -80 -399.5t-231 -308.5zM797 313q12 0 40 4l-86 215h341
q65 132 65 297q0 138 -66 219.5t-176 81.5q-96 0 -178.5 -69t-131.5 -188t-49 -258q0 -137 65.5 -219.5t175.5 -82.5z" />
    <glyph glyph-name="R" unicode="R" horiz-adv-x="1394" 
d="M606 774h189q105 0 168 56.5t63 146.5q0 153 -181 153h-162zM325 1443h649q223 0 350 -120.5t127 -310.5q0 -158 -89 -291.5t-250 -196.5l160 -524h-442l-136 484h-149l-103 -484h-424z" />
    <glyph glyph-name="S" unicode="S" horiz-adv-x="1384" 
d="M62 425h401q9 -59 73 -97.5t153 -38.5q92 0 146 33.5t54 87.5q0 42 -32.5 69t-130.5 57l-151 46q-369 112 -369 400q0 218 169.5 352t434.5 134q280 0 440 -121t161 -335h-387q-2 65 -58 104t-146 39q-82 0 -132.5 -33t-50.5 -85q0 -45 35.5 -76t120.5 -56l158 -46
q197 -57 284 -147t87 -244q0 -226 -176.5 -359.5t-464.5 -133.5q-292 0 -455 118.5t-164 331.5z" />
    <glyph glyph-name="T" unicode="T" horiz-adv-x="1306" 
d="M775 0h-424l235 1107h-401l72 336h1226l-72 -336h-401z" />
    <glyph glyph-name="U" unicode="U" horiz-adv-x="1501" 
d="M745 -25q-283 0 -449 134.5t-166 353.5q0 62 13 123l182 857h424l-181 -853q-9 -42 -9 -77q0 -84 58.5 -132.5t145.5 -48.5q186 0 232 214l189 897h424l-209 -991q-47 -222 -225 -349.5t-429 -127.5z" />
    <glyph glyph-name="V" unicode="V" horiz-adv-x="1445" 
d="M907 0h-532l-148 1443h473l19 -1016h8l444 1016h481z" />
    <glyph glyph-name="W" unicode="W" horiz-adv-x="2014" 
d="M1087 821l-387 -821h-401l-66 1443h436l-24 -899h8l406 899h328l34 -899h8l350 899h436l-678 -1443h-396l-46 821h-8z" />
    <glyph glyph-name="X" unicode="X" horiz-adv-x="1476" 
d="M-64 0l609 727l-304 716h454l169 -413h8l307 413h490l-614 -724l306 -719h-453l-173 420h-8l-313 -420h-478z" />
    <glyph glyph-name="Y" unicode="Y" horiz-adv-x="1430" 
d="M838 0h-424l97 457l-284 986h439l133 -585h8l371 585h459l-702 -986z" />
    <glyph glyph-name="Z" unicode="Z" horiz-adv-x="1281" 
d="M-18 0l57 266l772 833v8h-589l72 336h1108l-57 -265l-773 -834v-8h618l-71 -336h-1137z" />
    <glyph glyph-name="bracketleft" unicode="[" horiz-adv-x="810" 
d="M357 1443h659l-63 -294h-266l-249 -1168h266l-62 -294h-659z" />
    <glyph glyph-name="backslash" unicode="\" horiz-adv-x="810" 
d="M268 -313l-51 1756h385l51 -1756h-385z" />
    <glyph glyph-name="bracketright" unicode="]" horiz-adv-x="810" 
d="M513 -313h-660l63 294h267l249 1168h-267l62 294h660z" />
    <glyph glyph-name="asciicircum" unicode="^" horiz-adv-x="1082" 
d="M507 1095l-212 -289h-351l461 596h329l202 -596h-332l-79 289h-18z" />
    <glyph glyph-name="underscore" unicode="_" horiz-adv-x="1024" 
d="M-235 -448l74 348h1124l-74 -348h-1124z" />
    <glyph glyph-name="grave" unicode="`" horiz-adv-x="1048" 
d="M994 1275h-314l-197 321h347z" />
    <glyph glyph-name="a" unicode="a" horiz-adv-x="1182" 
d="M530 252q65 0 117 37.5t64 93.5l15 71l-171 -4q-68 -2 -109 -31.5t-41 -76.5q0 -40 34.5 -65t90.5 -25zM345 -16q-138 0 -229.5 85t-91.5 214q0 172 135.5 273.5t371.5 106.5l241 5l13 64q4 23 4 31q0 38 -37 61.5t-97 23.5q-56 0 -95 -22.5t-54 -65.5h-357
q33 172 177 272t357 100q220 0 356 -93t136 -244q0 -49 -9 -89l-150 -706h-385l28 130h-8q-41 -67 -122.5 -106.5t-183.5 -39.5z" />
    <glyph glyph-name="b" unicode="b" horiz-adv-x="1324" 
d="M768 -16q-121 0 -210.5 57.5t-121.5 155.5h-8l-42 -197h-386l308 1443h397l-108 -496h10q51 82 138.5 127.5t194.5 45.5q170 0 268 -112t98 -306q0 -202 -70 -366.5t-193.5 -258t-274.5 -93.5zM659 296q98 0 167.5 99t69.5 240q0 84 -42 134.5t-112 50.5
q-95 0 -166 -101.5t-71 -237.5q0 -84 42 -134.5t112 -50.5z" />
    <glyph glyph-name="c" unicode="c" horiz-adv-x="1200" 
d="M706 1132q214 0 355.5 -117t141.5 -294q0 -48 -1 -54h-378q0 69 -37 109.5t-101 40.5q-94 0 -152.5 -98.5t-58.5 -255.5q0 -80 38 -128t101 -48q64 0 108.5 40.5t60.5 113.5h378q-25 -210 -180.5 -339.5t-384.5 -129.5q-235 0 -375.5 129t-140.5 345q0 318 168 502
t458 184z" />
    <glyph glyph-name="d" unicode="d" horiz-adv-x="1323" 
d="M439 -16q-170 0 -268.5 112.5t-98.5 306.5q0 203 71.5 367t198 257t282.5 93q120 0 201.5 -50.5t109.5 -142.5h8l110 516h397l-308 -1443h-386l33 155h-8q-120 -171 -342 -171zM636 285q95 0 166 101.5t71 237.5q0 83 -42 134t-111 51q-99 0 -168.5 -98.5t-69.5 -239.5
q0 -83 42.5 -134.5t111.5 -51.5z" />
    <glyph glyph-name="e" unicode="e" horiz-adv-x="1234" 
d="M474 682h374q3 7 3 32q0 63 -45 103.5t-116 40.5q-77 0 -136.5 -48.5t-79.5 -127.5zM604 -27q-239 0 -380.5 134.5t-141.5 370.5q0 188 77.5 336.5t220.5 233t328 84.5q223 0 362.5 -130.5t139.5 -345.5q0 -110 -20 -190h-752q-3 -16 -3 -32q0 -79 51 -130.5t138 -51.5
q65 0 112 30t61 78h368q-43 -176 -193 -281.5t-368 -105.5z" />
    <glyph glyph-name="f" unicode="f" horiz-adv-x="828" 
d="M87 0l171 797h-167l62 289h162l29 139q31 146 135 213t287 67q139 0 237 -31l-55 -247q-37 13 -112 13q-46 0 -75.5 -20t-37.5 -55l-17 -79h212l-62 -289h-202l-170 -797h-397z" />
    <glyph glyph-name="g" unicode="g" horiz-adv-x="1309" 
d="M514 -417q-257 0 -401 95.5t-146 266.5h383q9 -50 58 -78t128 -28q171 0 201 144l41 189h-20q-48 -71 -130 -109t-188 -38q-164 0 -265 110t-101 289q0 188 73.5 348.5t199.5 254t274 93.5q113 0 195 -54t110 -146h18l42 184h386l-243 -1143q-38 -179 -200 -278.5
t-415 -99.5zM632 286q95 0 166 101t71 237q0 84 -42 134.5t-112 50.5q-98 0 -167.5 -99t-69.5 -239q0 -83 42 -134t112 -51z" />
    <glyph glyph-name="h" unicode="h" horiz-adv-x="1302" 
d="M0 0l307 1443h394l-109 -506h8q62 91 154 140t205 49q151 0 243.5 -84.5t92.5 -221.5q0 -63 -15 -135l-144 -685h-393l131 624q7 36 7 68q0 57 -42.5 94.5t-107.5 37.5q-71 0 -127 -49t-72 -127l-137 -648h-395z" />
    <glyph glyph-name="i" unicode="i" horiz-adv-x="562" 
d="M-8 0l235 1104h397l-235 -1104h-397zM480 1169q-86 0 -144 55t-58 137t58 137t144 55t144 -55t58 -137t-58 -137t-144 -55z" />
    <glyph glyph-name="j" unicode="j" horiz-adv-x="560" 
d="M480 1169q-86 0 -144 55t-58 137t58 137t144 55t144 -55t58 -137t-58 -137t-144 -55zM623 1104l-250 -1173q-33 -155 -157.5 -245t-303.5 -90q-97 0 -174 17l61 277q28 -7 71 -7q48 0 78 23t38 64l241 1134h396z" />
    <glyph glyph-name="k" unicode="k" horiz-adv-x="1243" 
d="M396 0h-396l308 1443h395l-154 -725h8l353 386h452l-490 -486l291 -618h-428l-181 404l-92 -92z" />
    <glyph glyph-name="l" unicode="l" horiz-adv-x="576" 
d="M0 0l307 1443h396l-307 -1443h-396z" />
    <glyph glyph-name="m" unicode="m" horiz-adv-x="1886" 
d="M-8 0l235 1104h383l-38 -175h8q53 95 143.5 149t194.5 54q101 0 175 -52.5t102 -143.5h8q64 93 159 144.5t211 51.5q134 0 220 -87.5t86 -223.5q0 -63 -15 -135l-144 -686h-394l132 631q7 35 7 67q0 58 -32 92t-86 34q-61 0 -105 -44.5t-60 -123.5l-137 -656h-376
l132 631q7 35 7 67q0 58 -32 92t-86 34q-61 0 -104.5 -44.5t-60.5 -124.5l-139 -655h-394z" />
    <glyph glyph-name="n" unicode="n" horiz-adv-x="1286" 
d="M-8 0l235 1104h383l-36 -167h8q58 93 155.5 144t209.5 51q150 0 241 -85.5t91 -226.5q0 -62 -15 -135l-144 -685h-393l131 624q7 38 7 68q0 58 -41.5 95t-105.5 37q-70 0 -124 -48.5t-70 -127.5l-138 -648h-394z" />
    <glyph glyph-name="o" unicode="o" horiz-adv-x="1299" 
d="M632 275q100 0 168.5 100.5t68.5 247.5q0 93 -41 149.5t-108 56.5q-103 0 -170.5 -99t-67.5 -249q0 -92 41.5 -149t108.5 -57zM740 1132q239 0 386.5 -138.5t147.5 -362.5q0 -190 -84 -340.5t-234.5 -234.5t-341.5 -84q-239 0 -386.5 138.5t-147.5 362.5q0 190 84 340.5
t234.5 234.5t341.5 84z" />
    <glyph glyph-name="p" unicode="p" horiz-adv-x="1315" 
d="M650 296q98 0 167.5 99t69.5 240q0 83 -42 134t-112 51q-95 0 -166 -101.5t-71 -237.5q0 -84 42 -134.5t112 -50.5zM313 -353h-396l310 1457h386l-33 -154h8q126 170 343 170q170 0 268 -112t98 -306q0 -204 -70.5 -368t-196 -257t-281.5 -93q-117 0 -197.5 55
t-113.5 158h-7z" />
    <glyph glyph-name="q" unicode="q" horiz-adv-x="1323" 
d="M637 285q95 0 166 101.5t71 237.5q0 83 -42 134t-111 51q-99 0 -168.5 -98.5t-69.5 -239.5q0 -83 42.5 -134.5t111.5 -51.5zM1076 -353h-397l109 508h-6q-128 -171 -342 -171q-170 0 -268.5 112.5t-98.5 306.5q0 203 71.5 367.5t198 257t282.5 92.5q116 0 202.5 -51
t126.5 -142h8l37 177h387z" />
    <glyph glyph-name="r" unicode="r" horiz-adv-x="894" 
d="M-8 0l237 1104h387l-32 -160h8q39 80 109.5 128t157.5 48q88 0 152 -29l-75 -343q-87 41 -166 41q-100 0 -167.5 -56.5t-91.5 -168.5l-122 -564h-397z" />
    <glyph glyph-name="s" unicode="s" horiz-adv-x="1157" 
d="M159 760q0 170 137.5 271t367.5 101q214 0 352 -103.5t144 -268.5h-354q-3 50 -43.5 81t-104.5 31q-57 0 -90.5 -21t-33.5 -57q0 -30 27.5 -49.5t106.5 -46.5l124 -42q159 -54 225.5 -123.5t66.5 -180.5q0 -173 -142 -276.5t-380 -103.5q-241 0 -385 104t-151 282h374
q3 -56 50 -90.5t122 -34.5q57 0 88.5 19t31.5 54q0 28 -28 48t-102 46l-100 34q-155 53 -229 132.5t-74 193.5z" />
    <glyph glyph-name="t" unicode="t" horiz-adv-x="873" 
d="M558 -16q-186 0 -287 63t-101 185q0 62 12 122l89 427h-165l64 290h164l56 263h396l-56 -263h216l-62 -290h-215l-84 -393q-5 -17 -5 -44q0 -43 30 -61.5t98 -18.5q56 0 72 6l-60 -272q-52 -14 -162 -14z" />
    <glyph glyph-name="u" unicode="u" horiz-adv-x="1287" 
d="M1350 1104l-235 -1104h-385l38 180h-8q-50 -98 -142 -153t-207 -55q-158 0 -252 88t-94 237q0 75 14 139l142 668h396l-129 -603q-5 -32 -5 -59q0 -70 38.5 -109t109.5 -39t120 47.5t67 132.5l134 630h398z" />
    <glyph glyph-name="v" unicode="v" horiz-adv-x="1180" 
d="M153 1105h399l6 -767h8l329 767h422l-591 -1105h-464z" />
    <glyph glyph-name="w" unicode="w" horiz-adv-x="1766" 
d="M1895 1104l-508 -1104h-434l-3 713h-8l-299 -713h-438l-44 1104h398l-42 -747h8l302 747h386l-12 -747h8l274 747h412z" />
    <glyph glyph-name="x" unicode="x" horiz-adv-x="1223" 
d="M589 327h-8l-211 -327h-436l442 554l-201 550h426l88 -327h8l211 327h436l-442 -554l201 -550h-426z" />
    <glyph glyph-name="y" unicode="y" horiz-adv-x="1206" 
d="M75 -405h-152l64 305h106q172 0 172 97q0 18 -1 23l-111 1084h407l-1 -808h8l354 808h422l-568 -1086q-118 -226 -282 -324.5t-418 -98.5z" />
    <glyph glyph-name="z" unicode="z" horiz-adv-x="1105" 
d="M-32 0l44 208l596 584l2 8h-456l65 304h957l-52 -243l-549 -549l-1 -8h454l-65 -304h-995z" />
    <glyph glyph-name="braceleft" unicode="{" horiz-adv-x="810" 
d="M159 188q12 53 12 87q0 56 -37 86t-131 30l73 347q108 0 163 44.5t80 159.5l22 99q50 224 169.5 313t359.5 89h147l-61 -284h-43q-86 0 -128.5 -41t-65.5 -148l-35 -159q-25 -111 -104 -168t-223 -69l-5 -20q229 -19 229 -194q0 -29 -9 -74l-27 -127q-12 -55 -12 -92
q0 -57 29.5 -77t96.5 -20h43l-60 -283h-147q-90 0 -158 18.5t-107.5 46.5t-64 68t-33 77.5t-8.5 79.5q0 51 15 121z" />
    <glyph glyph-name="bar" unicode="|" horiz-adv-x="810" 
d="M448 -313h-400l374 1756h400z" />
    <glyph glyph-name="braceright" unicode="}" horiz-adv-x="810" 
d="M711 942q-12 -53 -12 -87q0 -56 37 -86t131 -30l-73 -347q-108 0 -163 -44.5t-80 -159.5l-22 -99q-50 -224 -169.5 -313t-359.5 -89h-147l61 284h43q86 0 128.5 41t65.5 148l35 159q25 111 104 168t223 69l5 20q-229 19 -229 194q0 29 9 74l27 127q12 55 12 92
q0 57 -29.5 77t-96.5 20h-43l60 283h147q90 0 158 -18.5t107.5 -46.5t64 -68t33 -77.5t8.5 -79.5q0 -51 -15 -121z" />
    <glyph glyph-name="asciitilde" unicode="~" horiz-adv-x="1413" 
d="M981 482q-60 0 -110 18.5t-84 45t-64.5 53t-63.5 45t-68 18.5q-44 0 -77 -38.5t-49 -113.5h-287q43 242 143 364.5t252 122.5q59 0 109.5 -18.5t84.5 -45.5t64 -53.5t61.5 -45t63.5 -18.5q42 0 76 40t49 115h288q-44 -248 -137.5 -368.5t-250.5 -120.5z" />
    <glyph glyph-name="nonbreakingspace" unicode="&#xa0;" horiz-adv-x="412" 
 />
    <glyph glyph-name="exclamdown" unicode="&#xa1;" horiz-adv-x="755" 
d="M417 -340h-420l243 972h348zM489 1143q89 0 151 -58t62 -142q0 -83 -62 -141t-151 -58q-87 0 -149.5 58t-62.5 141q0 84 62.5 142t149.5 58z" />
    <glyph glyph-name="cent" unicode="&#xa2;" horiz-adv-x="1413" 
d="M1293 543q-11 -85 -48 -160.5t-97.5 -136.5t-149.5 -102t-196 -52l-38 -186h-313l46 218q-143 51 -223.5 164.5t-80.5 271.5q0 183 65.5 334t190.5 249.5t291 122.5l40 187h313l-47 -213q137 -50 214 -155.5t77 -221.5q0 -27 -1 -41h-376q0 69 -39 105t-103 36
q-103 0 -163.5 -109t-60.5 -273q0 -95 44 -139.5t102 -44.5q65 0 110.5 37t64.5 109h378z" />
    <glyph glyph-name="sterling" unicode="&#xa3;" horiz-adv-x="1413" 
d="M1284 352l-73 -342h-1186l73 342q134 0 236.5 79t118.5 194h-294l57 270h223q-8 98 -8 142q0 211 158 328.5t414 117.5q279 0 469 -88l-63 -315q-143 68 -331 68q-106 0 -175.5 -47t-69.5 -139q0 -37 3 -67h346l-57 -270h-278q-14 -86 -60 -161.5t-117 -107.5v-4h614z
" />
    <glyph glyph-name="currency" unicode="&#xa4;" horiz-adv-x="1413" 
d="M548 642q0 -83 61 -145t144 -62t144 62t61 145t-61 145t-144 62t-144 -62t-61 -145zM1417 1003l-195 -161q41 -96 41 -200q0 -143 -74 -264l94 -117l-274 -226l-98 122q-78 -25 -158 -25q-157 0 -286 88l-200 -165l-178 226l195 161q-41 96 -41 200q0 143 74 264l-94 117
l274 226l98 -122q78 25 158 25q157 0 286 -88l200 165z" />
    <glyph glyph-name="yen" unicode="&#xa5;" horiz-adv-x="1413" 
d="M1127 155h-265l-33 -155h-424l33 155h-265l42 196h265l22 106h-265l42 196h167l-228 790h444l130 -588h5l377 588h454l-562 -790h167l-42 -196h-265l-22 -106h265z" />
    <glyph glyph-name="brokenbar" unicode="&#xa6;" horiz-adv-x="810" 
d="M673 746h-400l149 697h400zM449 -313h-400l147 697h400z" />
    <glyph glyph-name="section" unicode="&#xa7;" horiz-adv-x="966" 
d="M460 502l120 -69q35 17 58 46t23 57q0 29 -23.5 59.5t-63.5 53.5l-121 69q-35 -17 -57.5 -45.5t-22.5 -57.5q0 -63 87 -113zM397 -314q-200 0 -329 101.5t-129 269.5h328q0 -44 37 -74.5t90 -30.5q51 0 85.5 26.5t34.5 65.5q0 59 -79 102l-189 101q-219 118 -219 300
q0 110 72 187.5t200 105.5v20q-75 57 -106 111t-31 126q0 161 133.5 264.5t341.5 103.5q201 0 326 -101.5t129 -277.5h-327q0 51 -36.5 82t-92.5 31q-51 0 -85 -26t-34 -65q0 -58 78 -102l179 -100q229 -128 229 -306q0 -107 -75.5 -187t-195.5 -101v-20q73 -57 104 -110.5
t31 -124.5q0 -161 -132.5 -266t-337.5 -105z" />
    <glyph glyph-name="dieresis" unicode="&#xa8;" horiz-adv-x="1048" 
d="M524 1255q-64 0 -106.5 41t-42.5 100t42.5 100t106.5 41t106.5 -41t42.5 -100t-42.5 -100t-106.5 -41zM942 1255q-64 0 -106.5 41t-42.5 100t42.5 100t106.5 41t106.5 -41t42.5 -100t-42.5 -100t-106.5 -41z" />
    <glyph glyph-name="copyright" unicode="&#xa9;" horiz-adv-x="1677" 
d="M882 -105q-163 0 -307 58.5t-246.5 160.5t-161.5 245t-59 305q0 158 64 304t170.5 252t253.5 169.5t306 63.5q163 0 307 -58.5t246.5 -160.5t161.5 -245t59 -305q0 -158 -64 -304t-170.5 -252t-253.5 -169.5t-306 -63.5zM882 72q121 0 233 49.5t194 132t131 196t49 234.5
q0 255 -167 423.5t-420 168.5q-121 0 -233 -49.5t-194 -132t-131 -196t-49 -234.5q0 -255 167 -423.5t420 -168.5zM1260 729h-242q4 59 -19 91t-69 32q-60 0 -102 -69.5t-42 -168.5q0 -122 95 -122q33 0 55.5 16t41.5 53h251q-35 -129 -126.5 -198t-226.5 -69
q-149 0 -243 92.5t-94 240.5q0 182 112.5 302.5t282.5 120.5q154 0 249 -93.5t77 -227.5z" />
    <glyph glyph-name="ordfeminine" unicode="&#xaa;" horiz-adv-x="818" 
d="M510 1000q-41 0 -64 -17.5t-23 -47.5q0 -26 19.5 -42.5t52.5 -16.5t58 22.5t32 59.5l9 42h-84zM137 896q0 117 84.5 184t232.5 67h172q2 7 5 19.5t5 17.5q4 18 4 24q0 24 -19.5 38t-51.5 14q-61 0 -75 -36h-267q61 241 346 241q158 0 255 -68.5t97 -178.5q0 -27 -6 -57
l-100 -468h-280l13 76l-16 1q-28 -41 -74 -64.5t-101 -23.5q-101 0 -162.5 59t-61.5 155z" />
    <glyph glyph-name="guillemotleft" unicode="&#xab;" horiz-adv-x="1479" 
d="M727 156h-338l-260 407l2 8l404 406h367l-433 -421l-1 -6zM1312 156h-338l-260 407l2 8l404 406h367l-433 -421l-1 -6z" />
    <glyph glyph-name="logicalnot" unicode="&#xac;" horiz-adv-x="1413" 
d="M1349 762l-161 -757h-362l87 409h-780l74 348h1142z" />
    <glyph glyph-name="registered" unicode="&#xae;" horiz-adv-x="1194" 
d="M634 841h-152l101 477h254q68 0 115 -45t47 -112q0 -54 -33.5 -97t-89.5 -61l71 -162h-167l-61 150h-54zM711 1202l-22 -104h82q31 0 49.5 15t18.5 41q0 48 -56 48h-72zM735 537q-229 0 -383.5 154.5t-154.5 383.5t154.5 383.5t383.5 154.5t383.5 -154.5t154.5 -383.5
t-154.5 -383.5t-383.5 -154.5zM735 694q161 0 266 107.5t105 273.5t-105 273.5t-266 107.5t-266 -107.5t-105 -273.5t105 -273.5t266 -107.5z" />
    <glyph glyph-name="macron" unicode="&#xaf;" horiz-adv-x="1048" 
d="M1095 1456l-38 -180h-704l38 180h704z" />
    <glyph glyph-name="degree" unicode="&#xb0;" horiz-adv-x="786" 
d="M538 753q-150 0 -251 100.5t-101 251.5t100.5 251t251.5 100t251.5 -100t100.5 -251t-100.5 -251.5t-251.5 -100.5zM539 968q55 0 92.5 40.5t37.5 96.5q0 57 -37.5 96.5t-92.5 39.5q-54 0 -93 -40t-39 -96q0 -55 39 -96t93 -41z" />
    <glyph glyph-name="plusminus" unicode="&#xb1;" horiz-adv-x="1413" 
d="M1111 37h-976l61 288h976zM928 640l-40 -188h-351l40 188h-314l63 296h314l40 188h351l-40 -188h315l-63 -296h-315z" />
    <glyph glyph-name="two.sups" unicode="&#xb2;" horiz-adv-x="700" 
d="M644 1290l-11 -7h213l-46 -218h-622l45 204l204 122q121 80 156 110.5t35 55.5q0 16 -12.5 26t-31.5 10q-21 0 -37 -15.5t-18 -37.5l-1 -8h-269q4 118 106 198.5t249 80.5q135 0 221 -62.5t86 -160.5q0 -78 -54.5 -139t-212.5 -159z" />
    <glyph glyph-name="three.sups" unicode="&#xb3;" horiz-adv-x="738" 
d="M470 1340l39 181h76q67 0 67 40q0 17 -15 27.5t-38 10.5q-19 0 -34.5 -8.5t-17.5 -19.5h-268q25 113 115.5 176.5t227.5 63.5t223 -60.5t86 -157.5q0 -64 -49.5 -110.5t-119.5 -55.5l-1 -6q54 -11 86.5 -52.5t32.5 -100.5q0 -103 -89 -166t-235 -63q-161 0 -249.5 63.5
t-87.5 179.5q0 21 2 27h277q5 -39 56 -39q22 0 35.5 10t13.5 26q0 14 -11 24t-27 10h-95z" />
    <glyph glyph-name="acute" unicode="&#xb4;" horiz-adv-x="1048" 
d="M729 1275h-314l300 321h348z" />
    <glyph glyph-name="mugreek" unicode="&#xb5;" horiz-adv-x="1382" 
d="M-84 -353l310 1457h397l-123 -577q-9 -42 -9 -76q0 -72 37.5 -112t105.5 -40q73 0 123.5 50t69.5 141l131 614h398l-153 -716q-7 -41 -7 -51q0 -67 77 -67q31 0 59 10l-57 -267q-71 -23 -175 -23q-134 0 -204.5 53.5t-70.5 154.5v6h-9q-34 -100 -116.5 -162.5
t-180.5 -62.5q-78 0 -120 33h-8l-78 -365h-397z" />
    <glyph glyph-name="mugreek" unicode="&#x3bc;" horiz-adv-x="1382" 
d="M-84 -353l310 1457h397l-123 -577q-9 -42 -9 -76q0 -72 37.5 -112t105.5 -40q73 0 123.5 50t69.5 141l131 614h398l-153 -716q-7 -41 -7 -51q0 -67 77 -67q31 0 59 10l-57 -267q-71 -23 -175 -23q-134 0 -204.5 53.5t-70.5 154.5v6h-9q-34 -100 -116.5 -162.5
t-180.5 -62.5q-78 0 -120 33h-8l-78 -365h-397z" />
    <glyph glyph-name="paragraph" unicode="&#xb6;" horiz-adv-x="1689" 
d="M829 -290h-380l140 655q-189 33 -293 156.5t-104 301.5q0 266 169.5 435t456.5 184l380 1zM1019 -290l369 1733h380l-369 -1733h-380z" />
    <glyph glyph-name="periodcentered" unicode="&#xb7;" horiz-adv-x="618" 
d="M337 344q-86 0 -147 61t-61 147t61 147t147 61t147 -61t61 -147t-61 -147t-147 -61z" />
    <glyph glyph-name="cedilla" unicode="&#xb8;" horiz-adv-x="1069" 
d="M226 -211l29 125l85 102h191l-3 -16l-62 -76q138 -20 138 -149q0 -102 -93 -169t-235 -67q-98 0 -138 15l35 161q43 -12 110 -12q112 0 112 47q0 22 -24.5 30.5t-86.5 8.5h-58z" />
    <glyph glyph-name="one.sups" unicode="&#xb9;" horiz-adv-x="590" 
d="M341 1065l101 473h-6l-189 -103l51 242l196 108h305l-154 -720h-304z" />
    <glyph glyph-name="ordmasculine" unicode="&#xba;" horiz-adv-x="878" 
d="M541 671q-168 0 -265 93.5t-97 254.5q0 196 121.5 321t311.5 125q169 0 264.5 -94.5t95.5 -261.5q0 -195 -119.5 -316.5t-311.5 -121.5zM679 1125q0 57 -19 89t-53 32q-54 0 -93.5 -72t-39.5 -166q0 -117 72 -117q54 0 93.5 69.5t39.5 164.5z" />
    <glyph glyph-name="guillemotright" unicode="&#xbb;" horiz-adv-x="1479" 
d="M813 977h338l260 -407l-2 -8l-404 -406h-367l433 421l1 6zM228 977h338l260 -407l-2 -8l-404 -406h-367l433 421l1 6z" />
    <glyph glyph-name="onequarter" unicode="&#xbc;" horiz-adv-x="1797" 
d="M269 723l101 473h-6l-189 -103l51 242l196 108h305l-154 -720h-304zM405 0h-310l727 773l631 670h310l-707 -751zM1315 0l16 76h-364l55 256q71 103 131.5 180.5t171.5 207.5h428l-90 -422h73l-48 -222h-72l-16 -76h-285zM1261 289l-1 -6h125l52 243h-5
q-50 -57 -99.5 -125t-71.5 -112z" />
    <glyph glyph-name="onehalf" unicode="&#xbd;" horiz-adv-x="1812" 
d="M370 1196h-6l-189 -103l51 242l196 108h305l-154 -720h-304zM1453 1443h310l-707 -751l-651 -692h-310l727 773zM1530 225l-11 -7h213l-46 -218h-622l45 204l204 122q121 80 156 110.5t35 55.5q0 16 -12.5 26t-31.5 10q-21 0 -37 -15.5t-18 -37.5l-1 -8h-269
q4 118 106 198.5t249 80.5q135 0 221 -62.5t86 -160.5q0 -78 -54.5 -139t-212.5 -159z" />
    <glyph glyph-name="threequarters" unicode="&#xbe;" horiz-adv-x="1893" 
d="M398 998l39 181h76q67 0 67 40q0 17 -15 27.5t-38 10.5q-19 0 -34.5 -8.5t-17.5 -19.5h-268q25 113 115.5 176.5t227.5 63.5t223 -60.5t86 -157.5q0 -64 -49.5 -110.5t-119.5 -55.5l-1 -6q54 -11 86.5 -52.5t32.5 -100.5q0 -103 -89 -166t-235 -63q-161 0 -249.5 63.5
t-87.5 179.5q0 21 2 27h277q5 -39 56 -39q22 0 35.5 10t13.5 26q0 14 -11 24t-27 10h-95zM501 0h-310l727 773l631 670h310l-707 -751zM1411 0l16 76h-364l55 256q71 103 131.5 180.5t171.5 207.5h428l-90 -422h73l-48 -222h-72l-16 -76h-285zM1357 289l-1 -6h125l52 243h-5
q-50 -57 -99.5 -125t-71.5 -112z" />
    <glyph glyph-name="questiondown" unicode="&#xbf;" horiz-adv-x="1166" 
d="M1038 80q-17 -189 -165 -311t-372 -122q-237 0 -379.5 105.5t-142.5 278.5q0 128 69 231.5t209 164.5q118 51 163.5 90t59.5 103l6 28h362l-6 -47q-18 -140 -69 -213.5t-166 -123.5q-127 -55 -173.5 -100t-46.5 -104q0 -48 36 -76.5t95 -28.5q53 0 94.5 34.5t53.5 90.5
h372zM762 1143q89 0 151 -58t62 -142q0 -83 -62 -141t-151 -58q-87 0 -149.5 58t-62.5 141q0 84 62.5 142t149.5 58z" />
    <glyph glyph-name="Agrave" unicode="&#xc0;" horiz-adv-x="1494" 
d="M902 1089l-247 -503h278l-22 503h-9zM959 0l-13 287h-438l-141 -287h-447l794 1443h532l148 -1443h-435zM862 1555l-206 321h332l164 -321h-290z" />
    <glyph glyph-name="Aacute" unicode="&#xc1;" horiz-adv-x="1494" 
d="M902 1089l-247 -503h278l-22 503h-9zM959 0l-13 287h-438l-141 -287h-447l794 1443h532l148 -1443h-435zM1168 1555h-322l300 321h364z" />
    <glyph glyph-name="Acircumflex" unicode="&#xc2;" horiz-adv-x="1494" 
d="M902 1089l-247 -503h278l-22 503h-9zM959 0l-13 287h-438l-141 -287h-447l794 1443h532l148 -1443h-435zM1229 1872l183 -336h-276l-91 192h-8l-173 -192h-276l327 336h314z" />
    <glyph glyph-name="Atilde" unicode="&#xc3;" horiz-adv-x="1494" 
d="M902 1089l-247 -503h278l-22 503h-9zM959 0l-13 287h-438l-141 -287h-447l794 1443h532l148 -1443h-435zM1179 1546q-49 0 -91 18.5t-65 41t-51 41t-54 18.5q-61 0 -88 -101h-205q28 133 107.5 213t185.5 80q49 0 91 -18.5t65 -41t51 -41t54 -18.5q61 0 89 106h205
q-29 -135 -109.5 -216.5t-184.5 -81.5z" />
    <glyph glyph-name="Adieresis" unicode="&#xc4;" horiz-adv-x="1494" 
d="M902 1089l-247 -503h278l-22 503h-9zM959 0l-13 287h-438l-141 -287h-447l794 1443h532l148 -1443h-435zM826 1559q-64 0 -106.5 41t-42.5 100t42.5 100t106.5 41t106.5 -41t42.5 -100t-42.5 -100t-106.5 -41zM1244 1559q-64 0 -106.5 41t-42.5 100t42.5 100t106.5 41
t106.5 -41t42.5 -100t-42.5 -100t-106.5 -41z" />
    <glyph glyph-name="Aring" unicode="&#xc5;" horiz-adv-x="1494" 
d="M902 1089l-247 -503h278l-22 503h-9zM959 0l-13 287h-438l-141 -287h-447l794 1443h532l148 -1443h-435zM1074 1574q-99 0 -171.5 69.5t-72.5 165.5q0 97 72.5 166.5t171.5 69.5t171 -69.5t72 -166.5t-72 -166t-171 -69zM1074 1725q35 0 61.5 25t26.5 59q0 35 -26.5 60.5
t-61.5 25.5t-61.5 -25.5t-26.5 -60.5q0 -34 26.5 -59t61.5 -25z" />
    <glyph glyph-name="AE" unicode="&#xc6;" horiz-adv-x="2086" 
d="M1119 1129h-112l-303 -543h300zM879 0l61 286h-403l-160 -286h-426l847 1443h1407l-72 -336h-643l-49 -234h606l-65 -304h-606l-50 -233h643l-71 -336h-1019z" />
    <glyph glyph-name="Ccedilla" unicode="&#xc7;" horiz-adv-x="1540" 
d="M1564 862h-411q1 6 1 40q0 95 -66.5 160t-163.5 65q-159 0 -260.5 -146t-101.5 -375q0 -133 62 -209.5t170 -76.5q105 0 184 62.5t111 169.5h411q-35 -241 -214.5 -396.5t-444.5 -177.5l-44 -54q138 -20 138 -149q0 -102 -93 -169t-235 -67q-98 0 -138 15l35 161
q43 -12 110 -12q112 0 112 47q0 22 -24.5 30.5t-86.5 8.5h-58l29 125l58 69q-240 34 -379.5 193.5t-139.5 403.5q0 406 229 647t614 241q262 0 431.5 -153t169.5 -389q0 -37 -5 -64z" />
    <glyph glyph-name="Egrave" unicode="&#xc8;" horiz-adv-x="1208" 
d="M1107 336l-71 -336h-1018l307 1443h1017l-72 -336h-593l-49 -234h556l-65 -304h-556l-50 -233h594zM689 1555l-206 321h332l164 -321h-290z" />
    <glyph glyph-name="Eacute" unicode="&#xc9;" horiz-adv-x="1208" 
d="M1107 336l-71 -336h-1018l307 1443h1017l-72 -336h-593l-49 -234h556l-65 -304h-556l-50 -233h594zM995 1555h-322l300 321h364z" />
    <glyph glyph-name="Ecircumflex" unicode="&#xca;" horiz-adv-x="1208" 
d="M1107 336l-71 -336h-1018l307 1443h1017l-72 -336h-593l-49 -234h556l-65 -304h-556l-50 -233h594zM1056 1872l183 -336h-276l-91 192h-8l-173 -192h-276l327 336h314z" />
    <glyph glyph-name="Edieresis" unicode="&#xcb;" horiz-adv-x="1208" 
d="M1107 336l-71 -336h-1018l307 1443h1017l-72 -336h-593l-49 -234h556l-65 -304h-556l-50 -233h594zM653 1559q-64 0 -106.5 41t-42.5 100t42.5 100t106.5 41t106.5 -41t42.5 -100t-42.5 -100t-106.5 -41zM1071 1559q-64 0 -106.5 41t-42.5 100t42.5 100t106.5 41
t106.5 -41t42.5 -100t-42.5 -100t-106.5 -41z" />
    <glyph glyph-name="Igrave" unicode="&#xcc;" horiz-adv-x="640" 
d="M442 0h-424l307 1443h424zM419 1555l-206 321h332l164 -321h-290z" />
    <glyph glyph-name="Iacute" unicode="&#xcd;" horiz-adv-x="640" 
d="M442 0h-424l307 1443h424zM725 1555h-322l300 321h364z" />
    <glyph glyph-name="Icircumflex" unicode="&#xce;" horiz-adv-x="640" 
d="M442 0h-424l307 1443h424zM786 1872l183 -336h-276l-91 192h-8l-173 -192h-276l327 336h314z" />
    <glyph glyph-name="Idieresis" unicode="&#xcf;" horiz-adv-x="640" 
d="M442 0h-424l307 1443h424zM383 1559q-64 0 -106.5 41t-42.5 100t42.5 100t106.5 41t106.5 -41t42.5 -100t-42.5 -100t-106.5 -41zM801 1559q-64 0 -106.5 41t-42.5 100t42.5 100t106.5 41t106.5 -41t42.5 -100t-42.5 -100t-106.5 -41z" />
    <glyph glyph-name="Eth" unicode="&#xd0;" horiz-adv-x="1492" 
d="M518 336h158q172 0 279 135t107 367q0 122 -63.5 196t-174.5 74h-143l-45 -215h189l-72 -336h-188zM325 1443h600q256 0 414.5 -147.5t158.5 -403.5q0 -258 -94 -460.5t-268 -317t-399 -114.5h-719l119 557h-109l72 336h108z" />
    <glyph glyph-name="Ntilde" unicode="&#xd1;" horiz-adv-x="1509" 
d="M423 0h-405l307 1443h320l393 -792h8l167 792h405l-307 -1443h-320l-393 792h-8zM1125 1546q-49 0 -91 18.5t-65 41t-51 41t-54 18.5q-61 0 -88 -101h-205q28 133 107.5 213t185.5 80q49 0 91 -18.5t65 -41t51 -41t54 -18.5q61 0 89 106h205q-29 -135 -109.5 -216.5
t-184.5 -81.5z" />
    <glyph glyph-name="Ograve" unicode="&#xd2;" horiz-adv-x="1586" 
d="M915 1130q-96 0 -178.5 -69t-131.5 -188t-49 -258q0 -137 65.5 -219.5t175.5 -82.5q146 0 253 151.5t107 364.5q0 138 -66 219.5t-176 81.5zM784 -25q-151 0 -276 46.5t-208 129t-128.5 195t-45.5 243.5q0 194 62.5 359.5t170.5 279t254.5 177t311.5 63.5q155 0 281 -47
t209 -129.5t127.5 -194.5t44.5 -243q0 -195 -63.5 -361t-172 -278.5t-255.5 -176t-312 -63.5zM819 1555l-206 321h332l164 -321h-290z" />
    <glyph glyph-name="Oacute" unicode="&#xd3;" horiz-adv-x="1586" 
d="M915 1130q-96 0 -178.5 -69t-131.5 -188t-49 -258q0 -137 65.5 -219.5t175.5 -82.5q146 0 253 151.5t107 364.5q0 138 -66 219.5t-176 81.5zM784 -25q-151 0 -276 46.5t-208 129t-128.5 195t-45.5 243.5q0 194 62.5 359.5t170.5 279t254.5 177t311.5 63.5q155 0 281 -47
t209 -129.5t127.5 -194.5t44.5 -243q0 -195 -63.5 -361t-172 -278.5t-255.5 -176t-312 -63.5zM1125 1555h-322l300 321h364z" />
    <glyph glyph-name="Ocircumflex" unicode="&#xd4;" horiz-adv-x="1586" 
d="M915 1130q-96 0 -178.5 -69t-131.5 -188t-49 -258q0 -137 65.5 -219.5t175.5 -82.5q146 0 253 151.5t107 364.5q0 138 -66 219.5t-176 81.5zM784 -25q-151 0 -276 46.5t-208 129t-128.5 195t-45.5 243.5q0 194 62.5 359.5t170.5 279t254.5 177t311.5 63.5q155 0 281 -47
t209 -129.5t127.5 -194.5t44.5 -243q0 -195 -63.5 -361t-172 -278.5t-255.5 -176t-312 -63.5zM1186 1872l183 -336h-276l-91 192h-8l-173 -192h-276l327 336h314z" />
    <glyph glyph-name="Otilde" unicode="&#xd5;" horiz-adv-x="1586" 
d="M915 1130q-96 0 -178.5 -69t-131.5 -188t-49 -258q0 -137 65.5 -219.5t175.5 -82.5q146 0 253 151.5t107 364.5q0 138 -66 219.5t-176 81.5zM784 -25q-151 0 -276 46.5t-208 129t-128.5 195t-45.5 243.5q0 194 62.5 359.5t170.5 279t254.5 177t311.5 63.5q155 0 281 -47
t209 -129.5t127.5 -194.5t44.5 -243q0 -195 -63.5 -361t-172 -278.5t-255.5 -176t-312 -63.5zM1136 1546q-49 0 -91 18.5t-65 41t-51 41t-54 18.5q-61 0 -88 -101h-205q28 133 107.5 213t185.5 80q49 0 91 -18.5t65 -41t51 -41t54 -18.5q61 0 89 106h205
q-29 -135 -109.5 -216.5t-184.5 -81.5z" />
    <glyph glyph-name="Odieresis" unicode="&#xd6;" horiz-adv-x="1586" 
d="M915 1130q-96 0 -178.5 -69t-131.5 -188t-49 -258q0 -137 65.5 -219.5t175.5 -82.5q146 0 253 151.5t107 364.5q0 138 -66 219.5t-176 81.5zM784 -25q-151 0 -276 46.5t-208 129t-128.5 195t-45.5 243.5q0 194 62.5 359.5t170.5 279t254.5 177t311.5 63.5q155 0 281 -47
t209 -129.5t127.5 -194.5t44.5 -243q0 -195 -63.5 -361t-172 -278.5t-255.5 -176t-312 -63.5zM783 1559q-64 0 -106.5 41t-42.5 100t42.5 100t106.5 41t106.5 -41t42.5 -100t-42.5 -100t-106.5 -41zM1201 1559q-64 0 -106.5 41t-42.5 100t42.5 100t106.5 41t106.5 -41
t42.5 -100t-42.5 -100t-106.5 -41z" />
    <glyph glyph-name="multiply" unicode="&#xd7;" horiz-adv-x="1413" 
d="M911 42l-218 317l-331 -247l-186 267l332 247l-220 318l283 192l210 -303l335 246l187 -269l-336 -245l229 -331z" />
    <glyph glyph-name="Oslash" unicode="&#xd8;" horiz-adv-x="1586" 
d="M1156 855l-497 -497q59 -45 138 -45q146 0 253 151.5t107 364.5q0 18 -1 26zM557 588l497 497q-59 45 -139 45q-96 0 -178.5 -69t-131.5 -188t-49 -258q0 -18 1 -27zM1636 1335l-142 -142q93 -146 93 -339q0 -195 -63.5 -361t-172 -278.5t-255.5 -176t-312 -63.5
q-233 0 -399 109l-142 -142l-167 166l143 143q-93 146 -93 338q0 194 62.5 359.5t170.5 279t254.5 177t311.5 63.5q240 0 404 -108l141 141z" />
    <glyph glyph-name="Ugrave" unicode="&#xd9;" horiz-adv-x="1501" 
d="M745 -25q-283 0 -449 134.5t-166 353.5q0 62 13 123l182 857h424l-181 -853q-9 -42 -9 -77q0 -84 58.5 -132.5t145.5 -48.5q186 0 232 214l189 897h424l-209 -991q-47 -222 -225 -349.5t-429 -127.5zM839 1555l-206 321h332l164 -321h-290z" />
    <glyph glyph-name="Uacute" unicode="&#xda;" horiz-adv-x="1501" 
d="M745 -25q-283 0 -449 134.5t-166 353.5q0 62 13 123l182 857h424l-181 -853q-9 -42 -9 -77q0 -84 58.5 -132.5t145.5 -48.5q186 0 232 214l189 897h424l-209 -991q-47 -222 -225 -349.5t-429 -127.5zM1145 1555h-322l300 321h364z" />
    <glyph glyph-name="Ucircumflex" unicode="&#xdb;" horiz-adv-x="1501" 
d="M745 -25q-283 0 -449 134.5t-166 353.5q0 62 13 123l182 857h424l-181 -853q-9 -42 -9 -77q0 -84 58.5 -132.5t145.5 -48.5q186 0 232 214l189 897h424l-209 -991q-47 -222 -225 -349.5t-429 -127.5zM1206 1872l183 -336h-276l-91 192h-8l-173 -192h-276l327 336h314z
" />
    <glyph glyph-name="Udieresis" unicode="&#xdc;" horiz-adv-x="1501" 
d="M745 -25q-283 0 -449 134.5t-166 353.5q0 62 13 123l182 857h424l-181 -853q-9 -42 -9 -77q0 -84 58.5 -132.5t145.5 -48.5q186 0 232 214l189 897h424l-209 -991q-47 -222 -225 -349.5t-429 -127.5zM803 1559q-64 0 -106.5 41t-42.5 100t42.5 100t106.5 41t106.5 -41
t42.5 -100t-42.5 -100t-106.5 -41zM1221 1559q-64 0 -106.5 41t-42.5 100t42.5 100t106.5 41t106.5 -41t42.5 -100t-42.5 -100t-106.5 -41z" />
    <glyph glyph-name="Yacute" unicode="&#xdd;" horiz-adv-x="1430" 
d="M838 0h-424l97 457l-284 986h439l133 -585h8l371 585h459l-702 -986zM1115 1555h-322l300 321h364z" />
    <glyph glyph-name="Thorn" unicode="&#xde;" horiz-adv-x="1418" 
d="M44 0l307 1443h426l-44 -204h209q204 0 338.5 -122.5t134.5 -308.5q0 -154 -77 -283.5t-217 -206.5t-314 -77h-289l-51 -241h-423zM660 918l-76 -360h179q104 0 168.5 56.5t64.5 148.5q0 76 -46.5 115.5t-136.5 39.5h-153z" />
    <glyph glyph-name="germandbls" unicode="&#xdf;" horiz-adv-x="1407" 
d="M416 0h-409l240 1101q37 167 193.5 267.5t381.5 100.5q251 0 407.5 -113.5t156.5 -295.5q0 -123 -77.5 -217.5t-195.5 -120.5l-4 -20q256 -67 256 -298q0 -195 -139 -307.5t-372 -112.5q-169 0 -296 45l67 301q65 -35 151 -35q83 0 131 37.5t48 102.5q0 120 -200 120h-79
l65 307h70q71 0 119 38.5t48 101.5q0 65 -45.5 105.5t-118.5 40.5q-74 0 -124.5 -49t-69.5 -141z" />
    <glyph glyph-name="agrave" unicode="&#xe0;" horiz-adv-x="1182" 
d="M530 252q65 0 117 37.5t64 93.5l15 71l-171 -4q-68 -2 -109 -31.5t-41 -76.5q0 -40 34.5 -65t90.5 -25zM345 -16q-138 0 -229.5 85t-91.5 214q0 172 135.5 273.5t371.5 106.5l241 5l13 64q4 23 4 31q0 38 -37 61.5t-97 23.5q-56 0 -95 -22.5t-54 -65.5h-357
q33 172 177 272t357 100q220 0 356 -93t136 -244q0 -49 -9 -89l-150 -706h-385l28 130h-8q-41 -67 -122.5 -106.5t-183.5 -39.5zM851 1275h-314l-197 321h347z" />
    <glyph glyph-name="aacute" unicode="&#xe1;" horiz-adv-x="1182" 
d="M530 252q65 0 117 37.5t64 93.5l15 71l-171 -4q-68 -2 -109 -31.5t-41 -76.5q0 -40 34.5 -65t90.5 -25zM345 -16q-138 0 -229.5 85t-91.5 214q0 172 135.5 273.5t371.5 106.5l241 5l13 64q4 23 4 31q0 38 -37 61.5t-97 23.5q-56 0 -95 -22.5t-54 -65.5h-357
q33 172 177 272t357 100q220 0 356 -93t136 -244q0 -49 -9 -89l-150 -706h-385l28 130h-8q-41 -67 -122.5 -106.5t-183.5 -39.5zM943 1275h-314l300 321h348z" />
    <glyph glyph-name="acircumflex" unicode="&#xe2;" horiz-adv-x="1182" 
d="M530 252q65 0 117 37.5t64 93.5l15 71l-171 -4q-68 -2 -109 -31.5t-41 -76.5q0 -40 34.5 -65t90.5 -25zM345 -16q-138 0 -229.5 85t-91.5 214q0 172 135.5 273.5t371.5 106.5l241 5l13 64q4 23 4 31q0 38 -37 61.5t-97 23.5q-56 0 -95 -22.5t-54 -65.5h-357
q33 172 177 272t357 100q220 0 356 -93t136 -244q0 -49 -9 -89l-150 -706h-385l28 130h-8q-41 -67 -122.5 -106.5t-183.5 -39.5zM957 1592l183 -336h-272l-85 180h-8l-163 -180h-296l327 336h314z" />
    <glyph glyph-name="atilde" unicode="&#xe3;" horiz-adv-x="1182" 
d="M530 252q65 0 117 37.5t64 93.5l15 71l-171 -4q-68 -2 -109 -31.5t-41 -76.5q0 -40 34.5 -65t90.5 -25zM345 -16q-138 0 -229.5 85t-91.5 214q0 172 135.5 273.5t371.5 106.5l241 5l13 64q4 23 4 31q0 38 -37 61.5t-97 23.5q-56 0 -95 -22.5t-54 -65.5h-357
q33 172 177 272t357 100q220 0 356 -93t136 -244q0 -49 -9 -89l-150 -706h-385l28 130h-8q-41 -67 -122.5 -106.5t-183.5 -39.5zM891 1256q-49 0 -91 18.5t-65 41t-51 41t-54 18.5q-61 0 -88 -101h-205q28 134 107.5 213.5t185.5 79.5q49 0 91 -18.5t65 -41t51 -41t54 -18.5
q61 0 89 106h205q-29 -135 -109.5 -216.5t-184.5 -81.5z" />
    <glyph glyph-name="adieresis" unicode="&#xe4;" horiz-adv-x="1182" 
d="M530 252q65 0 117 37.5t64 93.5l15 71l-171 -4q-68 -2 -109 -31.5t-41 -76.5q0 -40 34.5 -65t90.5 -25zM345 -16q-138 0 -229.5 85t-91.5 214q0 172 135.5 273.5t371.5 106.5l241 5l13 64q4 23 4 31q0 38 -37 61.5t-97 23.5q-56 0 -95 -22.5t-54 -65.5h-357
q33 172 177 272t357 100q220 0 356 -93t136 -244q0 -49 -9 -89l-150 -706h-385l28 130h-8q-41 -67 -122.5 -106.5t-183.5 -39.5zM551 1255q-64 0 -106.5 41t-42.5 100t42.5 100t106.5 41t106.5 -41t42.5 -100t-42.5 -100t-106.5 -41zM969 1255q-64 0 -106.5 41t-42.5 100
t42.5 100t106.5 41t106.5 -41t42.5 -100t-42.5 -100t-106.5 -41z" />
    <glyph glyph-name="aring" unicode="&#xe5;" horiz-adv-x="1182" 
d="M530 252q65 0 117 37.5t64 93.5l15 71l-171 -4q-68 -2 -109 -31.5t-41 -76.5q0 -40 34.5 -65t90.5 -25zM345 -16q-138 0 -229.5 85t-91.5 214q0 172 135.5 273.5t371.5 106.5l241 5l13 64q4 23 4 31q0 38 -37 61.5t-97 23.5q-56 0 -95 -22.5t-54 -65.5h-357
q33 172 177 272t357 100q220 0 356 -93t136 -244q0 -49 -9 -89l-150 -706h-385l28 130h-8q-41 -67 -122.5 -106.5t-183.5 -39.5zM774 1235q-99 0 -171.5 69.5t-72.5 165.5q0 97 72.5 166.5t171.5 69.5t171 -69.5t72 -166.5t-72 -166t-171 -69zM774 1386q35 0 61.5 25
t26.5 59q0 35 -26.5 60.5t-61.5 25.5t-61.5 -25.5t-26.5 -60.5q0 -34 26.5 -59t61.5 -25z" />
    <glyph glyph-name="ae" unicode="&#xe6;" horiz-adv-x="1881" 
d="M1250 -28q-112 0 -222 51t-150 123h-19q-59 -78 -171 -126t-235 -48q-187 0 -306 87t-119 224q0 177 131.5 276t373.5 104l241 5l13 64q3 13 3 31q0 37 -36.5 61t-94.5 24q-120 0 -152 -88h-358q35 169 174.5 270.5t337.5 101.5q100 0 197.5 -37.5t144.5 -94.5h20
q64 63 153 98t184 35q215 0 356.5 -135t141.5 -341q0 -98 -19 -191h-751v-12q0 -96 52.5 -152t141.5 -56q64 0 106.5 29.5t57.5 84.5h367q-45 -179 -196.5 -283.5t-366.5 -104.5zM1127 682h374q4 10 4 32q0 63 -45.5 103.5t-115.5 40.5q-78 0 -137.5 -48.5t-79.5 -127.5z
M534 245q66 0 118 37t65 93l15 72l-173 -5q-68 -2 -109 -31t-41 -77q0 -40 34.5 -64.5t90.5 -24.5z" />
    <glyph glyph-name="ccedilla" unicode="&#xe7;" horiz-adv-x="1200" 
d="M1202 667h-378q0 69 -37 109.5t-101 40.5q-94 0 -152.5 -98.5t-58.5 -255.5q0 -80 38 -128t101 -48q64 0 108.5 40.5t60.5 113.5h378q-22 -193 -157 -319.5t-338 -146.5l-42 -51q138 -20 138 -149q0 -102 -93 -169t-235 -67q-98 0 -138 15l35 161q43 -12 110 -12
q112 0 112 47q0 22 -24.5 30.5t-86.5 8.5h-58l29 125l57 69q-181 32 -285.5 155t-104.5 308q0 318 168 502t458 184q214 0 355.5 -117t141.5 -294q0 -48 -1 -54z" />
    <glyph glyph-name="egrave" unicode="&#xe8;" horiz-adv-x="1234" 
d="M474 682h374q3 7 3 32q0 63 -45 103.5t-116 40.5q-77 0 -136.5 -48.5t-79.5 -127.5zM604 -27q-239 0 -380.5 134.5t-141.5 370.5q0 188 77.5 336.5t220.5 233t328 84.5q223 0 362.5 -130.5t139.5 -345.5q0 -110 -20 -190h-752q-3 -16 -3 -32q0 -79 51 -130.5t138 -51.5
q65 0 112 30t61 78h368q-43 -176 -193 -281.5t-368 -105.5zM871 1275h-314l-197 321h347z" />
    <glyph glyph-name="eacute" unicode="&#xe9;" horiz-adv-x="1234" 
d="M474 682h374q3 7 3 32q0 63 -45 103.5t-116 40.5q-77 0 -136.5 -48.5t-79.5 -127.5zM604 -27q-239 0 -380.5 134.5t-141.5 370.5q0 188 77.5 336.5t220.5 233t328 84.5q223 0 362.5 -130.5t139.5 -345.5q0 -110 -20 -190h-752q-3 -16 -3 -32q0 -79 51 -130.5t138 -51.5
q65 0 112 30t61 78h368q-43 -176 -193 -281.5t-368 -105.5zM963 1275h-314l300 321h348z" />
    <glyph glyph-name="ecircumflex" unicode="&#xea;" horiz-adv-x="1234" 
d="M474 682h374q3 7 3 32q0 63 -45 103.5t-116 40.5q-77 0 -136.5 -48.5t-79.5 -127.5zM604 -27q-239 0 -380.5 134.5t-141.5 370.5q0 188 77.5 336.5t220.5 233t328 84.5q223 0 362.5 -130.5t139.5 -345.5q0 -110 -20 -190h-752q-3 -16 -3 -32q0 -79 51 -130.5t138 -51.5
q65 0 112 30t61 78h368q-43 -176 -193 -281.5t-368 -105.5zM977 1592l183 -336h-272l-85 180h-8l-163 -180h-296l327 336h314z" />
    <glyph glyph-name="edieresis" unicode="&#xeb;" horiz-adv-x="1234" 
d="M474 682h374q3 7 3 32q0 63 -45 103.5t-116 40.5q-77 0 -136.5 -48.5t-79.5 -127.5zM604 -27q-239 0 -380.5 134.5t-141.5 370.5q0 188 77.5 336.5t220.5 233t328 84.5q223 0 362.5 -130.5t139.5 -345.5q0 -110 -20 -190h-752q-3 -16 -3 -32q0 -79 51 -130.5t138 -51.5
q65 0 112 30t61 78h368q-43 -176 -193 -281.5t-368 -105.5zM571 1255q-64 0 -106.5 41t-42.5 100t42.5 100t106.5 41t106.5 -41t42.5 -100t-42.5 -100t-106.5 -41zM989 1255q-64 0 -106.5 41t-42.5 100t42.5 100t106.5 41t106.5 -41t42.5 -100t-42.5 -100t-106.5 -41z" />
    <glyph glyph-name="igrave" unicode="&#xec;" horiz-adv-x="561" 
d="M-8 0l235 1104h397l-235 -1104h-397zM597 1275h-314l-197 321h347z" />
    <glyph glyph-name="iacute" unicode="&#xed;" horiz-adv-x="561" 
d="M-8 0l235 1104h397l-235 -1104h-397zM689 1275h-314l300 321h348z" />
    <glyph glyph-name="icircumflex" unicode="&#xee;" horiz-adv-x="561" 
d="M-8 0l235 1104h397l-235 -1104h-397zM703 1592l183 -336h-272l-85 180h-8l-163 -180h-296l327 336h314z" />
    <glyph glyph-name="idieresis" unicode="&#xef;" horiz-adv-x="561" 
d="M-8 0l235 1104h397l-235 -1104h-397zM297 1255q-64 0 -106.5 41t-42.5 100t42.5 100t106.5 41t106.5 -41t42.5 -100t-42.5 -100t-106.5 -41zM715 1255q-64 0 -106.5 41t-42.5 100t42.5 100t106.5 41t106.5 -41t42.5 -100t-42.5 -100t-106.5 -41z" />
    <glyph glyph-name="eth" unicode="&#xf0;" horiz-adv-x="1328" 
d="M627 -27q-239 0 -394.5 142t-155.5 360q0 123 39.5 231t108 185.5t164 122.5t203.5 45q95 0 175.5 -34t116.5 -89l19 -2q-8 123 -91 257l-272 -84l-38 167l195 61q-87 91 -192 161h453q41 -35 63 -59l267 86l41 -168l-192 -60q165 -242 165 -537q0 -154 -43 -291
q-73 -229 -242 -361.5t-390 -132.5zM880 600q0 85 -45 136.5t-120 51.5q-89 0 -159 -96.5t-70 -218.5q0 -85 45.5 -136t119.5 -51q91 0 160 95t69 219z" />
    <glyph glyph-name="ntilde" unicode="&#xf1;" horiz-adv-x="1286" 
d="M-8 0l235 1104h383l-36 -167h8q58 93 155.5 144t209.5 51q150 0 241 -85.5t91 -226.5q0 -62 -15 -135l-144 -685h-393l131 624q7 38 7 68q0 58 -41.5 95t-105.5 37q-70 0 -124 -48.5t-70 -127.5l-138 -648h-394zM926 1256q-49 0 -91 18.5t-65 41t-51 41t-54 18.5
q-61 0 -88 -101h-205q28 134 107.5 213.5t185.5 79.5q49 0 91 -18.5t65 -41t51 -41t54 -18.5q61 0 89 106h205q-29 -135 -109.5 -216.5t-184.5 -81.5z" />
    <glyph glyph-name="ograve" unicode="&#xf2;" horiz-adv-x="1299" 
d="M632 275q100 0 168.5 100.5t68.5 247.5q0 93 -41 149.5t-108 56.5q-103 0 -170.5 -99t-67.5 -249q0 -92 41.5 -149t108.5 -57zM740 1132q239 0 386.5 -138.5t147.5 -362.5q0 -190 -84 -340.5t-234.5 -234.5t-341.5 -84q-239 0 -386.5 138.5t-147.5 362.5q0 190 84 340.5
t234.5 234.5t341.5 84zM903 1275h-314l-197 321h347z" />
    <glyph glyph-name="oacute" unicode="&#xf3;" horiz-adv-x="1299" 
d="M632 275q100 0 168.5 100.5t68.5 247.5q0 93 -41 149.5t-108 56.5q-103 0 -170.5 -99t-67.5 -249q0 -92 41.5 -149t108.5 -57zM740 1132q239 0 386.5 -138.5t147.5 -362.5q0 -190 -84 -340.5t-234.5 -234.5t-341.5 -84q-239 0 -386.5 138.5t-147.5 362.5q0 190 84 340.5
t234.5 234.5t341.5 84zM995 1275h-314l300 321h348z" />
    <glyph glyph-name="ocircumflex" unicode="&#xf4;" horiz-adv-x="1299" 
d="M632 275q100 0 168.5 100.5t68.5 247.5q0 93 -41 149.5t-108 56.5q-103 0 -170.5 -99t-67.5 -249q0 -92 41.5 -149t108.5 -57zM740 1132q239 0 386.5 -138.5t147.5 -362.5q0 -190 -84 -340.5t-234.5 -234.5t-341.5 -84q-239 0 -386.5 138.5t-147.5 362.5q0 190 84 340.5
t234.5 234.5t341.5 84zM1009 1592l183 -336h-272l-85 180h-8l-163 -180h-296l327 336h314z" />
    <glyph glyph-name="otilde" unicode="&#xf5;" horiz-adv-x="1299" 
d="M632 275q100 0 168.5 100.5t68.5 247.5q0 93 -41 149.5t-108 56.5q-103 0 -170.5 -99t-67.5 -249q0 -92 41.5 -149t108.5 -57zM740 1132q239 0 386.5 -138.5t147.5 -362.5q0 -190 -84 -340.5t-234.5 -234.5t-341.5 -84q-239 0 -386.5 138.5t-147.5 362.5q0 190 84 340.5
t234.5 234.5t341.5 84zM943 1256q-49 0 -91 18.5t-65 41t-51 41t-54 18.5q-61 0 -88 -101h-205q28 134 107.5 213.5t185.5 79.5q49 0 91 -18.5t65 -41t51 -41t54 -18.5q61 0 89 106h205q-29 -135 -109.5 -216.5t-184.5 -81.5z" />
    <glyph glyph-name="odieresis" unicode="&#xf6;" horiz-adv-x="1299" 
d="M632 275q100 0 168.5 100.5t68.5 247.5q0 93 -41 149.5t-108 56.5q-103 0 -170.5 -99t-67.5 -249q0 -92 41.5 -149t108.5 -57zM740 1132q239 0 386.5 -138.5t147.5 -362.5q0 -190 -84 -340.5t-234.5 -234.5t-341.5 -84q-239 0 -386.5 138.5t-147.5 362.5q0 190 84 340.5
t234.5 234.5t341.5 84zM603 1255q-64 0 -106.5 41t-42.5 100t42.5 100t106.5 41t106.5 -41t42.5 -100t-42.5 -100t-106.5 -41zM1021 1255q-64 0 -106.5 41t-42.5 100t42.5 100t106.5 41t106.5 -41t42.5 -100t-42.5 -100t-106.5 -41z" />
    <glyph glyph-name="divide" unicode="&#xf7;" horiz-adv-x="1413" 
d="M1281 444h-1142l62 288h1142zM837 817q-94 0 -151.5 53t-57.5 139q0 87 57 139.5t152 52.5t152 -52.5t57 -139.5t-57 -139.5t-152 -52.5zM658 -25q-94 0 -151.5 53t-57.5 139q0 87 57 139.5t152 52.5t152 -52.5t57 -139.5t-57 -139.5t-152 -52.5z" />
    <glyph glyph-name="oslash" unicode="&#xf8;" horiz-adv-x="1299" 
d="M885 627l-345 -345q37 -31 88 -31q109 0 182.5 108t74.5 268zM466 474l347 347q-37 32 -89 32q-112 0 -185 -107.5t-73 -271.5zM1285 1027l-100 -100q89 -126 89 -296q0 -190 -84 -340.5t-234.5 -234.5t-341.5 -84q-175 0 -306 78l-106 -106l-133 133l100 100
q-89 126 -89 296q0 190 84 340.5t234.5 234.5t341.5 84q175 0 306 -78l106 106z" />
    <glyph glyph-name="ugrave" unicode="&#xf9;" horiz-adv-x="1287" 
d="M1350 1104l-235 -1104h-385l38 180h-8q-50 -98 -142 -153t-207 -55q-158 0 -252 88t-94 237q0 75 14 139l142 668h396l-129 -603q-5 -32 -5 -59q0 -70 38.5 -109t109.5 -39t120 47.5t67 132.5l134 630h398zM956 1275h-314l-197 321h347z" />
    <glyph glyph-name="uacute" unicode="&#xfa;" horiz-adv-x="1287" 
d="M1350 1104l-235 -1104h-385l38 180h-8q-50 -98 -142 -153t-207 -55q-158 0 -252 88t-94 237q0 75 14 139l142 668h396l-129 -603q-5 -32 -5 -59q0 -70 38.5 -109t109.5 -39t120 47.5t67 132.5l134 630h398zM1048 1275h-314l300 321h348z" />
    <glyph glyph-name="ucircumflex" unicode="&#xfb;" horiz-adv-x="1287" 
d="M1350 1104l-235 -1104h-385l38 180h-8q-50 -98 -142 -153t-207 -55q-158 0 -252 88t-94 237q0 75 14 139l142 668h396l-129 -603q-5 -32 -5 -59q0 -70 38.5 -109t109.5 -39t120 47.5t67 132.5l134 630h398zM1062 1592l183 -336h-272l-85 180h-8l-163 -180h-296l327 336
h314z" />
    <glyph glyph-name="udieresis" unicode="&#xfc;" horiz-adv-x="1287" 
d="M1350 1104l-235 -1104h-385l38 180h-8q-50 -98 -142 -153t-207 -55q-158 0 -252 88t-94 237q0 75 14 139l142 668h396l-129 -603q-5 -32 -5 -59q0 -70 38.5 -109t109.5 -39t120 47.5t67 132.5l134 630h398zM656 1255q-64 0 -106.5 41t-42.5 100t42.5 100t106.5 41
t106.5 -41t42.5 -100t-42.5 -100t-106.5 -41zM1074 1255q-64 0 -106.5 41t-42.5 100t42.5 100t106.5 41t106.5 -41t42.5 -100t-42.5 -100t-106.5 -41z" />
    <glyph glyph-name="yacute" unicode="&#xfd;" horiz-adv-x="1206" 
d="M75 -405h-152l64 305h106q172 0 172 97q0 18 -1 23l-111 1084h407l-1 -808h8l354 808h422l-568 -1086q-118 -226 -282 -324.5t-418 -98.5zM1004 1276h-314l300 321h348z" />
    <glyph glyph-name="thorn" unicode="&#xfe;" horiz-adv-x="1315" 
d="M652 296q98 0 168 99.5t70 239.5q0 83 -42 134t-112 51q-95 0 -166.5 -101.5t-71.5 -237.5q0 -84 42 -134.5t112 -50.5zM433 197l-112 -522h-396l376 1768h396l-105 -495h19q56 83 139.5 127.5t182.5 44.5q168 0 267 -113t99 -305q0 -204 -71 -368t-196.5 -257
t-280.5 -93q-113 0 -192.5 56.5t-106.5 156.5h-19z" />
    <glyph glyph-name="ydieresis" unicode="&#xff;" horiz-adv-x="1206" 
d="M75 -405h-152l64 305h106q172 0 172 97q0 18 -1 23l-111 1084h407l-1 -808h8l354 808h422l-568 -1086q-118 -226 -282 -324.5t-418 -98.5zM612 1256q-64 0 -106.5 41t-42.5 100t42.5 100t106.5 41t106.5 -41t42.5 -100t-42.5 -100t-106.5 -41zM1030 1256q-64 0 -106.5 41
t-42.5 100t42.5 100t106.5 41t106.5 -41t42.5 -100t-42.5 -100t-106.5 -41z" />
    <glyph glyph-name="Amacron" unicode="&#x100;" horiz-adv-x="1494" 
d="M902 1089l-247 -503h278l-22 503h-9zM959 0l-13 287h-438l-141 -287h-447l794 1443h532l148 -1443h-435zM1428 1786l-38 -180h-748l38 180h748z" />
    <glyph glyph-name="amacron" unicode="&#x101;" horiz-adv-x="1182" 
d="M530 252q65 0 117 37.5t64 93.5l15 71l-171 -4q-68 -2 -109 -31.5t-41 -76.5q0 -40 34.5 -65t90.5 -25zM345 -16q-138 0 -229.5 85t-91.5 214q0 172 135.5 273.5t371.5 106.5l241 5l13 64q4 23 4 31q0 38 -37 61.5t-97 23.5q-56 0 -95 -22.5t-54 -65.5h-357
q33 172 177 272t357 100q220 0 356 -93t136 -244q0 -49 -9 -89l-150 -706h-385l28 130h-8q-41 -67 -122.5 -106.5t-183.5 -39.5zM1129 1456l-38 -180h-704l38 180h704z" />
    <glyph glyph-name="Abreve" unicode="&#x102;" horiz-adv-x="1494" 
d="M902 1089l-247 -503h278l-22 503h-9zM959 0l-13 287h-438l-141 -287h-447l794 1443h532l148 -1443h-435zM677 1870h230q-3 -16 -3 -31q0 -54 34 -85.5t98 -31.5q73 0 122.5 40.5t66.5 107.5h242q-37 -144 -160.5 -239t-304.5 -95q-160 0 -245.5 77t-85.5 195q0 30 6 62z
" />
    <glyph glyph-name="abreve" unicode="&#x103;" horiz-adv-x="1182" 
d="M530 252q65 0 117 37.5t64 93.5l15 71l-171 -4q-68 -2 -109 -31.5t-41 -76.5q0 -40 34.5 -65t90.5 -25zM345 -16q-138 0 -229.5 85t-91.5 214q0 172 135.5 273.5t371.5 106.5l241 5l13 64q4 23 4 31q0 38 -37 61.5t-97 23.5q-56 0 -95 -22.5t-54 -65.5h-357
q33 172 177 272t357 100q220 0 356 -93t136 -244q0 -49 -9 -89l-150 -706h-385l28 130h-8q-41 -67 -122.5 -106.5t-183.5 -39.5zM410 1590h232q-3 -16 -3 -31q0 -56 34.5 -86.5t96.5 -30.5q71 0 122 39.5t68 108.5h240q-36 -153 -159.5 -243.5t-304.5 -90.5
q-145 0 -238 78.5t-93 200.5q0 18 5 55z" />
    <glyph glyph-name="Aogonek" unicode="&#x104;" horiz-adv-x="1494" 
d="M1194 -275l-41 -193q-66 -26 -177 -26q-114 0 -187 56.5t-73 151.5q0 80 71.5 160t171.5 121l-13 292h-438l-141 -287h-447l794 1443h532l146 -1423l-26 -6q-172 -40 -262.5 -98.5t-90.5 -125.5q0 -35 27.5 -54.5t79.5 -19.5q49 0 74 9zM902 1089l-247 -503h278l-22 503
h-9z" />
    <glyph glyph-name="aogonek" unicode="&#x105;" horiz-adv-x="1182" 
d="M533 252q65 0 117 37.5t64 93.5l15 71l-171 -4q-68 -2 -109 -31.5t-41 -76.5q0 -40 34.5 -65t90.5 -25zM867 -461q-65 -26 -177 -26q-118 0 -187.5 56.5t-69.5 144.5q0 153 196 265l33 151h-8q-41 -67 -122.5 -106.5t-183.5 -39.5q-138 0 -229.5 85t-91.5 214
q0 172 135.5 273.5t371.5 106.5l241 5l13 64q4 23 4 31q0 38 -37 61.5t-97 23.5q-56 0 -95 -22.5t-54 -65.5h-357q33 172 177 272t357 100q220 0 356 -93t136 -244q0 -49 -9 -89l-148 -696l-39 -10q-96 -25 -174.5 -87t-78.5 -119q0 -32 31 -52t74 -20q46 0 73 9z" />
    <glyph glyph-name="Cacute" unicode="&#x106;" horiz-adv-x="1540" 
d="M1153 862q1 6 1 40q0 95 -66.5 160t-163.5 65q-159 0 -260.5 -146t-101.5 -375q0 -133 62 -209.5t170 -76.5q105 0 184 62.5t111 169.5h411q-25 -171 -125 -302t-259 -203t-352 -72q-290 0 -464.5 165t-174.5 440q0 406 229 647t614 241q262 0 431.5 -153t169.5 -389
q0 -37 -5 -64h-411zM1150 1555h-322l300 321h364z" />
    <glyph glyph-name="cacute" unicode="&#x107;" horiz-adv-x="1200" 
d="M706 1132q214 0 355.5 -117t141.5 -294q0 -48 -1 -54h-378q0 69 -37 109.5t-101 40.5q-94 0 -152.5 -98.5t-58.5 -255.5q0 -80 38 -128t101 -48q64 0 108.5 40.5t60.5 113.5h378q-25 -210 -180.5 -339.5t-384.5 -129.5q-235 0 -375.5 129t-140.5 345q0 318 168 502
t458 184zM978 1276h-314l300 321h348z" />
    <glyph glyph-name="Ccircumflex" unicode="&#x108;" horiz-adv-x="1540" 
d="M1153 862q1 6 1 40q0 95 -66.5 160t-163.5 65q-159 0 -260.5 -146t-101.5 -375q0 -133 62 -209.5t170 -76.5q105 0 184 62.5t111 169.5h411q-25 -171 -125 -302t-259 -203t-352 -72q-290 0 -464.5 165t-174.5 440q0 406 229 647t614 241q262 0 431.5 -153t169.5 -389
q0 -37 -5 -64h-411zM1211 1872l183 -336h-276l-91 192h-8l-173 -192h-276l327 336h314z" />
    <glyph glyph-name="ccircumflex" unicode="&#x109;" horiz-adv-x="1200" 
d="M706 1132q214 0 355.5 -117t141.5 -294q0 -48 -1 -54h-378q0 69 -37 109.5t-101 40.5q-94 0 -152.5 -98.5t-58.5 -255.5q0 -80 38 -128t101 -48q64 0 108.5 40.5t60.5 113.5h378q-25 -210 -180.5 -339.5t-384.5 -129.5q-235 0 -375.5 129t-140.5 345q0 318 168 502
t458 184zM992 1593l183 -336h-272l-85 180h-8l-163 -180h-296l327 336h314z" />
    <glyph glyph-name="Cdotaccent" unicode="&#x10a;" horiz-adv-x="1540" 
d="M1153 862q1 6 1 40q0 95 -66.5 160t-163.5 65q-159 0 -260.5 -146t-101.5 -375q0 -133 62 -209.5t170 -76.5q105 0 184 62.5t111 169.5h411q-25 -171 -125 -302t-259 -203t-352 -72q-290 0 -464.5 165t-174.5 440q0 406 229 647t614 241q262 0 431.5 -153t169.5 -389
q0 -37 -5 -64h-411zM1033 1603q-75 0 -126 50.5t-51 122.5t51 122.5t126 50.5t126 -50.5t51 -122.5t-51 -122.5t-126 -50.5z" />
    <glyph glyph-name="cdotaccent" unicode="&#x10b;" horiz-adv-x="1200" 
d="M706 1132q214 0 355.5 -117t141.5 -294q0 -48 -1 -54h-378q0 69 -37 109.5t-101 40.5q-94 0 -152.5 -98.5t-58.5 -255.5q0 -80 38 -128t101 -48q64 0 108.5 40.5t60.5 113.5h378q-25 -210 -180.5 -339.5t-384.5 -129.5q-235 0 -375.5 129t-140.5 345q0 318 168 502
t458 184zM786 1265q-75 0 -126 50.5t-51 122.5t51 122.5t126 50.5t126 -50.5t51 -122.5t-51 -122.5t-126 -50.5z" />
    <glyph glyph-name="Ccaron" unicode="&#x10c;" horiz-adv-x="1540" 
d="M1153 862q1 6 1 40q0 95 -66.5 160t-163.5 65q-159 0 -260.5 -146t-101.5 -375q0 -133 62 -209.5t170 -76.5q105 0 184 62.5t111 169.5h411q-25 -171 -125 -302t-259 -203t-352 -72q-290 0 -464.5 165t-174.5 440q0 406 229 647t614 241q262 0 431.5 -153t169.5 -389
q0 -37 -5 -64h-411zM825 1536l-183 336h276l91 -192h8l173 192h276l-327 -336h-314z" />
    <glyph glyph-name="ccaron" unicode="&#x10d;" horiz-adv-x="1200" 
d="M706 1132q214 0 355.5 -117t141.5 -294q0 -48 -1 -54h-378q0 69 -37 109.5t-101 40.5q-94 0 -152.5 -98.5t-58.5 -255.5q0 -80 38 -128t101 -48q64 0 108.5 40.5t60.5 113.5h378q-25 -210 -180.5 -339.5t-384.5 -129.5q-235 0 -375.5 129t-140.5 345q0 318 168 502
t458 184zM921 1257h-314l-184 336h272l86 -180h8l162 180h296z" />
    <glyph glyph-name="Dcaron" unicode="&#x10e;" horiz-adv-x="1492" 
d="M325 1443h600q256 0 414.5 -147.5t158.5 -403.5q0 -258 -94 -460.5t-268 -317t-399 -114.5h-719zM681 1108l-163 -772h158q172 0 279 135t107 367q0 122 -63.5 196t-174.5 74h-143zM690 1536l-183 336h276l91 -192h8l173 192h276l-327 -336h-314z" />
    <glyph glyph-name="dcaron" unicode="&#x10f;" horiz-adv-x="1655" 
d="M1550 1443h322l-160 -518h-272zM439 -16q-170 0 -268.5 112.5t-98.5 306.5q0 203 71.5 367t198 257t282.5 93q120 0 201.5 -50.5t109.5 -142.5h8l110 516h397l-308 -1443h-386l33 155h-8q-120 -171 -342 -171zM636 285q95 0 166 101.5t71 237.5q0 83 -42 134t-111 51
q-99 0 -168.5 -98.5t-69.5 -239.5q0 -83 42.5 -134.5t111.5 -51.5z" />
    <glyph glyph-name="Dcroat" unicode="&#x110;" horiz-adv-x="1492" 
d="M518 336h158q172 0 279 135t107 367q0 122 -63.5 196t-174.5 74h-143l-45 -215h189l-72 -336h-188zM325 1443h600q256 0 414.5 -147.5t158.5 -403.5q0 -258 -94 -460.5t-268 -317t-399 -114.5h-719l119 557h-109l72 336h108z" />
    <glyph glyph-name="dcroat" unicode="&#x111;" horiz-adv-x="1323" 
d="M636 285q95 0 166 101.5t71 237.5q0 83 -42 134t-111 51q-99 0 -168.5 -98.5t-69.5 -239.5q0 -83 42.5 -134.5t111.5 -51.5zM1522 1359l-40 -188h-90l-250 -1171h-386l33 155h-8q-120 -171 -342 -171q-170 0 -268.5 112.5t-98.5 306.5q0 203 71.5 367t198 257t282.5 93
q120 0 201.5 -50.5t109.5 -142.5h8l52 244h-221l40 188h221l18 84h397l-18 -84h90z" />
    <glyph glyph-name="Emacron" unicode="&#x112;" horiz-adv-x="1208" 
d="M1107 336l-71 -336h-1018l307 1443h1017l-72 -336h-593l-49 -234h556l-65 -304h-556l-50 -233h594zM1255 1786l-38 -180h-748l38 180h748z" />
    <glyph glyph-name="emacron" unicode="&#x113;" horiz-adv-x="1234" 
d="M474 682h374q3 7 3 32q0 63 -45 103.5t-116 40.5q-77 0 -136.5 -48.5t-79.5 -127.5zM604 -27q-239 0 -380.5 134.5t-141.5 370.5q0 188 77.5 336.5t220.5 233t328 84.5q223 0 362.5 -130.5t139.5 -345.5q0 -110 -20 -190h-752q-3 -16 -3 -32q0 -79 51 -130.5t138 -51.5
q65 0 112 30t61 78h368q-43 -176 -193 -281.5t-368 -105.5zM1149 1456l-38 -180h-704l38 180h704z" />
    <glyph glyph-name="Ebreve" unicode="&#x114;" horiz-adv-x="1208" 
d="M1107 336l-71 -336h-1018l307 1443h1017l-72 -336h-593l-49 -234h556l-65 -304h-556l-50 -233h594zM504 1870h230q-3 -16 -3 -31q0 -54 34 -85.5t98 -31.5q73 0 122.5 40.5t66.5 107.5h242q-37 -144 -160.5 -239t-304.5 -95q-160 0 -245.5 77t-85.5 195q0 30 6 62z" />
    <glyph glyph-name="ebreve" unicode="&#x115;" horiz-adv-x="1234" 
d="M474 682h374q3 7 3 32q0 63 -45 103.5t-116 40.5q-77 0 -136.5 -48.5t-79.5 -127.5zM604 -27q-239 0 -380.5 134.5t-141.5 370.5q0 188 77.5 336.5t220.5 233t328 84.5q223 0 362.5 -130.5t139.5 -345.5q0 -110 -20 -190h-752q-3 -16 -3 -32q0 -79 51 -130.5t138 -51.5
q65 0 112 30t61 78h368q-43 -176 -193 -281.5t-368 -105.5zM430 1590h232q-3 -16 -3 -31q0 -56 34.5 -86.5t96.5 -30.5q71 0 122 39.5t68 108.5h240q-36 -153 -159.5 -243.5t-304.5 -90.5q-145 0 -238 78.5t-93 200.5q0 18 5 55z" />
    <glyph glyph-name="Edotaccent" unicode="&#x116;" horiz-adv-x="1208" 
d="M1107 336l-71 -336h-1018l307 1443h1017l-72 -336h-593l-49 -234h556l-65 -304h-556l-50 -233h594zM878 1603q-75 0 -126 50.5t-51 122.5t51 122.5t126 50.5t126 -50.5t51 -122.5t-51 -122.5t-126 -50.5z" />
    <glyph glyph-name="edotaccent" unicode="&#x117;" horiz-adv-x="1234" 
d="M474 682h374q3 7 3 32q0 63 -45 103.5t-116 40.5q-77 0 -136.5 -48.5t-79.5 -127.5zM604 -27q-239 0 -380.5 134.5t-141.5 370.5q0 188 77.5 336.5t220.5 233t328 84.5q223 0 362.5 -130.5t139.5 -345.5q0 -110 -20 -190h-752q-3 -16 -3 -32q0 -79 51 -130.5t138 -51.5
q65 0 112 30t61 78h368q-43 -176 -193 -281.5t-368 -105.5zM771 1264q-75 0 -126 50.5t-51 122.5t51 122.5t126 50.5t126 -50.5t51 -122.5t-51 -122.5t-126 -50.5z" />
    <glyph glyph-name="Eogonek" unicode="&#x118;" horiz-adv-x="1208" 
d="M18 0l307 1443h1017l-72 -336h-593l-49 -234h556l-65 -304h-556l-50 -233h594l-71 -336l-52 -13q-105 -26 -173 -82t-68 -115q0 -35 28 -54.5t79 -19.5t74 9l-41 -193q-66 -26 -177 -26q-116 0 -188 57.5t-72 150.5q0 80 66 161t165 121l1 4h-660z" />
    <glyph glyph-name="eogonek" unicode="&#x119;" horiz-adv-x="1234" 
d="M673 -487q-118 0 -187.5 56.5t-69.5 144.5q0 82 60 150.5t141 102.5v6h-13q-239 0 -380.5 134.5t-141.5 370.5q0 188 77.5 336.5t220.5 233t328 84.5q223 0 362.5 -130.5t139.5 -345.5q0 -110 -20 -190h-752q-3 -16 -3 -32q0 -79 51 -130.5t138 -51.5q65 0 112 30t61 78
h368q-19 -77 -71 -161t-134 -137q-68 -44 -107 -72.5t-75 -61.5t-51 -62t-15 -60q0 -33 31.5 -58.5t73.5 -25.5q46 0 73 9l-40 -192q-59 -26 -177 -26zM474 682h374q3 7 3 32q0 63 -45 103.5t-116 40.5q-77 0 -136.5 -48.5t-79.5 -127.5z" />
    <glyph glyph-name="Ecaron" unicode="&#x11a;" horiz-adv-x="1208" 
d="M1107 336l-71 -336h-1018l307 1443h1017l-72 -336h-593l-49 -234h556l-65 -304h-556l-50 -233h594zM670 1536l-183 336h276l91 -192h8l173 192h276l-327 -336h-314z" />
    <glyph glyph-name="ecaron" unicode="&#x11b;" horiz-adv-x="1234" 
d="M474 682h374q3 7 3 32q0 63 -45 103.5t-116 40.5q-77 0 -136.5 -48.5t-79.5 -127.5zM604 -27q-239 0 -380.5 134.5t-141.5 370.5q0 188 77.5 336.5t220.5 233t328 84.5q223 0 362.5 -130.5t139.5 -345.5q0 -110 -20 -190h-752q-3 -16 -3 -32q0 -79 51 -130.5t138 -51.5
q65 0 112 30t61 78h368q-43 -176 -193 -281.5t-368 -105.5zM906 1256h-314l-184 336h272l86 -180h8l162 180h296z" />
    <glyph glyph-name="Gcircumflex" unicode="&#x11c;" horiz-adv-x="1539" 
d="M1544 790l-26 -154q-54 -321 -247 -491t-500 -170q-290 0 -467.5 170t-177.5 451q0 188 60.5 350t167 277t259 180t329.5 65q135 0 253.5 -40t199 -106.5t127 -154t46.5 -181.5q0 -16 -2 -32h-406q-6 78 -69.5 129t-160.5 51q-107 0 -192.5 -67.5t-133 -186.5t-47.5 -266
q0 -143 68.5 -224t195.5 -81q96 0 169 56.5t95 142.5h-233l60 282h632zM1181 1872l183 -336h-276l-91 192h-8l-173 -192h-276l327 336h314z" />
    <glyph glyph-name="gcircumflex" unicode="&#x11d;" horiz-adv-x="1309" 
d="M514 -417q-257 0 -401 95.5t-146 266.5h383q9 -50 58 -78t128 -28q171 0 201 144l41 189h-20q-48 -71 -130 -109t-188 -38q-164 0 -265 110t-101 289q0 188 73.5 348.5t199.5 254t274 93.5q113 0 195 -54t110 -146h18l42 184h386l-243 -1143q-38 -179 -200 -278.5
t-415 -99.5zM632 286q95 0 166 101t71 237q0 84 -42 134.5t-112 50.5q-98 0 -167.5 -99t-69.5 -239q0 -83 42 -134t112 -51zM1061 1594l183 -336h-272l-85 180h-8l-163 -180h-296l327 336h314z" />
    <glyph glyph-name="Gbreve" unicode="&#x11e;" horiz-adv-x="1539" 
d="M1544 790l-26 -154q-54 -321 -247 -491t-500 -170q-290 0 -467.5 170t-177.5 451q0 188 60.5 350t167 277t259 180t329.5 65q135 0 253.5 -40t199 -106.5t127 -154t46.5 -181.5q0 -16 -2 -32h-406q-6 78 -69.5 129t-160.5 51q-107 0 -192.5 -67.5t-133 -186.5t-47.5 -266
q0 -143 68.5 -224t195.5 -81q96 0 169 56.5t95 142.5h-233l60 282h632zM629 1870h230q-3 -16 -3 -31q0 -54 34 -85.5t98 -31.5q73 0 122.5 40.5t66.5 107.5h242q-37 -144 -160.5 -239t-304.5 -95q-160 0 -245.5 77t-85.5 195q0 30 6 62z" />
    <glyph glyph-name="gbreve" unicode="&#x11f;" horiz-adv-x="1309" 
d="M514 -417q-257 0 -401 95.5t-146 266.5h383q9 -50 58 -78t128 -28q171 0 201 144l41 189h-20q-48 -71 -130 -109t-188 -38q-164 0 -265 110t-101 289q0 188 73.5 348.5t199.5 254t274 93.5q113 0 195 -54t110 -146h18l42 184h386l-243 -1143q-38 -179 -200 -278.5
t-415 -99.5zM632 286q95 0 166 101t71 237q0 84 -42 134.5t-112 50.5q-98 0 -167.5 -99t-69.5 -239q0 -83 42 -134t112 -51zM514 1592h232q-3 -17 -3 -31q0 -56 34.5 -86.5t96.5 -30.5q71 0 122 39.5t68 108.5h240q-36 -153 -159.5 -243.5t-304.5 -90.5q-145 0 -238 78.5
t-93 200.5q0 18 5 55z" />
    <glyph glyph-name="Gdotaccent" unicode="&#x120;" horiz-adv-x="1539" 
d="M1544 790l-26 -154q-54 -321 -247 -491t-500 -170q-290 0 -467.5 170t-177.5 451q0 188 60.5 350t167 277t259 180t329.5 65q135 0 253.5 -40t199 -106.5t127 -154t46.5 -181.5q0 -16 -2 -32h-406q-6 78 -69.5 129t-160.5 51q-107 0 -192.5 -67.5t-133 -186.5t-47.5 -266
q0 -143 68.5 -224t195.5 -81q96 0 169 56.5t95 142.5h-233l60 282h632zM1003 1603q-75 0 -126 50.5t-51 122.5t51 122.5t126 50.5t126 -50.5t51 -122.5t-51 -122.5t-126 -50.5z" />
    <glyph glyph-name="gdotaccent" unicode="&#x121;" horiz-adv-x="1309" 
d="M514 -417q-257 0 -401 95.5t-146 266.5h383q9 -50 58 -78t128 -28q171 0 201 144l41 189h-20q-48 -71 -130 -109t-188 -38q-164 0 -265 110t-101 289q0 188 73.5 348.5t199.5 254t274 93.5q113 0 195 -54t110 -146h18l42 184h386l-243 -1143q-38 -179 -200 -278.5
t-415 -99.5zM632 286q95 0 166 101t71 237q0 84 -42 134.5t-112 50.5q-98 0 -167.5 -99t-69.5 -239q0 -83 42 -134t112 -51zM855 1266q-75 0 -126 50.5t-51 122.5t51 122.5t126 50.5t126 -50.5t51 -122.5t-51 -122.5t-126 -50.5z" />
    <glyph glyph-name="Gcommaaccent" unicode="&#x122;" horiz-adv-x="1539" 
d="M1544 790l-26 -154q-54 -321 -247 -491t-500 -170q-290 0 -467.5 170t-177.5 451q0 188 60.5 350t167 277t259 180t329.5 65q135 0 253.5 -40t199 -106.5t127 -154t46.5 -181.5q0 -16 -2 -32h-406q-6 78 -69.5 129t-160.5 51q-107 0 -192.5 -67.5t-133 -186.5t-47.5 -266
q0 -143 68.5 -224t195.5 -81q96 0 169 56.5t95 142.5h-233l60 282h632zM642 -475h-308l220 321h359z" />
    <glyph glyph-name="gcommaaccent" unicode="&#x123;" horiz-adv-x="1309" 
d="M514 -417q-257 0 -401 95.5t-146 266.5h383q9 -50 58 -78t128 -28q171 0 201 144l41 189h-20q-48 -71 -130 -109t-188 -38q-164 0 -265 110t-101 289q0 188 73.5 348.5t199.5 254t274 93.5q113 0 195 -54t110 -146h18l42 184h386l-243 -1143q-38 -179 -200 -278.5
t-415 -99.5zM632 286q95 0 166 101t71 237q0 84 -42 134.5t-112 50.5q-98 0 -167.5 -99t-69.5 -239q0 -83 42 -134t112 -51zM1132 1581h308l-220 -321h-359z" />
    <glyph glyph-name="Hcircumflex" unicode="&#x124;" horiz-adv-x="1572" 
d="M1374 0h-434l120 562h-488l-120 -562h-434l307 1443h434l-118 -551h488l118 551h434zM1252 1872l183 -336h-276l-91 192h-8l-173 -192h-276l327 336h314z" />
    <glyph glyph-name="hcircumflex" unicode="&#x125;" horiz-adv-x="1302" 
d="M0 0l307 1443h394l-109 -506h8q62 91 154 140t205 49q151 0 243.5 -84.5t92.5 -221.5q0 -63 -15 -135l-144 -685h-393l131 624q7 36 7 68q0 57 -42.5 94.5t-107.5 37.5q-71 0 -127 -49t-72 -127l-137 -648h-395zM753 1872l183 -336h-276l-91 192h-8l-173 -192h-276
l327 336h314z" />
    <glyph glyph-name="Hbar" unicode="&#x126;" horiz-adv-x="1572" 
d="M1129 892l31 146h-488l-31 -146h488zM1760 1306l-57 -268h-108l-221 -1038h-434l120 562h-488l-120 -562h-434l221 1038h-109l57 268h109l29 137h434l-29 -137h488l29 137h434l-29 -137h108z" />
    <glyph glyph-name="hbar" unicode="&#x127;" horiz-adv-x="1302" 
d="M592 937h8q62 91 154 140t205 49q151 0 243.5 -84.5t92.5 -221.5q0 -63 -15 -135l-144 -685h-393l131 624q7 36 7 68q0 57 -42.5 94.5t-107.5 37.5q-71 0 -127 -49t-72 -127l-137 -648h-395l249 1171h-90l40 188h90l18 84h394l-18 -84h198l-41 -188h-198z" />
    <glyph glyph-name="Itilde" unicode="&#x128;" horiz-adv-x="640" 
d="M442 0h-424l307 1443h424zM736 1546q-49 0 -91 18.5t-65 41t-51 41t-54 18.5q-61 0 -88 -101h-205q28 133 107.5 213t185.5 80q49 0 91 -18.5t65 -41t51 -41t54 -18.5q61 0 89 106h205q-29 -135 -109.5 -216.5t-184.5 -81.5z" />
    <glyph glyph-name="itilde" unicode="&#x129;" horiz-adv-x="561" 
d="M-8 0l235 1104h397l-235 -1104h-397zM637 1256q-49 0 -91 18.5t-65 41t-51 41t-54 18.5q-61 0 -88 -101h-205q28 134 107.5 213.5t185.5 79.5q49 0 91 -18.5t65 -41t51 -41t54 -18.5q61 0 89 106h205q-29 -135 -109.5 -216.5t-184.5 -81.5z" />
    <glyph glyph-name="Imacron" unicode="&#x12a;" horiz-adv-x="640" 
d="M442 0h-424l307 1443h424zM985 1786l-38 -180h-748l38 180h748z" />
    <glyph glyph-name="imacron" unicode="&#x12b;" horiz-adv-x="561" 
d="M-8 0l235 1104h397l-235 -1104h-397zM786 1456l-32 -180h-599l33 180h598z" />
    <glyph glyph-name="Ibreve" unicode="&#x12c;" horiz-adv-x="640" 
d="M442 0h-424l307 1443h424zM234 1870h230q-3 -16 -3 -31q0 -54 34 -85.5t98 -31.5q73 0 122.5 40.5t66.5 107.5h242q-37 -144 -160.5 -239t-304.5 -95q-160 0 -245.5 77t-85.5 195q0 30 6 62z" />
    <glyph glyph-name="ibreve" unicode="&#x12d;" horiz-adv-x="561" 
d="M-8 0l235 1104h397l-235 -1104h-397zM156 1590h232q-3 -16 -3 -31q0 -56 34.5 -86.5t96.5 -30.5q71 0 122 39.5t68 108.5h240q-36 -153 -159.5 -243.5t-304.5 -90.5q-145 0 -238 78.5t-93 200.5q0 18 5 55z" />
    <glyph glyph-name="Iogonek" unicode="&#x12e;" horiz-adv-x="640" 
d="M162 -494q-116 0 -188 58t-72 152q0 69 47.5 142.5t133.5 137.5l-65 4l307 1443h424l-307 -1443l-42 -13q-83 -26 -142 -83t-59 -112q0 -36 28.5 -56t78.5 -20q51 0 74 9l-41 -193q-66 -26 -177 -26z" />
    <glyph glyph-name="iogonek" unicode="&#x12f;" horiz-adv-x="562" 
d="M247 -461q-65 -26 -177 -26q-118 0 -187.5 56.5t-69.5 144.5q0 129 173 257l241 1133h397l-233 -1094l-39 -12q-85 -26 -164 -87.5t-79 -116.5q0 -32 31 -52t74 -20q46 0 73 9zM480 1169q-86 0 -144 55t-58 137t58 137t144 55t144 -55t58 -137t-58 -137t-144 -55z" />
    <glyph glyph-name="Idotaccent" unicode="&#x130;" horiz-adv-x="640" 
d="M442 0h-424l307 1443h424zM608 1603q-75 0 -126 50.5t-51 122.5t51 122.5t126 50.5t126 -50.5t51 -122.5t-51 -122.5t-126 -50.5z" />
    <glyph glyph-name="dotlessi" unicode="&#x131;" horiz-adv-x="561" 
d="M-8 0l235 1104h397l-235 -1104h-397z" />
    <glyph glyph-name="IJ" unicode="&#x132;" horiz-adv-x="1900" 
d="M442 0h-424l307 1443h424zM678 434q0 40 3 71h404v-21q0 -69 36 -109t101 -40q125 0 160 160l202 948h424l-212 -996q-49 -231 -196 -351.5t-381 -120.5q-247 0 -394 125t-147 334z" />
    <glyph glyph-name="ij" unicode="&#x133;" horiz-adv-x="1122" 
d="M-8 0l235 1104h397l-235 -1104h-397zM480 1169q-86 0 -144 55t-58 137t58 137t144 55t144 -55t58 -137t-58 -137t-144 -55zM1042 1169q-86 0 -144 55t-58 137t58 137t144 55t144 -55t58 -137t-58 -137t-144 -55zM1185 1104l-250 -1173q-33 -155 -157.5 -245t-303.5 -90
q-97 0 -174 17l61 277q28 -7 71 -7q48 0 78 23t38 64l241 1134h396z" />
    <glyph glyph-name="Jcircumflex" unicode="&#x134;" horiz-adv-x="1260" 
d="M38 434q0 40 3 71h404v-21q0 -69 36 -109t101 -40q125 0 160 160l202 948h424l-212 -996q-49 -231 -196 -351.5t-381 -120.5q-247 0 -394 125t-147 334zM1405 1872l183 -336h-276l-91 192h-8l-173 -192h-276l327 336h314z" />
    <glyph glyph-name="jcircumflex" unicode="&#x135;" horiz-adv-x="560" 
d="M623 1104l-250 -1173q-33 -155 -157.5 -245t-303.5 -90q-97 0 -174 17l61 277q28 -7 71 -7q48 0 78 23t38 64l241 1134h396zM702 1592l183 -336h-272l-85 180h-8l-163 -180h-296l327 336h314z" />
    <glyph glyph-name="Kcommaaccent" unicode="&#x136;" horiz-adv-x="1457" 
d="M442 0h-424l307 1443h424l-126 -590h8l561 590h480l-644 -675l322 -768h-464l-212 530l-154 -162zM489 -475h-308l220 321h359z" />
    <glyph glyph-name="kcommaaccent" unicode="&#x137;" horiz-adv-x="1243" 
d="M396 0h-396l308 1443h395l-154 -725h8l353 386h452l-490 -486l291 -618h-428l-181 404l-92 -92zM388 -475h-308l220 321h359z" />
    <glyph glyph-name="Lacute" unicode="&#x139;" horiz-adv-x="1154" 
d="M1103 346l-74 -346h-1011l307 1443h424l-233 -1097h587zM725 1555h-322l300 321h364z" />
    <glyph glyph-name="lacute" unicode="&#x13a;" horiz-adv-x="576" 
d="M0 0l307 1443h396l-307 -1443h-396zM693 1555h-322l300 321h364z" />
    <glyph glyph-name="Lcommaaccent" unicode="&#x13b;" horiz-adv-x="1154" 
d="M1103 346l-74 -346h-1011l307 1443h424l-233 -1097h587zM372 -475h-308l220 321h359z" />
    <glyph glyph-name="lcommaaccent" unicode="&#x13c;" horiz-adv-x="576" 
d="M0 0l307 1443h396l-307 -1443h-396zM30 -475h-308l220 321h359z" />
    <glyph glyph-name="Lcaron" unicode="&#x13d;" horiz-adv-x="1154" 
d="M967 1443h322l-160 -518h-272zM1103 346l-74 -346h-1011l307 1443h424l-233 -1097h587z" />
    <glyph glyph-name="lcaron" unicode="&#x13e;" horiz-adv-x="928" 
d="M823 1443h322l-160 -518h-272zM0 0l307 1443h396l-307 -1443h-396z" />
    <glyph glyph-name="Lslash" unicode="&#x141;" horiz-adv-x="1154" 
d="M516 346h587l-74 -346h-1011l88 415l-120 -56l74 348l120 56l145 680h424l-98 -461l259 121l-74 -348l-259 -121z" />
    <glyph glyph-name="lslash" unicode="&#x142;" horiz-adv-x="576" 
d="M737 1032l-62 -290l-135 -63l-144 -679h-396l101 474l-124 -58l62 290l123 58l145 679h396l-101 -474z" />
    <glyph glyph-name="Nacute" unicode="&#x143;" horiz-adv-x="1509" 
d="M423 0h-405l307 1443h320l393 -792h8l167 792h405l-307 -1443h-320l-393 792h-8zM1114 1555h-322l300 321h364z" />
    <glyph glyph-name="nacute" unicode="&#x144;" horiz-adv-x="1286" 
d="M-8 0l235 1104h383l-36 -167h8q58 93 155.5 144t209.5 51q150 0 241 -85.5t91 -226.5q0 -62 -15 -135l-144 -685h-393l131 624q7 38 7 68q0 58 -41.5 95t-105.5 37q-70 0 -124 -48.5t-70 -127.5l-138 -648h-394zM978 1275h-314l300 321h348z" />
    <glyph glyph-name="Ncommaaccent" unicode="&#x145;" horiz-adv-x="1509" 
d="M423 0h-405l307 1443h320l393 -792h8l167 792h405l-307 -1443h-320l-393 792h-8zM532 -475h-308l220 321h359z" />
    <glyph glyph-name="ncommaaccent" unicode="&#x146;" horiz-adv-x="1286" 
d="M-8 0l235 1104h383l-36 -167h8q58 93 155.5 144t209.5 51q150 0 241 -85.5t91 -226.5q0 -62 -15 -135l-144 -685h-393l131 624q7 38 7 68q0 58 -41.5 95t-105.5 37q-70 0 -124 -48.5t-70 -127.5l-138 -648h-394zM389 -475h-308l220 321h359z" />
    <glyph glyph-name="Ncaron" unicode="&#x147;" horiz-adv-x="1509" 
d="M423 0h-405l307 1443h320l393 -792h8l167 792h405l-307 -1443h-320l-393 792h-8zM789 1536l-183 336h276l91 -192h8l173 192h276l-327 -336h-314z" />
    <glyph glyph-name="ncaron" unicode="&#x148;" horiz-adv-x="1286" 
d="M-8 0l235 1104h383l-36 -167h8q58 93 155.5 144t209.5 51q150 0 241 -85.5t91 -226.5q0 -62 -15 -135l-144 -685h-393l131 624q7 38 7 68q0 58 -41.5 95t-105.5 37q-70 0 -124 -48.5t-70 -127.5l-138 -648h-394zM921 1256h-314l-184 336h272l86 -180h8l162 180h296z" />
    <glyph glyph-name="Omacron" unicode="&#x14c;" horiz-adv-x="1586" 
d="M915 1130q-96 0 -178.5 -69t-131.5 -188t-49 -258q0 -137 65.5 -219.5t175.5 -82.5q146 0 253 151.5t107 364.5q0 138 -66 219.5t-176 81.5zM784 -25q-151 0 -276 46.5t-208 129t-128.5 195t-45.5 243.5q0 194 62.5 359.5t170.5 279t254.5 177t311.5 63.5q155 0 281 -47
t209 -129.5t127.5 -194.5t44.5 -243q0 -195 -63.5 -361t-172 -278.5t-255.5 -176t-312 -63.5zM1385 1786l-38 -180h-748l38 180h748z" />
    <glyph glyph-name="omacron" unicode="&#x14d;" horiz-adv-x="1299" 
d="M632 275q100 0 168.5 100.5t68.5 247.5q0 93 -41 149.5t-108 56.5q-103 0 -170.5 -99t-67.5 -249q0 -92 41.5 -149t108.5 -57zM740 1132q239 0 386.5 -138.5t147.5 -362.5q0 -190 -84 -340.5t-234.5 -234.5t-341.5 -84q-239 0 -386.5 138.5t-147.5 362.5q0 190 84 340.5
t234.5 234.5t341.5 84zM1181 1456l-38 -180h-704l38 180h704z" />
    <glyph glyph-name="Obreve" unicode="&#x14e;" horiz-adv-x="1586" 
d="M915 1130q-96 0 -178.5 -69t-131.5 -188t-49 -258q0 -137 65.5 -219.5t175.5 -82.5q146 0 253 151.5t107 364.5q0 138 -66 219.5t-176 81.5zM784 -25q-151 0 -276 46.5t-208 129t-128.5 195t-45.5 243.5q0 194 62.5 359.5t170.5 279t254.5 177t311.5 63.5q155 0 281 -47
t209 -129.5t127.5 -194.5t44.5 -243q0 -195 -63.5 -361t-172 -278.5t-255.5 -176t-312 -63.5zM634 1870h230q-3 -16 -3 -31q0 -54 34 -85.5t98 -31.5q73 0 122.5 40.5t66.5 107.5h242q-37 -144 -160.5 -239t-304.5 -95q-160 0 -245.5 77t-85.5 195q0 30 6 62z" />
    <glyph glyph-name="obreve" unicode="&#x14f;" horiz-adv-x="1299" 
d="M632 275q100 0 168.5 100.5t68.5 247.5q0 93 -41 149.5t-108 56.5q-103 0 -170.5 -99t-67.5 -249q0 -92 41.5 -149t108.5 -57zM740 1132q239 0 386.5 -138.5t147.5 -362.5q0 -190 -84 -340.5t-234.5 -234.5t-341.5 -84q-239 0 -386.5 138.5t-147.5 362.5q0 190 84 340.5
t234.5 234.5t341.5 84zM462 1590h232q-3 -16 -3 -31q0 -56 34.5 -86.5t96.5 -30.5q71 0 122 39.5t68 108.5h240q-36 -153 -159.5 -243.5t-304.5 -90.5q-145 0 -238 78.5t-93 200.5q0 18 5 55z" />
    <glyph glyph-name="Ohungarumlaut" unicode="&#x150;" horiz-adv-x="1586" 
d="M915 1130q-96 0 -178.5 -69t-131.5 -188t-49 -258q0 -137 65.5 -219.5t175.5 -82.5q146 0 253 151.5t107 364.5q0 138 -66 219.5t-176 81.5zM784 -25q-151 0 -276 46.5t-208 129t-128.5 195t-45.5 243.5q0 194 62.5 359.5t170.5 279t254.5 177t311.5 63.5q155 0 281 -47
t209 -129.5t127.5 -194.5t44.5 -243q0 -195 -63.5 -361t-172 -278.5t-255.5 -176t-312 -63.5zM1385 1555h-322l300 321h364zM865 1555h-322l300 321h364z" />
    <glyph glyph-name="ohungarumlaut" unicode="&#x151;" horiz-adv-x="1299" 
d="M632 275q100 0 168.5 100.5t68.5 247.5q0 93 -41 149.5t-108 56.5q-103 0 -170.5 -99t-67.5 -249q0 -92 41.5 -149t108.5 -57zM740 1132q239 0 386.5 -138.5t147.5 -362.5q0 -190 -84 -340.5t-234.5 -234.5t-341.5 -84q-239 0 -386.5 138.5t-147.5 362.5q0 190 84 340.5
t234.5 234.5t341.5 84zM937 1276l250 320h309l-279 -320h-280zM504 1276l251 320h308l-279 -320h-280z" />
    <glyph glyph-name="OE" unicode="&#x152;" horiz-adv-x="2233" 
d="M1126 0l36 180h-8q-66 -94 -187.5 -149.5t-262.5 -55.5q-253 0 -410.5 171t-157.5 446q0 249 103.5 449.5t287 313.5t411.5 113q149 0 260.5 -66.5t175.5 -192.5h8l51 234h906l-72 -336h-593l-49 -234h556l-65 -304h-556l-50 -233h594l-71 -336h-907zM1167 829
q0 137 -66 219t-176 82q-96 0 -179 -69.5t-131.5 -188.5t-48.5 -257q0 -137 65.5 -219.5t175.5 -82.5q97 0 180 69.5t131.5 188.5t48.5 258z" />
    <glyph glyph-name="oe" unicode="&#x153;" horiz-adv-x="1999" 
d="M1369 -27q-102 0 -212.5 47.5t-147.5 108.5h-19q-135 -156 -378 -156t-388.5 136t-145.5 364q0 185 85.5 336t235.5 237t334 86q108 0 202 -41t155 -114h20q63 69 158 112.5t200 43.5q224 0 367 -133t143 -343q0 -75 -21 -191h-749v-12q0 -96 52 -152t139 -56
q136 0 167 114h366q-44 -179 -195.5 -283t-367.5 -104zM1245 682h374q3 15 3 32q0 63 -45 103.5t-116 40.5q-77 0 -136.5 -48.5t-79.5 -127.5zM488 472q0 -97 35.5 -149.5t100.5 -52.5q95 0 164 107t69 253q0 98 -35 152t-98 54q-95 0 -165.5 -109t-70.5 -255z" />
    <glyph glyph-name="Racute" unicode="&#x154;" horiz-adv-x="1394" 
d="M1347 1876l-342 -321h-322l300 321h364zM606 774h189q105 0 168 56.5t63 146.5q0 153 -181 153h-162zM325 1443h649q223 0 350 -120.5t127 -310.5q0 -158 -89 -291.5t-250 -196.5l160 -524h-442l-136 484h-149l-103 -484h-424z" />
    <glyph glyph-name="racute" unicode="&#x155;" horiz-adv-x="894" 
d="M-8 0l237 1104h387l-32 -160h8q39 80 109.5 128t157.5 48q88 0 152 -29l-75 -343q-87 41 -166 41q-100 0 -167.5 -56.5t-91.5 -168.5l-122 -564h-397zM845 1276h-314l300 321h348z" />
    <glyph glyph-name="Rcommaaccent" unicode="&#x156;" horiz-adv-x="1394" 
d="M154 -475l220 321h359l-271 -321h-308zM606 774h189q105 0 168 56.5t63 146.5q0 153 -181 153h-162zM325 1443h649q223 0 350 -120.5t127 -310.5q0 -158 -89 -291.5t-250 -196.5l160 -524h-442l-136 484h-149l-103 -484h-424z" />
    <glyph glyph-name="rcommaaccent" unicode="&#x157;" horiz-adv-x="894" 
d="M-8 0l237 1104h387l-32 -160h8q39 80 109.5 128t157.5 48q88 0 152 -29l-75 -343q-87 41 -166 41q-100 0 -167.5 -56.5t-91.5 -168.5l-122 -564h-397zM22 -475h-308l220 321h359z" />
    <glyph glyph-name="Rcaron" unicode="&#x158;" horiz-adv-x="1394" 
d="M994 1536h-314l-183 336h276l91 -192h8l173 192h276zM606 774h189q105 0 168 56.5t63 146.5q0 153 -181 153h-162zM325 1443h649q223 0 350 -120.5t127 -310.5q0 -158 -89 -291.5t-250 -196.5l160 -524h-442l-136 484h-149l-103 -484h-424z" />
    <glyph glyph-name="rcaron" unicode="&#x159;" horiz-adv-x="894" 
d="M-8 0l237 1104h387l-32 -160h8q39 80 109.5 128t157.5 48q88 0 152 -29l-75 -343q-87 41 -166 41q-100 0 -167.5 -56.5t-91.5 -168.5l-122 -564h-397zM788 1257h-314l-184 336h272l86 -180h8l162 180h296z" />
    <glyph glyph-name="Sacute" unicode="&#x15a;" horiz-adv-x="1384" 
d="M62 425h401q9 -59 73 -97.5t153 -38.5q92 0 146 33.5t54 87.5q0 42 -32.5 69t-130.5 57l-151 46q-369 112 -369 400q0 218 169.5 352t434.5 134q280 0 440 -121t161 -335h-387q-2 65 -58 104t-146 39q-82 0 -132.5 -33t-50.5 -85q0 -45 35.5 -76t120.5 -56l158 -46
q197 -57 284 -147t87 -244q0 -226 -176.5 -359.5t-464.5 -133.5q-292 0 -455 118.5t-164 331.5zM1005 1555h-322l300 321h364z" />
    <glyph glyph-name="sacute" unicode="&#x15b;" horiz-adv-x="1157" 
d="M159 760q0 170 137.5 271t367.5 101q214 0 352 -103.5t144 -268.5h-354q-3 50 -43.5 81t-104.5 31q-57 0 -90.5 -21t-33.5 -57q0 -30 27.5 -49.5t106.5 -46.5l124 -42q159 -54 225.5 -123.5t66.5 -180.5q0 -173 -142 -276.5t-380 -103.5q-241 0 -385 104t-151 282h374
q3 -56 50 -90.5t122 -34.5q57 0 88.5 19t31.5 54q0 28 -28 48t-102 46l-100 34q-155 53 -229 132.5t-74 193.5zM921 1276h-314l300 321h348z" />
    <glyph glyph-name="Scircumflex" unicode="&#x15c;" horiz-adv-x="1384" 
d="M62 425h401q9 -59 73 -97.5t153 -38.5q92 0 146 33.5t54 87.5q0 42 -32.5 69t-130.5 57l-151 46q-369 112 -369 400q0 218 169.5 352t434.5 134q280 0 440 -121t161 -335h-387q-2 65 -58 104t-146 39q-82 0 -132.5 -33t-50.5 -85q0 -45 35.5 -76t120.5 -56l158 -46
q197 -57 284 -147t87 -244q0 -226 -176.5 -359.5t-464.5 -133.5q-292 0 -455 118.5t-164 331.5zM1066 1872l183 -336h-276l-91 192h-8l-173 -192h-276l327 336h314z" />
    <glyph glyph-name="scircumflex" unicode="&#x15d;" horiz-adv-x="1157" 
d="M159 760q0 170 137.5 271t367.5 101q214 0 352 -103.5t144 -268.5h-354q-3 50 -43.5 81t-104.5 31q-57 0 -90.5 -21t-33.5 -57q0 -30 27.5 -49.5t106.5 -46.5l124 -42q159 -54 225.5 -123.5t66.5 -180.5q0 -173 -142 -276.5t-380 -103.5q-241 0 -385 104t-151 282h374
q3 -56 50 -90.5t122 -34.5q57 0 88.5 19t31.5 54q0 28 -28 48t-102 46l-100 34q-155 53 -229 132.5t-74 193.5zM935 1593l183 -336h-272l-85 180h-8l-163 -180h-296l327 336h314z" />
    <glyph glyph-name="Scedilla" unicode="&#x15e;" horiz-adv-x="1384" 
d="M793 905l158 -46q197 -57 284 -147t87 -244q0 -212 -156.5 -343.5t-417.5 -147.5l-43 -53q138 -20 138 -149q0 -102 -93 -169t-235 -67q-98 0 -138 15l35 161q43 -12 110 -12q112 0 112 47q0 22 -24.5 30.5t-86.5 8.5h-58l29 125l56 68q-232 25 -359.5 140t-128.5 303
h401q9 -59 73 -97.5t153 -38.5q92 0 146 33.5t54 87.5q0 42 -32.5 69t-130.5 57l-151 46q-369 112 -369 400q0 218 169.5 352t434.5 134q280 0 440 -121t161 -335h-387q-2 65 -58 104t-146 39q-82 0 -132.5 -33t-50.5 -85q0 -45 35.5 -76t120.5 -56z" />
    <glyph glyph-name="scedilla" unicode="&#x15f;" horiz-adv-x="1157" 
d="M668 698l124 -42q159 -54 225.5 -123.5t66.5 -180.5q0 -159 -121 -260t-328 -117l-41 -51q138 -20 138 -149q0 -102 -93 -169t-235 -67q-98 0 -138 15l35 161q43 -12 110 -12q112 0 112 47q0 22 -24.5 30.5t-86.5 8.5h-58l29 125l55 66q-188 26 -297 125.5t-115 252.5
h374q3 -56 50 -90.5t122 -34.5q57 0 88.5 19t31.5 54q0 28 -28 48t-102 46l-100 34q-155 53 -229 132.5t-74 193.5q0 170 137.5 271t367.5 101q214 0 352 -103.5t144 -268.5h-354q-3 50 -43.5 81t-104.5 31q-57 0 -90.5 -21t-33.5 -57q0 -30 27.5 -49.5t106.5 -46.5z" />
    <glyph glyph-name="Scaron" unicode="&#x160;" horiz-adv-x="1384" 
d="M62 425h401q9 -59 73 -97.5t153 -38.5q92 0 146 33.5t54 87.5q0 42 -32.5 69t-130.5 57l-151 46q-369 112 -369 400q0 218 169.5 352t434.5 134q280 0 440 -121t161 -335h-387q-2 65 -58 104t-146 39q-82 0 -132.5 -33t-50.5 -85q0 -45 35.5 -76t120.5 -56l158 -46
q197 -57 284 -147t87 -244q0 -226 -176.5 -359.5t-464.5 -133.5q-292 0 -455 118.5t-164 331.5zM680 1536l-183 336h276l91 -192h8l173 192h276l-327 -336h-314z" />
    <glyph glyph-name="scaron" unicode="&#x161;" horiz-adv-x="1157" 
d="M159 760q0 170 137.5 271t367.5 101q214 0 352 -103.5t144 -268.5h-354q-3 50 -43.5 81t-104.5 31q-57 0 -90.5 -21t-33.5 -57q0 -30 27.5 -49.5t106.5 -46.5l124 -42q159 -54 225.5 -123.5t66.5 -180.5q0 -173 -142 -276.5t-380 -103.5q-241 0 -385 104t-151 282h374
q3 -56 50 -90.5t122 -34.5q57 0 88.5 19t31.5 54q0 28 -28 48t-102 46l-100 34q-155 53 -229 132.5t-74 193.5zM864 1257h-314l-184 336h272l86 -180h8l162 180h296z" />
    <glyph glyph-name="Tcedilla" unicode="&#x162;" horiz-adv-x="1306" 
d="M257 1443h1226l-72 -336h-401l-235 -1107l-62 -76q138 -20 138 -149q0 -102 -93 -169t-235 -67q-98 0 -138 15l35 161q43 -12 110 -12q112 0 112 47q0 22 -24.5 30.5t-86.5 8.5h-58l29 125l72 86h-223l235 1107h-401z" />
    <glyph glyph-name="tcedilla" unicode="&#x163;" horiz-adv-x="873" 
d="M669 781l-84 -393q-5 -17 -5 -44q0 -43 30 -61.5t98 -18.5q56 0 72 6l-60 -272q-51 -14 -155 -14l-49 -60q138 -20 138 -149q0 -102 -93 -169t-235 -67q-98 0 -138 15l35 161q43 -12 110 -12q112 0 112 47q0 22 -24.5 30.5t-86.5 8.5h-58l29 125l74 89q-102 25 -155.5 83
t-53.5 146q0 62 12 122l89 427h-165l64 290h164l56 263h396l-56 -263h216l-62 -290h-215z" />
    <glyph glyph-name="Tcaron" unicode="&#x164;" horiz-adv-x="1306" 
d="M775 0h-424l235 1107h-401l72 336h1226l-72 -336h-401zM732 1536l-183 336h276l91 -192h8l173 192h276l-327 -336h-314z" />
    <glyph glyph-name="tcaron" unicode="&#x165;" horiz-adv-x="1115" 
d="M1010 1746h322l-160 -518h-272zM558 -16q-186 0 -287 63t-101 185q0 62 12 122l89 427h-165l64 290h164l56 263h396l-56 -263h216l-62 -290h-215l-84 -393q-5 -17 -5 -44q0 -43 30 -61.5t98 -18.5q56 0 72 6l-60 -272q-52 -14 -162 -14z" />
    <glyph glyph-name="Tbar" unicode="&#x166;" horiz-adv-x="1306" 
d="M1411 1107h-401l-46 -216h304l-71 -336h-304l-118 -555h-424l118 555h-254l72 336h253l46 216h-401l72 336h1226z" />
    <glyph glyph-name="tbar" unicode="&#x167;" horiz-adv-x="873" 
d="M884 781h-215l-26 -122h220l-37 -174h-220l-21 -97q-5 -17 -5 -44q0 -43 30 -61.5t98 -18.5q56 0 72 6l-60 -272q-52 -14 -162 -14q-186 0 -287 63t-101 185q0 62 12 122l27 131h-166l37 174h166l25 122h-165l64 290h164l56 263h396l-56 -263h216z" />
    <glyph glyph-name="Utilde" unicode="&#x168;" horiz-adv-x="1501" 
d="M745 -25q-283 0 -449 134.5t-166 353.5q0 62 13 123l182 857h424l-181 -853q-9 -42 -9 -77q0 -84 58.5 -132.5t145.5 -48.5q186 0 232 214l189 897h424l-209 -991q-47 -222 -225 -349.5t-429 -127.5zM1156 1546q-49 0 -91 18.5t-65 41t-51 41t-54 18.5q-61 0 -88 -101
h-205q28 133 107.5 213t185.5 80q49 0 91 -18.5t65 -41t51 -41t54 -18.5q61 0 89 106h205q-29 -135 -109.5 -216.5t-184.5 -81.5z" />
    <glyph glyph-name="utilde" unicode="&#x169;" horiz-adv-x="1287" 
d="M1350 1104l-235 -1104h-385l38 180h-8q-50 -98 -142 -153t-207 -55q-158 0 -252 88t-94 237q0 75 14 139l142 668h396l-129 -603q-5 -32 -5 -59q0 -70 38.5 -109t109.5 -39t120 47.5t67 132.5l134 630h398zM996 1256q-49 0 -91 18.5t-65 41t-51 41t-54 18.5
q-61 0 -88 -101h-205q28 134 107.5 213.5t185.5 79.5q49 0 91 -18.5t65 -41t51 -41t54 -18.5q61 0 89 106h205q-29 -135 -109.5 -216.5t-184.5 -81.5z" />
    <glyph glyph-name="Umacron" unicode="&#x16a;" horiz-adv-x="1501" 
d="M745 -25q-283 0 -449 134.5t-166 353.5q0 62 13 123l182 857h424l-181 -853q-9 -42 -9 -77q0 -84 58.5 -132.5t145.5 -48.5q186 0 232 214l189 897h424l-209 -991q-47 -222 -225 -349.5t-429 -127.5zM1405 1786l-38 -180h-748l38 180h748z" />
    <glyph glyph-name="umacron" unicode="&#x16b;" horiz-adv-x="1287" 
d="M1350 1104l-235 -1104h-385l38 180h-8q-50 -98 -142 -153t-207 -55q-158 0 -252 88t-94 237q0 75 14 139l142 668h396l-129 -603q-5 -32 -5 -59q0 -70 38.5 -109t109.5 -39t120 47.5t67 132.5l134 630h398zM1234 1456l-38 -180h-704l38 180h704z" />
    <glyph glyph-name="Ubreve" unicode="&#x16c;" horiz-adv-x="1501" 
d="M745 -25q-283 0 -449 134.5t-166 353.5q0 62 13 123l182 857h424l-181 -853q-9 -42 -9 -77q0 -84 58.5 -132.5t145.5 -48.5q186 0 232 214l189 897h424l-209 -991q-47 -222 -225 -349.5t-429 -127.5zM654 1870h230q-3 -16 -3 -31q0 -54 34 -85.5t98 -31.5
q73 0 122.5 40.5t66.5 107.5h242q-37 -144 -160.5 -239t-304.5 -95q-160 0 -245.5 77t-85.5 195q0 30 6 62z" />
    <glyph glyph-name="ubreve" unicode="&#x16d;" horiz-adv-x="1287" 
d="M1350 1104l-235 -1104h-385l38 180h-8q-50 -98 -142 -153t-207 -55q-158 0 -252 88t-94 237q0 75 14 139l142 668h396l-129 -603q-5 -32 -5 -59q0 -70 38.5 -109t109.5 -39t120 47.5t67 132.5l134 630h398zM515 1590h232q-3 -16 -3 -31q0 -56 34.5 -86.5t96.5 -30.5
q71 0 122 39.5t68 108.5h240q-36 -153 -159.5 -243.5t-304.5 -90.5q-145 0 -238 78.5t-93 200.5q0 18 5 55z" />
    <glyph glyph-name="Uring" unicode="&#x16e;" horiz-adv-x="1501" 
d="M745 -25q-283 0 -449 134.5t-166 353.5q0 62 13 123l182 857h424l-181 -853q-9 -42 -9 -77q0 -84 58.5 -132.5t145.5 -48.5q186 0 232 214l189 897h424l-209 -991q-47 -222 -225 -349.5t-429 -127.5zM1051 1574q-99 0 -171.5 69.5t-72.5 165.5q0 97 72.5 166.5
t171.5 69.5t171 -69.5t72 -166.5t-72 -166t-171 -69zM1051 1725q35 0 61.5 25t26.5 59q0 35 -26.5 60.5t-61.5 25.5t-61.5 -25.5t-26.5 -60.5q0 -34 26.5 -59t61.5 -25z" />
    <glyph glyph-name="uring" unicode="&#x16f;" horiz-adv-x="1287" 
d="M1350 1104l-235 -1104h-385l38 180h-8q-50 -98 -142 -153t-207 -55q-158 0 -252 88t-94 237q0 75 14 139l142 668h396l-129 -603q-5 -32 -5 -59q0 -70 38.5 -109t109.5 -39t120 47.5t67 132.5l134 630h398zM879 1235q-99 0 -171.5 69.5t-72.5 165.5q0 97 72.5 166.5
t171.5 69.5t171 -69.5t72 -166.5t-72 -166t-171 -69zM879 1386q35 0 61.5 25t26.5 59q0 35 -26.5 60.5t-61.5 25.5t-61.5 -25.5t-26.5 -60.5q0 -34 26.5 -59t61.5 -25z" />
    <glyph glyph-name="Uhungarumlaut" unicode="&#x170;" horiz-adv-x="1501" 
d="M745 -25q-283 0 -449 134.5t-166 353.5q0 62 13 123l182 857h424l-181 -853q-9 -42 -9 -77q0 -84 58.5 -132.5t145.5 -48.5q186 0 232 214l189 897h424l-209 -991q-47 -222 -225 -349.5t-429 -127.5zM1405 1555h-322l300 321h364zM885 1555h-322l300 321h364z" />
    <glyph glyph-name="uhungarumlaut" unicode="&#x171;" horiz-adv-x="1287" 
d="M1350 1104l-235 -1104h-385l38 180h-8q-50 -98 -142 -153t-207 -55q-158 0 -252 88t-94 237q0 75 14 139l142 668h396l-129 -603q-5 -32 -5 -59q0 -70 38.5 -109t109.5 -39t120 47.5t67 132.5l134 630h398zM990 1276l250 320h309l-279 -320h-280zM557 1276l251 320h308
l-279 -320h-280z" />
    <glyph glyph-name="Uogonek" unicode="&#x172;" horiz-adv-x="1501" 
d="M1025 -468q-66 -26 -177 -26q-114 0 -187 56.5t-73 151.5q0 71 51.5 139.5t134.5 115.5v8q-10 -2 -16 -2q-284 0 -456 135t-172 353q0 62 13 123l182 857h426l-182 -853q-9 -42 -9 -77q0 -84 58 -132.5t145 -48.5q185 0 231 214l189 897h425l-209 -991
q-51 -243 -270 -386q-123 -80 -183.5 -142t-60.5 -134q0 -35 27.5 -54.5t79.5 -19.5q49 0 74 9z" />
    <glyph glyph-name="uogonek" unicode="&#x173;" horiz-adv-x="1285" 
d="M963 -461q-65 -26 -177 -26q-118 0 -187.5 56.5t-69.5 144.5q0 153 196 265l43 201h-8q-48 -95 -139 -151t-210 -56q-155 0 -250.5 86.5t-95.5 237.5q0 46 14 139l141 669h397l-129 -604q-5 -25 -5 -59q0 -70 38.5 -109t109.5 -39t120 47.5t67 132.5l136 631h394
l-231 -1095l-39 -10q-96 -25 -174.5 -87t-78.5 -119q0 -32 31 -52t74 -20q46 0 73 9z" />
    <glyph glyph-name="Wcircumflex" unicode="&#x174;" horiz-adv-x="2014" 
d="M1087 821l-387 -821h-401l-66 1443h436l-24 -899h8l406 899h328l34 -899h8l350 899h436l-678 -1443h-396l-46 821h-8zM1472 1872l183 -336h-276l-91 192h-8l-173 -192h-276l327 336h314z" />
    <glyph glyph-name="wcircumflex" unicode="&#x175;" horiz-adv-x="1766" 
d="M1895 1104l-508 -1104h-434l-3 713h-8l-299 -713h-438l-44 1104h398l-42 -747h8l302 747h386l-12 -747h8l274 747h412zM1296 1593l183 -336h-272l-85 180h-8l-163 -180h-296l327 336h314z" />
    <glyph glyph-name="Ycircumflex" unicode="&#x176;" horiz-adv-x="1430" 
d="M838 0h-424l97 457l-284 986h439l133 -585h8l371 585h459l-702 -986zM1176 1872l183 -336h-276l-91 192h-8l-173 -192h-276l327 336h314z" />
    <glyph glyph-name="ycircumflex" unicode="&#x177;" horiz-adv-x="1206" 
d="M75 -405h-152l64 305h106q172 0 172 97q0 18 -1 23l-111 1084h407l-1 -808h8l354 808h422l-568 -1086q-118 -226 -282 -324.5t-418 -98.5zM1018 1593l183 -336h-272l-85 180h-8l-163 -180h-296l327 336h314z" />
    <glyph glyph-name="Ydieresis" unicode="&#x178;" horiz-adv-x="1430" 
d="M838 0h-424l97 457l-284 986h439l133 -585h8l371 585h459l-702 -986zM773 1559q-64 0 -106.5 41t-42.5 100t42.5 100t106.5 41t106.5 -41t42.5 -100t-42.5 -100t-106.5 -41zM1191 1559q-64 0 -106.5 41t-42.5 100t42.5 100t106.5 41t106.5 -41t42.5 -100t-42.5 -100
t-106.5 -41z" />
    <glyph glyph-name="Zacute" unicode="&#x179;" horiz-adv-x="1281" 
d="M-18 0l57 266l772 833v8h-589l72 336h1108l-57 -265l-773 -834v-8h618l-71 -336h-1137zM1036 1555h-322l300 321h364z" />
    <glyph glyph-name="zacute" unicode="&#x17a;" horiz-adv-x="1105" 
d="M-32 0l44 208l596 584l2 8h-456l65 304h957l-52 -243l-549 -549l-1 -8h454l-65 -304h-995zM958 1275h-314l300 321h348z" />
    <glyph glyph-name="Zdotaccent" unicode="&#x17b;" horiz-adv-x="1281" 
d="M-18 0l57 266l772 833v8h-589l72 336h1108l-57 -265l-773 -834v-8h618l-71 -336h-1137zM919 1603q-75 0 -126 50.5t-51 122.5t51 122.5t126 50.5t126 -50.5t51 -122.5t-51 -122.5t-126 -50.5z" />
    <glyph glyph-name="zdotaccent" unicode="&#x17c;" horiz-adv-x="1105" 
d="M-32 0l44 208l596 584l2 8h-456l65 304h957l-52 -243l-549 -549l-1 -8h454l-65 -304h-995zM766 1264q-75 0 -126 50.5t-51 122.5t51 122.5t126 50.5t126 -50.5t51 -122.5t-51 -122.5t-126 -50.5z" />
    <glyph glyph-name="Zcaron" unicode="&#x17d;" horiz-adv-x="1281" 
d="M-18 0l57 266l772 833v8h-589l72 336h1108l-57 -265l-773 -834v-8h618l-71 -336h-1137zM711 1536l-183 336h276l91 -192h8l173 192h276l-327 -336h-314z" />
    <glyph glyph-name="zcaron" unicode="&#x17e;" horiz-adv-x="1105" 
d="M-32 0l44 208l596 584l2 8h-456l65 304h957l-52 -243l-549 -549l-1 -8h454l-65 -304h-995zM901 1256h-314l-184 336h272l86 -180h8l162 180h296z" />
    <glyph glyph-name="uni04D8" unicode="&#x18f;" horiz-adv-x="1586" 
d="M754 -25q-280 0 -452 159t-172 418q0 65 16 148t36 127h966l1 6q23 139 -37 221t-184 82q-188 0 -278 -162h-427q77 230 278 362t472 132q274 0 435 -153.5t161 -415.5q0 -277 -100.5 -487t-285 -323.5t-429.5 -113.5zM777 307q110 0 198.5 67.5t120.5 176.5h-537
q-3 -22 -3 -44q0 -92 59.5 -146t161.5 -54z" />
    <glyph glyph-name="uni04D8" unicode="&#x4d8;" horiz-adv-x="1586" 
d="M754 -25q-280 0 -452 159t-172 418q0 65 16 148t36 127h966l1 6q23 139 -37 221t-184 82q-188 0 -278 -162h-427q77 230 278 362t472 132q274 0 435 -153.5t161 -415.5q0 -277 -100.5 -487t-285 -323.5t-429.5 -113.5zM777 307q110 0 198.5 67.5t120.5 176.5h-537
q-3 -22 -3 -44q0 -92 59.5 -146t161.5 -54z" />
    <glyph glyph-name="florin" unicode="&#x192;" horiz-adv-x="1413" 
d="M256 -24q-74 0 -147 9.5t-105 21.5l65 311q68 -20 154 -20q90 0 147 39.5t93 134.5l45 122h-317l59 276h361l77 206q140 376 618 376q151 0 229 -24l-67 -313q-51 15 -144 15q-184 0 -249 -174l-32 -86h311l-59 -276h-355l-78 -209q-76 -205 -220 -307t-386 -102z" />
    <glyph glyph-name="Ohorn" unicode="&#x1a0;" horiz-adv-x="1586" 
d="M1157 829q0 138 -66 219.5t-176 81.5q-96 0 -178.5 -69t-131.5 -188t-49 -258q0 -137 65.5 -219.5t175.5 -82.5q146 0 253 151.5t107 364.5zM1587 854q0 -195 -63.5 -361t-172 -278.5t-255.5 -176t-312 -63.5q-151 0 -276 46.5t-208 129t-128.5 195t-45.5 243.5
q0 194 62.5 359.5t170.5 279t254.5 177t311.5 63.5q99 0 180.5 -17.5t131.5 -43t87.5 -51t67 -43t52.5 -17.5q44 0 67.5 24.5t35.5 81.5l35 163h301l-55 -255q-23 -108 -78.5 -160.5t-125.5 -52.5q-46 0 -77 19l-8 -9q48 -114 48 -253z" />
    <glyph glyph-name="ohorn" unicode="&#x1a1;" horiz-adv-x="1381" 
d="M1269 626q0 -183 -85.5 -333t-236 -235.5t-334.5 -85.5q-243 0 -388.5 137t-145.5 365q0 184 86.5 335t238 237t335.5 86q104 0 217 -24t150 -24q81 0 99 84l34 162h302l-52 -247q-22 -104 -91.5 -170.5t-157.5 -66.5h-13v-8q42 -86 42 -212zM489 474q0 -97 35.5 -150
t100.5 -53q95 0 164 106.5t69 252.5q0 98 -35 152t-98 54q-95 0 -165.5 -108t-70.5 -254z" />
    <glyph glyph-name="Uhorn" unicode="&#x1af;" horiz-adv-x="1789" 
d="M749 -25q-282 0 -455 134t-173 354q0 60 13 123l182 857h426l-182 -853q-9 -42 -9 -77q0 -80 56.5 -130.5t146.5 -50.5q185 0 231 214l189 897h444q31 0 53 17t29 49l44 205h303l-62 -290q-24 -114 -104 -177t-199 -63h-137l-155 -732q-46 -221 -218 -349t-423 -128z" />
    <glyph glyph-name="uhorn" unicode="&#x1b0;" horiz-adv-x="1560" 
d="M760 180q-50 -98 -142 -153t-207 -55q-158 0 -252 88t-94 237q0 75 14 139l142 668h396l-129 -603q-5 -32 -5 -59q0 -70 38.5 -109t109.5 -39t120 47.5t67 132.5l134 630h382q32 0 53 17t27 47l34 162h302l-52 -247q-24 -112 -102.5 -174.5t-196.5 -62.5h-104l-180 -846
h-385l38 180h-8z" />
    <glyph glyph-name="uni01C4" unicode="&#x1c4;" horiz-adv-x="2773" 
d="M325 1443h600q256 0 414.5 -147.5t158.5 -403.5q0 -258 -94 -460.5t-268 -317t-399 -114.5h-719zM681 1108l-163 -772h158q172 0 279 135t107 367q0 122 -63.5 196t-174.5 74h-143zM1474 0l57 266l772 833v8h-589l72 336h1108l-57 -265l-773 -834v-8h618l-71 -336h-1137z
M2203 1536l-183 336h276l91 -192h8l173 192h276l-327 -336h-314z" />
    <glyph glyph-name="uni01C5" unicode="&#x1c5;" horiz-adv-x="2597" 
d="M325 1443h600q256 0 414.5 -147.5t158.5 -403.5q0 -258 -94 -460.5t-268 -317t-399 -114.5h-719zM681 1108l-163 -772h158q172 0 279 135t107 367q0 122 -63.5 196t-174.5 74h-143zM1460 0l44 208l596 584l2 8h-456l65 304h957l-52 -243l-549 -549l-1 -8h454l-65 -304
h-995zM2393 1256h-314l-184 336h272l86 -180h8l162 180h296z" />
    <glyph glyph-name="uni01C6" unicode="&#x1c6;" horiz-adv-x="2428" 
d="M439 -16q-170 0 -268.5 112.5t-98.5 306.5q0 203 71.5 367t198 257t282.5 93q120 0 201.5 -50.5t109.5 -142.5h8l110 516h397l-308 -1443h-386l33 155h-8q-120 -171 -342 -171zM636 285q95 0 166 101.5t71 237.5q0 83 -42 134t-111 51q-99 0 -168.5 -98.5t-69.5 -239.5
q0 -83 42.5 -134.5t111.5 -51.5zM1291 0l44 208l596 584l2 8h-456l65 304h957l-52 -243l-549 -549l-1 -8h454l-65 -304h-995zM2224 1256h-314l-184 336h272l86 -180h8l162 180h296z" />
    <glyph glyph-name="uni01C7" unicode="&#x1c7;" horiz-adv-x="2414" 
d="M1103 346l-74 -346h-1011l307 1443h424l-233 -1097h587zM1192 434q0 40 3 71h404v-21q0 -69 36 -109t101 -40q125 0 160 160l202 948h424l-212 -996q-49 -231 -196 -351.5t-381 -120.5q-247 0 -394 125t-147 334z" />
    <glyph glyph-name="uni01C8" unicode="&#x1c8;" horiz-adv-x="1714" 
d="M1103 346l-74 -346h-1011l307 1443h424l-233 -1097h587zM1634 1169q-86 0 -144 55t-58 137t58 137t144 55t144 -55t58 -137t-58 -137t-144 -55zM1777 1104l-250 -1173q-33 -155 -157.5 -245t-303.5 -90q-97 0 -174 17l61 277q28 -7 71 -7q48 0 78 23t38 64l241 1134h396z
" />
    <glyph glyph-name="uni01C9" unicode="&#x1c9;" horiz-adv-x="1136" 
d="M0 0l307 1443h396l-307 -1443h-396zM1056 1169q-86 0 -144 55t-58 137t58 137t144 55t144 -55t58 -137t-58 -137t-144 -55zM1199 1104l-250 -1173q-33 -155 -157.5 -245t-303.5 -90q-97 0 -174 17l61 277q28 -7 71 -7q48 0 78 23t38 64l241 1134h396z" />
    <glyph glyph-name="uni01CA" unicode="&#x1ca;" horiz-adv-x="2769" 
d="M423 0h-405l307 1443h320l393 -792h8l167 792h405l-307 -1443h-320l-393 792h-8zM1547 434q0 40 3 71h404v-21q0 -69 36 -109t101 -40q125 0 160 160l202 948h424l-212 -996q-49 -231 -196 -351.5t-381 -120.5q-247 0 -394 125t-147 334z" />
    <glyph glyph-name="uni01CB" unicode="&#x1cb;" horiz-adv-x="2069" 
d="M423 0h-405l307 1443h320l393 -792h8l167 792h405l-307 -1443h-320l-393 792h-8zM1989 1169q-86 0 -144 55t-58 137t58 137t144 55t144 -55t58 -137t-58 -137t-144 -55zM2132 1104l-250 -1173q-33 -155 -157.5 -245t-303.5 -90q-97 0 -174 17l61 277q28 -7 71 -7
q48 0 78 23t38 64l241 1134h396z" />
    <glyph glyph-name="uni01CC" unicode="&#x1cc;" horiz-adv-x="1846" 
d="M-8 0l235 1104h383l-36 -167h8q58 93 155.5 144t209.5 51q150 0 241 -85.5t91 -226.5q0 -62 -15 -135l-144 -685h-393l131 624q7 38 7 68q0 58 -41.5 95t-105.5 37q-70 0 -124 -48.5t-70 -127.5l-138 -648h-394zM1766 1169q-86 0 -144 55t-58 137t58 137t144 55t144 -55
t58 -137t-58 -137t-144 -55zM1909 1104l-250 -1173q-33 -155 -157.5 -245t-303.5 -90q-97 0 -174 17l61 277q28 -7 71 -7q48 0 78 23t38 64l241 1134h396z" />
    <glyph glyph-name="Acaron" unicode="&#x1cd;" horiz-adv-x="1494" 
d="M902 1089l-247 -503h278l-22 503h-9zM959 0l-13 287h-438l-141 -287h-447l794 1443h532l148 -1443h-435zM843 1536l-183 336h276l91 -192h8l173 192h276l-327 -336h-314z" />
    <glyph glyph-name="acaron" unicode="&#x1ce;" horiz-adv-x="1182" 
d="M530 252q65 0 117 37.5t64 93.5l15 71l-171 -4q-68 -2 -109 -31.5t-41 -76.5q0 -40 34.5 -65t90.5 -25zM345 -16q-138 0 -229.5 85t-91.5 214q0 172 135.5 273.5t371.5 106.5l241 5l13 64q4 23 4 31q0 38 -37 61.5t-97 23.5q-56 0 -95 -22.5t-54 -65.5h-357
q33 172 177 272t357 100q220 0 356 -93t136 -244q0 -49 -9 -89l-150 -706h-385l28 130h-8q-41 -67 -122.5 -106.5t-183.5 -39.5zM886 1256h-314l-184 336h272l86 -180h8l162 180h296z" />
    <glyph glyph-name="Icaron" unicode="&#x1cf;" horiz-adv-x="640" 
d="M442 0h-424l307 1443h424zM400 1536l-183 336h276l91 -192h8l173 192h276l-327 -336h-314z" />
    <glyph glyph-name="icaron" unicode="&#x1d0;" horiz-adv-x="561" 
d="M-8 0l235 1104h397l-235 -1104h-397zM632 1256h-314l-184 336h272l86 -180h8l162 180h296z" />
    <glyph glyph-name="Ocaron" unicode="&#x1d1;" horiz-adv-x="1586" 
d="M915 1130q-96 0 -178.5 -69t-131.5 -188t-49 -258q0 -137 65.5 -219.5t175.5 -82.5q146 0 253 151.5t107 364.5q0 138 -66 219.5t-176 81.5zM784 -25q-151 0 -276 46.5t-208 129t-128.5 195t-45.5 243.5q0 194 62.5 359.5t170.5 279t254.5 177t311.5 63.5q155 0 281 -47
t209 -129.5t127.5 -194.5t44.5 -243q0 -195 -63.5 -361t-172 -278.5t-255.5 -176t-312 -63.5zM800 1536l-183 336h276l91 -192h8l173 192h276l-327 -336h-314z" />
    <glyph glyph-name="ocaron" unicode="&#x1d2;" horiz-adv-x="1299" 
d="M632 275q100 0 168.5 100.5t68.5 247.5q0 93 -41 149.5t-108 56.5q-103 0 -170.5 -99t-67.5 -249q0 -92 41.5 -149t108.5 -57zM740 1132q239 0 386.5 -138.5t147.5 -362.5q0 -190 -84 -340.5t-234.5 -234.5t-341.5 -84q-239 0 -386.5 138.5t-147.5 362.5q0 190 84 340.5
t234.5 234.5t341.5 84zM938 1256h-314l-184 336h272l86 -180h8l162 180h296z" />
    <glyph glyph-name="Ucaron" unicode="&#x1d3;" horiz-adv-x="1501" 
d="M745 -25q-283 0 -449 134.5t-166 353.5q0 62 13 123l182 857h424l-181 -853q-9 -42 -9 -77q0 -84 58.5 -132.5t145.5 -48.5q186 0 232 214l189 897h424l-209 -991q-47 -222 -225 -349.5t-429 -127.5zM820 1536l-183 336h276l91 -192h8l173 192h276l-327 -336h-314z" />
    <glyph glyph-name="ucaron" unicode="&#x1d4;" horiz-adv-x="1287" 
d="M1350 1104l-235 -1104h-385l38 180h-8q-50 -98 -142 -153t-207 -55q-158 0 -252 88t-94 237q0 75 14 139l142 668h396l-129 -603q-5 -32 -5 -59q0 -70 38.5 -109t109.5 -39t120 47.5t67 132.5l134 630h398zM991 1256h-314l-184 336h272l86 -180h8l162 180h296z" />
    <glyph glyph-name="Udieresismacron" unicode="&#x1d5;" horiz-adv-x="1501" 
d="M745 -25q-283 0 -449 134.5t-166 353.5q0 62 13 123l182 857h424l-181 -853q-9 -42 -9 -77q0 -84 58.5 -132.5t145.5 -48.5q186 0 232 214l189 897h424l-209 -991q-47 -222 -225 -349.5t-429 -127.5zM787 1836q68 0 113 -43.5t45 -106.5q0 -62 -45 -106t-113 -44t-113 44
t-45 106q0 63 45 106.5t113 43.5zM1476 2120l-38 -180h-748l38 180h748zM1231 1836q68 0 113 -43.5t45 -106.5q0 -62 -45 -106t-113 -44t-113 44t-45 106q0 63 45 106.5t113 43.5z" />
    <glyph glyph-name="udieresismacron" unicode="&#x1d6;" horiz-adv-x="1287" 
d="M1350 1104l-235 -1104h-385l38 180h-8q-50 -98 -142 -153t-207 -55q-158 0 -252 88t-94 237q0 75 14 139l142 668h396l-129 -603q-5 -32 -5 -59q0 -70 38.5 -109t109.5 -39t120 47.5t67 132.5l134 630h398zM634 1235q-64 0 -106.5 41t-42.5 100t42.5 100t106.5 41
t106.5 -41t42.5 -100t-42.5 -100t-106.5 -41zM1052 1235q-64 0 -106.5 41t-42.5 100t42.5 100t106.5 41t106.5 -41t42.5 -100t-42.5 -100t-106.5 -41zM1312 1820l-38 -180h-704l38 180h704z" />
    <glyph glyph-name="Udieresisacute" unicode="&#x1d7;" horiz-adv-x="1501" 
d="M745 -25q-283 0 -449 134.5t-166 353.5q0 62 13 123l182 857h424l-181 -853q-9 -42 -9 -77q0 -84 58.5 -132.5t145.5 -48.5q186 0 232 214l189 897h424l-209 -991q-47 -222 -225 -349.5t-429 -127.5zM897 1925l262 281h338l-298 -281h-302zM803 1559q-64 0 -106.5 41
t-42.5 100t42.5 100t106.5 41t106.5 -41t42.5 -100t-42.5 -100t-106.5 -41zM1221 1559q-64 0 -106.5 41t-42.5 100t42.5 100t106.5 41t106.5 -41t42.5 -100t-42.5 -100t-106.5 -41z" />
    <glyph glyph-name="udieresisacute" unicode="&#x1d8;" horiz-adv-x="1287" 
d="M1350 1104l-235 -1104h-385l38 180h-8q-50 -98 -142 -153t-207 -55q-158 0 -252 88t-94 237q0 75 14 139l142 668h396l-129 -603q-5 -32 -5 -59q0 -70 38.5 -109t109.5 -39t120 47.5t67 132.5l134 630h398zM744 1631l262 281h322l-298 -281h-286zM650 1235
q-64 0 -106.5 41t-42.5 100t42.5 100t106.5 41t106.5 -41t42.5 -100t-42.5 -100t-106.5 -41zM1068 1235q-64 0 -106.5 41t-42.5 100t42.5 100t106.5 41t106.5 -41t42.5 -100t-42.5 -100t-106.5 -41z" />
    <glyph glyph-name="Udieresiscaron" unicode="&#x1d9;" horiz-adv-x="1501" 
d="M745 -25q-283 0 -449 134.5t-166 353.5q0 62 13 123l182 857h424l-181 -853q-9 -42 -9 -77q0 -84 58.5 -132.5t145.5 -48.5q186 0 232 214l189 897h424l-209 -991q-47 -222 -225 -349.5t-429 -127.5zM927 1926l-182 305h255l78 -153h22l144 153h279l-312 -305h-284z
M787 1836q68 0 113 -43.5t45 -106.5q0 -62 -45 -106t-113 -44t-113 44t-45 106q0 63 45 106.5t113 43.5zM1231 1836q68 0 113 -43.5t45 -106.5q0 -62 -45 -106t-113 -44t-113 44t-45 106q0 63 45 106.5t113 43.5z" />
    <glyph glyph-name="udieresiscaron" unicode="&#x1da;" horiz-adv-x="1287" 
d="M1350 1104l-235 -1104h-385l38 180h-8q-50 -98 -142 -153t-207 -55q-158 0 -252 88t-94 237q0 75 14 139l142 668h396l-129 -603q-5 -32 -5 -59q0 -70 38.5 -109t109.5 -39t120 47.5t67 132.5l134 630h398zM634 1235q-64 0 -106.5 41t-42.5 100t42.5 100t106.5 41
t106.5 -41t42.5 -100t-42.5 -100t-106.5 -41zM1052 1235q-64 0 -106.5 41t-42.5 100t42.5 100t106.5 41t106.5 -41t42.5 -100t-42.5 -100t-106.5 -41zM743 1594l-183 336h272l85 -180h8l163 180h296l-327 -336h-314z" />
    <glyph glyph-name="Udieresisgrave" unicode="&#x1db;" horiz-adv-x="1501" 
d="M745 -25q-283 0 -449 134.5t-166 353.5q0 62 13 123l182 857h424l-181 -853q-9 -42 -9 -77q0 -84 58.5 -132.5t145.5 -48.5q186 0 232 214l189 897h424l-209 -991q-47 -222 -225 -349.5t-429 -127.5zM1208 1925h-270l-178 281h306zM803 1559q-64 0 -106.5 41t-42.5 100
t42.5 100t106.5 41t106.5 -41t42.5 -100t-42.5 -100t-106.5 -41zM1221 1559q-64 0 -106.5 41t-42.5 100t42.5 100t106.5 41t106.5 -41t42.5 -100t-42.5 -100t-106.5 -41z" />
    <glyph glyph-name="udieresisgrave" unicode="&#x1dc;" horiz-adv-x="1287" 
d="M1350 1104l-235 -1104h-385l38 180h-8q-50 -98 -142 -153t-207 -55q-158 0 -252 88t-94 237q0 75 14 139l142 668h396l-129 -603q-5 -32 -5 -59q0 -70 38.5 -109t109.5 -39t120 47.5t67 132.5l134 630h398zM1042 1625h-261l-172 287h322zM650 1235q-64 0 -106.5 41
t-42.5 100t42.5 100t106.5 41t106.5 -41t42.5 -100t-42.5 -100t-106.5 -41zM1068 1235q-64 0 -106.5 41t-42.5 100t42.5 100t106.5 41t106.5 -41t42.5 -100t-42.5 -100t-106.5 -41z" />
    <glyph glyph-name="uni04D9" unicode="&#x1dd;" horiz-adv-x="1244" 
d="M500 745h-368q43 176 193 281.5t368 105.5q239 0 380.5 -134.5t141.5 -370.5q0 -188 -77.5 -336.5t-220.5 -233t-328 -84.5q-223 0 -362.5 130.5t-139.5 345.5q0 110 20 190h752q3 17 3 32q0 79 -51 130.5t-138 51.5q-65 0 -112 -30t-61 -78zM607 247q77 0 136.5 48.5
t79.5 127.5h-374q-3 -7 -3 -32q0 -63 45 -103.5t116 -40.5z" />
    <glyph glyph-name="uni04D9" unicode="&#x4d9;" horiz-adv-x="1244" 
d="M500 745h-368q43 176 193 281.5t368 105.5q239 0 380.5 -134.5t141.5 -370.5q0 -188 -77.5 -336.5t-220.5 -233t-328 -84.5q-223 0 -362.5 130.5t-139.5 345.5q0 110 20 190h752q3 17 3 32q0 79 -51 130.5t-138 51.5q-65 0 -112 -30t-61 -78zM607 247q77 0 136.5 48.5
t79.5 127.5h-374q-3 -7 -3 -32q0 -63 45 -103.5t116 -40.5z" />
    <glyph glyph-name="uni04D9" unicode="&#x259;" horiz-adv-x="1244" 
d="M500 745h-368q43 176 193 281.5t368 105.5q239 0 380.5 -134.5t141.5 -370.5q0 -188 -77.5 -336.5t-220.5 -233t-328 -84.5q-223 0 -362.5 130.5t-139.5 345.5q0 110 20 190h752q3 17 3 32q0 79 -51 130.5t-138 51.5q-65 0 -112 -30t-61 -78zM607 247q77 0 136.5 48.5
t79.5 127.5h-374q-3 -7 -3 -32q0 -63 45 -103.5t116 -40.5z" />
    <glyph glyph-name="Adieresismacron" unicode="&#x1de;" horiz-adv-x="1494" 
d="M902 1089l-247 -503h278l-22 503h-9zM959 0l-13 287h-438l-141 -287h-447l794 1443h532l148 -1443h-435zM810 1836q68 0 113 -43.5t45 -106.5q0 -62 -45 -106t-113 -44t-113 44t-45 106q0 63 45 106.5t113 43.5zM1499 2120l-38 -180h-748l38 180h748zM1254 1836
q68 0 113 -43.5t45 -106.5q0 -62 -45 -106t-113 -44t-113 44t-45 106q0 63 45 106.5t113 43.5z" />
    <glyph glyph-name="adieresismacron" unicode="&#x1df;" horiz-adv-x="1182" 
d="M530 252q65 0 117 37.5t64 93.5l15 71l-171 -4q-68 -2 -109 -31.5t-41 -76.5q0 -40 34.5 -65t90.5 -25zM345 -16q-138 0 -229.5 85t-91.5 214q0 172 135.5 273.5t371.5 106.5l241 5l13 64q4 23 4 31q0 38 -37 61.5t-97 23.5q-56 0 -95 -22.5t-54 -65.5h-357
q33 172 177 272t357 100q220 0 356 -93t136 -244q0 -49 -9 -89l-150 -706h-385l28 130h-8q-41 -67 -122.5 -106.5t-183.5 -39.5zM529 1235q-64 0 -106.5 41t-42.5 100t42.5 100t106.5 41t106.5 -41t42.5 -100t-42.5 -100t-106.5 -41zM947 1235q-64 0 -106.5 41t-42.5 100
t42.5 100t106.5 41t106.5 -41t42.5 -100t-42.5 -100t-106.5 -41zM1207 1820l-38 -180h-704l38 180h704z" />
    <glyph glyph-name="Adotmacron" unicode="&#x1e0;" horiz-adv-x="1494" 
d="M902 1089l-247 -503h278l-22 503h-9zM959 0l-13 287h-438l-141 -287h-447l794 1443h532l148 -1443h-435zM1032 1536q-68 0 -113 44t-45 106t45 106t113 44t113 -44t45 -106t-45 -106t-113 -44zM1499 2120l-38 -180h-748l38 180h748z" />
    <glyph glyph-name="adotmacron" unicode="&#x1e1;" horiz-adv-x="1182" 
d="M530 252q65 0 117 37.5t64 93.5l15 71l-171 -4q-68 -2 -109 -31.5t-41 -76.5q0 -40 34.5 -65t90.5 -25zM345 -16q-138 0 -229.5 85t-91.5 214q0 172 135.5 273.5t371.5 106.5l241 5l13 64q4 23 4 31q0 38 -37 61.5t-97 23.5q-56 0 -95 -22.5t-54 -65.5h-357
q33 172 177 272t357 100q220 0 356 -93t136 -244q0 -49 -9 -89l-150 -706h-385l28 130h-8q-41 -67 -122.5 -106.5t-183.5 -39.5zM743 1222q-75 0 -126 50.5t-51 122.5t51 122.5t126 50.5t126 -50.5t51 -122.5t-51 -122.5t-126 -50.5zM1207 1820l-38 -180h-704l38 180h704z
" />
    <glyph glyph-name="AEmacron" unicode="&#x1e2;" horiz-adv-x="2086" 
d="M1119 1129h-112l-303 -543h300zM879 0l61 286h-403l-160 -286h-426l847 1443h1407l-72 -336h-643l-49 -234h606l-65 -304h-606l-50 -233h643l-71 -336h-1019zM1950 1786l-38 -180h-748l38 180h748z" />
    <glyph glyph-name="aemacron" unicode="&#x1e3;" horiz-adv-x="1881" 
d="M1250 -28q-112 0 -222 51t-150 123h-19q-59 -78 -171 -126t-235 -48q-187 0 -306 87t-119 224q0 177 131.5 276t373.5 104l241 5l13 64q3 13 3 31q0 37 -36.5 61t-94.5 24q-120 0 -152 -88h-358q35 169 174.5 270.5t337.5 101.5q100 0 197.5 -37.5t144.5 -94.5h20
q64 63 153 98t184 35q215 0 356.5 -135t141.5 -341q0 -98 -19 -191h-751v-12q0 -96 52.5 -152t141.5 -56q64 0 106.5 29.5t57.5 84.5h367q-45 -179 -196.5 -283.5t-366.5 -104.5zM1127 682h374q4 10 4 32q0 63 -45.5 103.5t-115.5 40.5q-78 0 -137.5 -48.5t-79.5 -127.5z
M534 245q66 0 118 37t65 93l15 72l-173 -5q-68 -2 -109 -31t-41 -77q0 -40 34.5 -64.5t90.5 -24.5zM1499 1456l-38 -180h-704l38 180h704z" />
    <glyph glyph-name="Gcaron" unicode="&#x1e6;" horiz-adv-x="1539" 
d="M1544 790l-26 -154q-54 -321 -247 -491t-500 -170q-290 0 -467.5 170t-177.5 451q0 188 60.5 350t167 277t259 180t329.5 65q135 0 253.5 -40t199 -106.5t127 -154t46.5 -181.5q0 -16 -2 -32h-406q-6 78 -69.5 129t-160.5 51q-107 0 -192.5 -67.5t-133 -186.5t-47.5 -266
q0 -143 68.5 -224t195.5 -81q96 0 169 56.5t95 142.5h-233l60 282h632zM795 1536l-183 336h276l91 -192h8l173 192h276l-327 -336h-314z" />
    <glyph glyph-name="gcaron" unicode="&#x1e7;" horiz-adv-x="1309" 
d="M514 -417q-257 0 -401 95.5t-146 266.5h383q9 -50 58 -78t128 -28q171 0 201 144l41 189h-20q-48 -71 -130 -109t-188 -38q-164 0 -265 110t-101 289q0 188 73.5 348.5t199.5 254t274 93.5q113 0 195 -54t110 -146h18l42 184h386l-243 -1143q-38 -179 -200 -278.5
t-415 -99.5zM632 286q95 0 166 101t71 237q0 84 -42 134.5t-112 50.5q-98 0 -167.5 -99t-69.5 -239q0 -83 42 -134t112 -51zM990 1258h-314l-184 336h272l86 -180h8l162 180h296z" />
    <glyph glyph-name="Kcaron" unicode="&#x1e8;" horiz-adv-x="1457" 
d="M442 0h-424l307 1443h424l-126 -590h8l561 590h480l-644 -675l322 -768h-464l-212 530l-154 -162zM813 1536l-183 336h276l91 -192h8l173 192h276l-327 -336h-314z" />
    <glyph glyph-name="kcaron" unicode="&#x1e9;" horiz-adv-x="1243" 
d="M396 0h-396l308 1443h395l-154 -725h8l353 386h452l-490 -486l291 -618h-428l-181 404l-92 -92zM369 1536l-183 336h276l91 -192h8l173 192h276l-327 -336h-314z" />
    <glyph glyph-name="Oogonek" unicode="&#x1ea;" horiz-adv-x="1586" 
d="M1067 -468q-66 -26 -177 -26q-114 0 -187 56.5t-73 151.5q0 70 50.5 139t132.5 116v8q-14 -2 -29 -2q-151 0 -276 46.5t-208 129t-128.5 195t-45.5 243.5q0 194 62.5 359.5t170.5 279t254.5 177t311.5 63.5q155 0 281 -47t209 -129.5t127.5 -194.5t44.5 -243
q0 -256 -112.5 -453.5t-294.5 -325.5q-55 -38 -82.5 -58.5t-66.5 -53.5t-57.5 -56.5t-32.5 -54.5t-14 -62q0 -35 27.5 -54.5t79.5 -19.5q49 0 74 9zM1157 829q0 138 -66 219.5t-176 81.5q-96 0 -178.5 -69t-131.5 -188t-49 -258q0 -137 65.5 -219.5t175.5 -82.5
q146 0 253 151.5t107 364.5z" />
    <glyph glyph-name="oogonek" unicode="&#x1eb;" horiz-adv-x="1294" 
d="M857 -461q-59 -26 -177 -26t-187.5 56.5t-69.5 144.5q0 82 60 150.5t141 102.5v5h-11q-243 0 -388.5 137t-145.5 365q0 183 86.5 334t238 237.5t335.5 86.5q242 0 386 -137.5t144 -368.5q0 -175 -80 -319.5t-219 -235.5q-133 -87 -192 -146t-59 -119q0 -33 31.5 -58.5
t73.5 -25.5q46 0 73 9zM489 474q0 -97 35.5 -150t100.5 -53q95 0 164 106.5t69 252.5q0 98 -35 152t-98 54q-95 0 -165.5 -108t-70.5 -254z" />
    <glyph glyph-name="Oogonekmacron" unicode="&#x1ec;" horiz-adv-x="1586" 
d="M1067 -468q-66 -26 -177 -26q-114 0 -187 56.5t-73 151.5q0 70 50.5 139t132.5 116v8q-14 -2 -29 -2q-151 0 -276 46.5t-208 129t-128.5 195t-45.5 243.5q0 194 62.5 359.5t170.5 279t254.5 177t311.5 63.5q155 0 281 -47t209 -129.5t127.5 -194.5t44.5 -243
q0 -256 -112.5 -453.5t-294.5 -325.5q-55 -38 -82.5 -58.5t-66.5 -53.5t-57.5 -56.5t-32.5 -54.5t-14 -62q0 -35 27.5 -54.5t79.5 -19.5q49 0 74 9zM1157 829q0 138 -66 219.5t-176 81.5q-96 0 -178.5 -69t-131.5 -188t-49 -258q0 -137 65.5 -219.5t175.5 -82.5
q146 0 253 151.5t107 364.5zM1385 1786l-38 -180h-748l38 180h748z" />
    <glyph glyph-name="oogonekmacron" unicode="&#x1ed;" horiz-adv-x="1294" 
d="M857 -461q-59 -26 -177 -26t-187.5 56.5t-69.5 144.5q0 82 60 150.5t141 102.5v5h-11q-243 0 -388.5 137t-145.5 365q0 183 86.5 334t238 237.5t335.5 86.5q242 0 386 -137.5t144 -368.5q0 -175 -80 -319.5t-219 -235.5q-133 -87 -192 -146t-59 -119q0 -33 31.5 -58.5
t73.5 -25.5q46 0 73 9zM489 474q0 -97 35.5 -150t100.5 -53q95 0 164 106.5t69 252.5q0 98 -35 152t-98 54q-95 0 -165.5 -108t-70.5 -254zM1224 1456l-38 -180h-704l38 180h704z" />
    <glyph glyph-name="uni01F1" unicode="&#x1f1;" horiz-adv-x="2773" 
d="M325 1443h600q256 0 414.5 -147.5t158.5 -403.5q0 -258 -94 -460.5t-268 -317t-399 -114.5h-719zM681 1108l-163 -772h158q172 0 279 135t107 367q0 122 -63.5 196t-174.5 74h-143zM1474 0l57 266l772 833v8h-589l72 336h1108l-57 -265l-773 -834v-8h618l-71 -336h-1137z
" />
    <glyph glyph-name="uni01F2" unicode="&#x1f2;" horiz-adv-x="2598" 
d="M325 1443h600q256 0 414.5 -147.5t158.5 -403.5q0 -258 -94 -460.5t-268 -317t-399 -114.5h-719zM681 1108l-163 -772h158q172 0 279 135t107 367q0 122 -63.5 196t-174.5 74h-143zM1460 0l44 208l596 584l2 8h-456l65 304h957l-52 -243l-549 -549l-1 -8h454l-65 -304
h-995z" />
    <glyph glyph-name="uni01F3" unicode="&#x1f3;" horiz-adv-x="2429" 
d="M439 -16q-170 0 -268.5 112.5t-98.5 306.5q0 203 71.5 367t198 257t282.5 93q120 0 201.5 -50.5t109.5 -142.5h8l110 516h397l-308 -1443h-386l33 155h-8q-120 -171 -342 -171zM636 285q95 0 166 101.5t71 237.5q0 83 -42 134t-111 51q-99 0 -168.5 -98.5t-69.5 -239.5
q0 -83 42.5 -134.5t111.5 -51.5zM1291 0l44 208l596 584l2 8h-456l65 304h957l-52 -243l-549 -549l-1 -8h454l-65 -304h-995z" />
    <glyph glyph-name="Gacute" unicode="&#x1f4;" horiz-adv-x="1539" 
d="M1544 790l-26 -154q-54 -321 -247 -491t-500 -170q-290 0 -467.5 170t-177.5 451q0 188 60.5 350t167 277t259 180t329.5 65q135 0 253.5 -40t199 -106.5t127 -154t46.5 -181.5q0 -16 -2 -32h-406q-6 78 -69.5 129t-160.5 51q-107 0 -192.5 -67.5t-133 -186.5t-47.5 -266
q0 -143 68.5 -224t195.5 -81q96 0 169 56.5t95 142.5h-233l60 282h632zM1120 1555h-322l300 321h364z" />
    <glyph glyph-name="gacute" unicode="&#x1f5;" horiz-adv-x="1309" 
d="M514 -417q-257 0 -401 95.5t-146 266.5h383q9 -50 58 -78t128 -28q171 0 201 144l41 189h-20q-48 -71 -130 -109t-188 -38q-164 0 -265 110t-101 289q0 188 73.5 348.5t199.5 254t274 93.5q113 0 195 -54t110 -146h18l42 184h386l-243 -1143q-38 -179 -200 -278.5
t-415 -99.5zM632 286q95 0 166 101t71 237q0 84 -42 134.5t-112 50.5q-98 0 -167.5 -99t-69.5 -239q0 -83 42 -134t112 -51zM1047 1277h-314l300 321h348z" />
    <glyph glyph-name="Ngrave" unicode="&#x1f8;" horiz-adv-x="1509" 
d="M423 0h-405l307 1443h320l393 -792h8l167 792h405l-307 -1443h-320l-393 792h-8zM808 1555l-206 321h332l164 -321h-290z" />
    <glyph glyph-name="ngrave" unicode="&#x1f9;" horiz-adv-x="1286" 
d="M-8 0l235 1104h383l-36 -167h8q58 93 155.5 144t209.5 51q150 0 241 -85.5t91 -226.5q0 -62 -15 -135l-144 -685h-393l131 624q7 38 7 68q0 58 -41.5 95t-105.5 37q-70 0 -124 -48.5t-70 -127.5l-138 -648h-394zM886 1275h-314l-197 321h347z" />
    <glyph glyph-name="Aringacute" unicode="&#x1fa;" horiz-adv-x="1494" 
d="M902 1089l-247 -503h278l-22 503h-9zM959 0l-13 287h-438l-141 -287h-447l794 1443h532l148 -1443h-435zM1040 1518q-93 0 -153.5 58t-60.5 147t60.5 147t153.5 58t153.5 -58t60.5 -147t-60.5 -147t-153.5 -58zM1040 1653q30 0 50 20t20 50t-20 50t-50 20t-50 -20
t-20 -50t20 -50t50 -20zM1109 2201h323l-204 -202h-276z" />
    <glyph glyph-name="aringacute" unicode="&#x1fb;" horiz-adv-x="1182" 
d="M530 252q65 0 117 37.5t64 93.5l15 71l-171 -4q-68 -2 -109 -31.5t-41 -76.5q0 -40 34.5 -65t90.5 -25zM345 -16q-138 0 -229.5 85t-91.5 214q0 172 135.5 273.5t371.5 106.5l241 5l13 64q4 23 4 31q0 38 -37 61.5t-97 23.5q-56 0 -95 -22.5t-54 -65.5h-357
q33 172 177 272t357 100q220 0 356 -93t136 -244q0 -49 -9 -89l-150 -706h-385l28 130h-8q-41 -67 -122.5 -106.5t-183.5 -39.5zM678 1751l193 230h314l-239 -230h-268zM753 1216q-104 0 -170.5 64.5t-66.5 163.5t66.5 163.5t170.5 64.5t170.5 -64.5t66.5 -163.5
t-66.5 -163.5t-170.5 -64.5zM675 1444q0 -34 22 -56t56 -22t56 22t22 56t-22 56t-56 22t-56 -22t-22 -56z" />
    <glyph glyph-name="AEacute" unicode="&#x1fc;" horiz-adv-x="2086" 
d="M1119 1129h-112l-303 -543h300zM879 0l61 286h-403l-160 -286h-426l847 1443h1407l-72 -336h-643l-49 -234h606l-65 -304h-606l-50 -233h643l-71 -336h-1019zM1690 1555h-322l300 321h364z" />
    <glyph glyph-name="aeacute" unicode="&#x1fd;" horiz-adv-x="1881" 
d="M1250 -28q-112 0 -222 51t-150 123h-19q-59 -78 -171 -126t-235 -48q-187 0 -306 87t-119 224q0 177 131.5 276t373.5 104l241 5l13 64q3 13 3 31q0 37 -36.5 61t-94.5 24q-120 0 -152 -88h-358q35 169 174.5 270.5t337.5 101.5q100 0 197.5 -37.5t144.5 -94.5h20
q64 63 153 98t184 35q215 0 356.5 -135t141.5 -341q0 -98 -19 -191h-751v-12q0 -96 52.5 -152t141.5 -56q64 0 106.5 29.5t57.5 84.5h367q-45 -179 -196.5 -283.5t-366.5 -104.5zM1127 682h374q4 10 4 32q0 63 -45.5 103.5t-115.5 40.5q-78 0 -137.5 -48.5t-79.5 -127.5z
M534 245q66 0 118 37t65 93l15 72l-173 -5q-68 -2 -109 -31t-41 -77q0 -40 34.5 -64.5t90.5 -24.5zM1313 1275h-314l300 321h348z" />
    <glyph glyph-name="Oslashacute" unicode="&#x1fe;" horiz-adv-x="1586" 
d="M1467 1876l-342 -321h-322l300 321h364zM1156 855l-497 -497q59 -45 138 -45q146 0 253 151.5t107 364.5q0 18 -1 26zM557 588l497 497q-59 45 -139 45q-96 0 -178.5 -69t-131.5 -188t-49 -258q0 -18 1 -27zM1636 1335l-142 -142q93 -146 93 -339q0 -195 -63.5 -361
t-172 -278.5t-255.5 -176t-312 -63.5q-233 0 -399 109l-142 -142l-167 166l143 143q-93 146 -93 338q0 194 62.5 359.5t170.5 279t254.5 177t311.5 63.5q240 0 404 -108l141 141z" />
    <glyph glyph-name="oslashacute" unicode="&#x1ff;" horiz-adv-x="1299" 
d="M1329 1596l-334 -321h-314l300 321h348zM885 627l-345 -345q37 -31 88 -31q109 0 182.5 108t74.5 268zM466 474l347 347q-37 32 -89 32q-112 0 -185 -107.5t-73 -271.5zM1152 1160l133 -133l-100 -100q89 -126 89 -296q0 -190 -84 -340.5t-234.5 -234.5t-341.5 -84
q-175 0 -306 78l-106 -106l-133 133l100 100q-89 126 -89 296q0 190 84 340.5t234.5 234.5t341.5 84q175 0 306 -78z" />
    <glyph glyph-name="Adblgrave" unicode="&#x200;" horiz-adv-x="1494" 
d="M902 1089l-247 -503h278l-22 503h-9zM959 0l-13 287h-438l-141 -287h-447l794 1443h532l148 -1443h-435zM612 1555l-206 321h332l164 -321h-290zM1082 1555l-206 321h332l164 -321h-290z" />
    <glyph glyph-name="adblgrave" unicode="&#x201;" horiz-adv-x="1182" 
d="M530 252q65 0 117 37.5t64 93.5l15 71l-171 -4q-68 -2 -109 -31.5t-41 -76.5q0 -40 34.5 -65t90.5 -25zM345 -16q-138 0 -229.5 85t-91.5 214q0 172 135.5 273.5t371.5 106.5l241 5l13 64q4 23 4 31q0 38 -37 61.5t-97 23.5q-56 0 -95 -22.5t-54 -65.5h-357
q33 172 177 272t357 100q220 0 356 -93t136 -244q0 -49 -9 -89l-150 -706h-385l28 130h-8q-41 -67 -122.5 -106.5t-183.5 -39.5zM708 1276h-280l-211 320h309zM1133 1276h-280l-211 320h308z" />
    <glyph glyph-name="Ainvertedbreve" unicode="&#x202;" horiz-adv-x="1494" 
d="M902 1089l-247 -503h278l-22 503h-9zM959 0l-13 287h-438l-141 -287h-447l794 1443h532l148 -1443h-435zM1393 1536h-230q3 16 3 31q0 54 -34 85.5t-98 31.5q-73 0 -122.5 -40.5t-66.5 -107.5h-242q37 144 160.5 239t304.5 95q160 0 245.5 -77t85.5 -195q0 -30 -6 -62z
" />
    <glyph glyph-name="ainvertedbreve" unicode="&#x203;" horiz-adv-x="1182" 
d="M530 252q65 0 117 37.5t64 93.5l15 71l-171 -4q-68 -2 -109 -31.5t-41 -76.5q0 -40 34.5 -65t90.5 -25zM345 -16q-138 0 -229.5 85t-91.5 214q0 172 135.5 273.5t371.5 106.5l241 5l13 64q4 23 4 31q0 38 -37 61.5t-97 23.5q-56 0 -95 -22.5t-54 -65.5h-357
q33 172 177 272t357 100q220 0 356 -93t136 -244q0 -49 -9 -89l-150 -706h-385l28 130h-8q-41 -67 -122.5 -106.5t-183.5 -39.5zM1101 1236h-232q3 16 3 31q0 56 -34.5 86.5t-96.5 30.5q-71 0 -122 -39.5t-68 -108.5h-240q36 153 159.5 243.5t304.5 90.5q145 0 238 -78.5
t93 -200.5q0 -18 -5 -55z" />
    <glyph glyph-name="Edblgrave" unicode="&#x204;" horiz-adv-x="1208" 
d="M1107 336l-71 -336h-1018l307 1443h1017l-72 -336h-593l-49 -234h556l-65 -304h-556l-50 -233h594zM439 1555l-206 321h332l164 -321h-290zM909 1555l-206 321h332l164 -321h-290z" />
    <glyph glyph-name="edblgrave" unicode="&#x205;" horiz-adv-x="1234" 
d="M474 682h374q3 7 3 32q0 63 -45 103.5t-116 40.5q-77 0 -136.5 -48.5t-79.5 -127.5zM604 -27q-239 0 -380.5 134.5t-141.5 370.5q0 188 77.5 336.5t220.5 233t328 84.5q223 0 362.5 -130.5t139.5 -345.5q0 -110 -20 -190h-752q-3 -16 -3 -32q0 -79 51 -130.5t138 -51.5
q65 0 112 30t61 78h368q-43 -176 -193 -281.5t-368 -105.5zM728 1276h-280l-211 320h309zM1153 1276h-280l-211 320h308z" />
    <glyph glyph-name="Einvertedbreve" unicode="&#x206;" horiz-adv-x="1208" 
d="M1107 336l-71 -336h-1018l307 1443h1017l-72 -336h-593l-49 -234h556l-65 -304h-556l-50 -233h594zM1220 1536h-230q3 16 3 31q0 54 -34 85.5t-98 31.5q-73 0 -122.5 -40.5t-66.5 -107.5h-242q37 144 160.5 239t304.5 95q160 0 245.5 -77t85.5 -195q0 -30 -6 -62z" />
    <glyph glyph-name="einvertedbreve" unicode="&#x207;" horiz-adv-x="1234" 
d="M474 682h374q3 7 3 32q0 63 -45 103.5t-116 40.5q-77 0 -136.5 -48.5t-79.5 -127.5zM604 -27q-239 0 -380.5 134.5t-141.5 370.5q0 188 77.5 336.5t220.5 233t328 84.5q223 0 362.5 -130.5t139.5 -345.5q0 -110 -20 -190h-752q-3 -16 -3 -32q0 -79 51 -130.5t138 -51.5
q65 0 112 30t61 78h368q-43 -176 -193 -281.5t-368 -105.5zM1121 1236h-232q3 16 3 31q0 56 -34.5 86.5t-96.5 30.5q-71 0 -122 -39.5t-68 -108.5h-240q36 153 159.5 243.5t304.5 90.5q145 0 238 -78.5t93 -200.5q0 -18 -5 -55z" />
    <glyph glyph-name="Idblgrave" unicode="&#x208;" horiz-adv-x="640" 
d="M442 0h-424l307 1443h424zM169 1555l-206 321h332l164 -321h-290zM639 1555l-206 321h332l164 -321h-290z" />
    <glyph glyph-name="idblgrave" unicode="&#x209;" horiz-adv-x="561" 
d="M-8 0l235 1104h397l-235 -1104h-397zM454 1276h-280l-211 320h309zM879 1276h-280l-211 320h308z" />
    <glyph glyph-name="Iinvertedbreve" unicode="&#x20a;" horiz-adv-x="640" 
d="M442 0h-424l307 1443h424zM950 1536h-230q3 16 3 31q0 54 -34 85.5t-98 31.5q-73 0 -122.5 -40.5t-66.5 -107.5h-242q37 144 160.5 239t304.5 95q160 0 245.5 -77t85.5 -195q0 -30 -6 -62z" />
    <glyph glyph-name="iinvertedbreve" unicode="&#x20b;" horiz-adv-x="561" 
d="M-8 0l235 1104h397l-235 -1104h-397zM847 1236h-232q3 16 3 31q0 56 -34.5 86.5t-96.5 30.5q-71 0 -122 -39.5t-68 -108.5h-240q36 153 159.5 243.5t304.5 90.5q145 0 238 -78.5t93 -200.5q0 -18 -5 -55z" />
    <glyph glyph-name="Odblgrave" unicode="&#x20c;" horiz-adv-x="1586" 
d="M915 1130q-96 0 -178.5 -69t-131.5 -188t-49 -258q0 -137 65.5 -219.5t175.5 -82.5q146 0 253 151.5t107 364.5q0 138 -66 219.5t-176 81.5zM784 -25q-151 0 -276 46.5t-208 129t-128.5 195t-45.5 243.5q0 194 62.5 359.5t170.5 279t254.5 177t311.5 63.5q155 0 281 -47
t209 -129.5t127.5 -194.5t44.5 -243q0 -195 -63.5 -361t-172 -278.5t-255.5 -176t-312 -63.5zM569 1555l-206 321h332l164 -321h-290zM1039 1555l-206 321h332l164 -321h-290z" />
    <glyph glyph-name="odblgrave" unicode="&#x20d;" horiz-adv-x="1299" 
d="M632 275q100 0 168.5 100.5t68.5 247.5q0 93 -41 149.5t-108 56.5q-103 0 -170.5 -99t-67.5 -249q0 -92 41.5 -149t108.5 -57zM740 1132q239 0 386.5 -138.5t147.5 -362.5q0 -190 -84 -340.5t-234.5 -234.5t-341.5 -84q-239 0 -386.5 138.5t-147.5 362.5q0 190 84 340.5
t234.5 234.5t341.5 84zM760 1276h-280l-211 320h309zM1185 1276h-280l-211 320h308z" />
    <glyph glyph-name="Oinvertedbreve" unicode="&#x20e;" horiz-adv-x="1586" 
d="M915 1130q-96 0 -178.5 -69t-131.5 -188t-49 -258q0 -137 65.5 -219.5t175.5 -82.5q146 0 253 151.5t107 364.5q0 138 -66 219.5t-176 81.5zM784 -25q-151 0 -276 46.5t-208 129t-128.5 195t-45.5 243.5q0 194 62.5 359.5t170.5 279t254.5 177t311.5 63.5q155 0 281 -47
t209 -129.5t127.5 -194.5t44.5 -243q0 -195 -63.5 -361t-172 -278.5t-255.5 -176t-312 -63.5zM1350 1536h-230q3 16 3 31q0 54 -34 85.5t-98 31.5q-73 0 -122.5 -40.5t-66.5 -107.5h-242q37 144 160.5 239t304.5 95q160 0 245.5 -77t85.5 -195q0 -30 -6 -62z" />
    <glyph glyph-name="oinvertedbreve" unicode="&#x20f;" horiz-adv-x="1299" 
d="M632 275q100 0 168.5 100.5t68.5 247.5q0 93 -41 149.5t-108 56.5q-103 0 -170.5 -99t-67.5 -249q0 -92 41.5 -149t108.5 -57zM740 1132q239 0 386.5 -138.5t147.5 -362.5q0 -190 -84 -340.5t-234.5 -234.5t-341.5 -84q-239 0 -386.5 138.5t-147.5 362.5q0 190 84 340.5
t234.5 234.5t341.5 84zM1153 1236h-232q3 16 3 31q0 56 -34.5 86.5t-96.5 30.5q-71 0 -122 -39.5t-68 -108.5h-240q36 153 159.5 243.5t304.5 90.5q145 0 238 -78.5t93 -200.5q0 -18 -5 -55z" />
    <glyph glyph-name="Rdblgrave" unicode="&#x210;" horiz-adv-x="1394" 
d="M1209 1555h-290l-206 321h332zM739 1555h-290l-206 321h332zM606 774h189q105 0 168 56.5t63 146.5q0 153 -181 153h-162zM325 1443h649q223 0 350 -120.5t127 -310.5q0 -158 -89 -291.5t-250 -196.5l160 -524h-442l-136 484h-149l-103 -484h-424z" />
    <glyph glyph-name="rdblgrave" unicode="&#x211;" horiz-adv-x="894" 
d="M-8 0l237 1104h387l-32 -160h8q39 80 109.5 128t157.5 48q88 0 152 -29l-75 -343q-87 41 -166 41q-100 0 -167.5 -56.5t-91.5 -168.5l-122 -564h-397zM610 1277h-280l-211 320h309zM1035 1277h-280l-211 320h308z" />
    <glyph glyph-name="Rinvertedbreve" unicode="&#x212;" horiz-adv-x="1394" 
d="M1230 1536h-230q3 16 3 31q0 54 -34 85.5t-98 31.5q-73 0 -122.5 -40.5t-66.5 -107.5h-242q37 144 160.5 239t304.5 95q160 0 245.5 -77t85.5 -195q0 -30 -6 -62zM606 774h189q105 0 168 56.5t63 146.5q0 153 -181 153h-162zM325 1443h649q223 0 350 -120.5t127 -310.5
q0 -158 -89 -291.5t-250 -196.5l160 -524h-442l-136 484h-149l-103 -484h-424z" />
    <glyph glyph-name="rinvertedbreve" unicode="&#x213;" horiz-adv-x="894" 
d="M-8 0l237 1104h387l-32 -160h8q39 80 109.5 128t157.5 48q88 0 152 -29l-75 -343q-87 41 -166 41q-100 0 -167.5 -56.5t-91.5 -168.5l-122 -564h-397zM1003 1237h-232q3 16 3 31q0 56 -34.5 86.5t-96.5 30.5q-71 0 -122 -39.5t-68 -108.5h-240q36 153 159.5 243.5
t304.5 90.5q145 0 238 -78.5t93 -200.5q0 -18 -5 -55z" />
    <glyph glyph-name="Udblgrave" unicode="&#x214;" horiz-adv-x="1501" 
d="M745 -25q-283 0 -449 134.5t-166 353.5q0 62 13 123l182 857h424l-181 -853q-9 -42 -9 -77q0 -84 58.5 -132.5t145.5 -48.5q186 0 232 214l189 897h424l-209 -991q-47 -222 -225 -349.5t-429 -127.5zM589 1555l-206 321h332l164 -321h-290zM1059 1555l-206 321h332
l164 -321h-290z" />
    <glyph glyph-name="udblgrave" unicode="&#x215;" horiz-adv-x="1287" 
d="M1350 1104l-235 -1104h-385l38 180h-8q-50 -98 -142 -153t-207 -55q-158 0 -252 88t-94 237q0 75 14 139l142 668h396l-129 -603q-5 -32 -5 -59q0 -70 38.5 -109t109.5 -39t120 47.5t67 132.5l134 630h398zM813 1276h-280l-211 320h309zM1238 1276h-280l-211 320h308z
" />
    <glyph glyph-name="Uinvertedbreve" unicode="&#x216;" horiz-adv-x="1501" 
d="M745 -25q-283 0 -449 134.5t-166 353.5q0 62 13 123l182 857h424l-181 -853q-9 -42 -9 -77q0 -84 58.5 -132.5t145.5 -48.5q186 0 232 214l189 897h424l-209 -991q-47 -222 -225 -349.5t-429 -127.5zM1370 1536h-230q3 16 3 31q0 54 -34 85.5t-98 31.5
q-73 0 -122.5 -40.5t-66.5 -107.5h-242q37 144 160.5 239t304.5 95q160 0 245.5 -77t85.5 -195q0 -30 -6 -62z" />
    <glyph glyph-name="uinvertedbreve" unicode="&#x217;" horiz-adv-x="1287" 
d="M1350 1104l-235 -1104h-385l38 180h-8q-50 -98 -142 -153t-207 -55q-158 0 -252 88t-94 237q0 75 14 139l142 668h396l-129 -603q-5 -32 -5 -59q0 -70 38.5 -109t109.5 -39t120 47.5t67 132.5l134 630h398zM1206 1236h-232q3 16 3 31q0 56 -34.5 86.5t-96.5 30.5
q-71 0 -122 -39.5t-68 -108.5h-240q36 153 159.5 243.5t304.5 90.5q145 0 238 -78.5t93 -200.5q0 -18 -5 -55z" />
    <glyph glyph-name="Scommaaccent" unicode="&#x218;" horiz-adv-x="1384" 
d="M62 425h401q9 -59 73 -97.5t153 -38.5q92 0 146 33.5t54 87.5q0 42 -32.5 69t-130.5 57l-151 46q-369 112 -369 400q0 218 169.5 352t434.5 134q280 0 440 -121t161 -335h-387q-2 65 -58 104t-146 39q-82 0 -132.5 -33t-50.5 -85q0 -45 35.5 -76t120.5 -56l158 -46
q197 -57 284 -147t87 -244q0 -226 -176.5 -359.5t-464.5 -133.5q-292 0 -455 118.5t-164 331.5zM510 -475h-308l220 321h359z" />
    <glyph glyph-name="scommaaccent" unicode="&#x219;" horiz-adv-x="1157" 
d="M159 760q0 170 137.5 271t367.5 101q214 0 352 -103.5t144 -268.5h-354q-3 50 -43.5 81t-104.5 31q-57 0 -90.5 -21t-33.5 -57q0 -30 27.5 -49.5t106.5 -46.5l124 -42q159 -54 225.5 -123.5t66.5 -180.5q0 -173 -142 -276.5t-380 -103.5q-241 0 -385 104t-151 282h374
q3 -56 50 -90.5t122 -34.5q57 0 88.5 19t31.5 54q0 28 -28 48t-102 46l-100 34q-155 53 -229 132.5t-74 193.5zM399 -475h-308l220 321h359z" />
    <glyph glyph-name="Tcommaaccent" unicode="&#x21a;" horiz-adv-x="1306" 
d="M775 0h-424l235 1107h-401l72 336h1226l-72 -336h-401zM395 -475h-308l220 321h359z" />
    <glyph glyph-name="tcommaaccent" unicode="&#x21b;" horiz-adv-x="873" 
d="M558 -16q-186 0 -287 63t-101 185q0 62 12 122l89 427h-165l64 290h164l56 263h396l-56 -263h216l-62 -290h-215l-84 -393q-5 -17 -5 -44q0 -43 30 -61.5t98 -18.5q56 0 72 6l-60 -272q-52 -14 -162 -14zM321 -475h-308l220 321h359z" />
    <glyph glyph-name="Hcaron" unicode="&#x21e;" horiz-adv-x="1572" 
d="M1374 0h-434l120 562h-488l-120 -562h-434l307 1443h434l-118 -551h488l118 551h434zM866 1536l-183 336h276l91 -192h8l173 192h276l-327 -336h-314z" />
    <glyph glyph-name="hcaron" unicode="&#x21f;" horiz-adv-x="1302" 
d="M0 0l307 1443h394l-109 -506h8q62 91 154 140t205 49q151 0 243.5 -84.5t92.5 -221.5q0 -63 -15 -135l-144 -685h-393l131 624q7 36 7 68q0 57 -42.5 94.5t-107.5 37.5q-71 0 -127 -49t-72 -127l-137 -648h-395zM367 1536l-183 336h276l91 -192h8l173 192h276l-327 -336
h-314z" />
    <glyph glyph-name="Adotaccent" unicode="&#x226;" horiz-adv-x="1494" 
d="M902 1089l-247 -503h278l-22 503h-9zM959 0l-13 287h-438l-141 -287h-447l794 1443h532l148 -1443h-435zM1051 1603q-75 0 -126 50.5t-51 122.5t51 122.5t126 50.5t126 -50.5t51 -122.5t-51 -122.5t-126 -50.5z" />
    <glyph glyph-name="adotaccent" unicode="&#x227;" horiz-adv-x="1182" 
d="M530 252q65 0 117 37.5t64 93.5l15 71l-171 -4q-68 -2 -109 -31.5t-41 -76.5q0 -40 34.5 -65t90.5 -25zM345 -16q-138 0 -229.5 85t-91.5 214q0 172 135.5 273.5t371.5 106.5l241 5l13 64q4 23 4 31q0 38 -37 61.5t-97 23.5q-56 0 -95 -22.5t-54 -65.5h-357
q33 172 177 272t357 100q220 0 356 -93t136 -244q0 -49 -9 -89l-150 -706h-385l28 130h-8q-41 -67 -122.5 -106.5t-183.5 -39.5zM751 1264q-75 0 -126 50.5t-51 122.5t51 122.5t126 50.5t126 -50.5t51 -122.5t-51 -122.5t-126 -50.5z" />
    <glyph glyph-name="Ecedilla" unicode="&#x228;" horiz-adv-x="1208" 
d="M1270 1107h-593l-49 -234h556l-65 -304h-556l-50 -233h594l-71 -336h-400l-62 -76q138 -20 138 -149q0 -102 -93 -169t-235 -67q-98 0 -138 15l35 161q43 -12 110 -12q112 0 112 47q0 22 -24.5 30.5t-86.5 8.5h-58l29 125l72 86h-417l307 1443h1017z" />
    <glyph glyph-name="ecedilla" unicode="&#x229;" horiz-adv-x="1234" 
d="M474 682h374q3 7 3 32q0 63 -45 103.5t-116 40.5q-77 0 -136.5 -48.5t-79.5 -127.5zM1190 466h-752q-3 -16 -3 -32q0 -79 51 -130.5t138 -51.5q65 0 112 30t61 78h368q-39 -160 -167.5 -262.5t-317.5 -120.5l-43 -53q138 -20 138 -149q0 -102 -93 -169t-235 -67
q-98 0 -138 15l35 161q43 -12 110 -12q112 0 112 47q0 22 -24.5 30.5t-86.5 8.5h-58l29 125l57 69q-187 32 -294 161.5t-107 333.5q0 188 77.5 336.5t220.5 233t328 84.5q223 0 362.5 -130.5t139.5 -345.5q0 -110 -20 -190z" />
    <glyph glyph-name="Odieresismacron" unicode="&#x22a;" horiz-adv-x="1586" 
d="M915 1130q-96 0 -178.5 -69t-131.5 -188t-49 -258q0 -137 65.5 -219.5t175.5 -82.5q146 0 253 151.5t107 364.5q0 138 -66 219.5t-176 81.5zM784 -25q-151 0 -276 46.5t-208 129t-128.5 195t-45.5 243.5q0 194 62.5 359.5t170.5 279t254.5 177t311.5 63.5q155 0 281 -47
t209 -129.5t127.5 -194.5t44.5 -243q0 -195 -63.5 -361t-172 -278.5t-255.5 -176t-312 -63.5zM767 1836q68 0 113 -43.5t45 -106.5q0 -62 -45 -106t-113 -44t-113 44t-45 106q0 63 45 106.5t113 43.5zM1456 2120l-38 -180h-748l38 180h748zM1211 1836q68 0 113 -43.5
t45 -106.5q0 -62 -45 -106t-113 -44t-113 44t-45 106q0 63 45 106.5t113 43.5z" />
    <glyph glyph-name="odieresismacron" unicode="&#x22b;" horiz-adv-x="1299" 
d="M632 275q100 0 168.5 100.5t68.5 247.5q0 93 -41 149.5t-108 56.5q-103 0 -170.5 -99t-67.5 -249q0 -92 41.5 -149t108.5 -57zM740 1132q239 0 386.5 -138.5t147.5 -362.5q0 -190 -84 -340.5t-234.5 -234.5t-341.5 -84q-239 0 -386.5 138.5t-147.5 362.5q0 190 84 340.5
t234.5 234.5t341.5 84zM581 1235q-64 0 -106.5 41t-42.5 100t42.5 100t106.5 41t106.5 -41t42.5 -100t-42.5 -100t-106.5 -41zM999 1235q-64 0 -106.5 41t-42.5 100t42.5 100t106.5 41t106.5 -41t42.5 -100t-42.5 -100t-106.5 -41zM1259 1820l-38 -180h-704l38 180h704z" />
    <glyph glyph-name="Otildemacron" unicode="&#x22c;" horiz-adv-x="1586" 
d="M915 1130q-96 0 -178.5 -69t-131.5 -188t-49 -258q0 -137 65.5 -219.5t175.5 -82.5q146 0 253 151.5t107 364.5q0 138 -66 219.5t-176 81.5zM784 -25q-151 0 -276 46.5t-208 129t-128.5 195t-45.5 243.5q0 194 62.5 359.5t170.5 279t254.5 177t311.5 63.5q155 0 281 -47
t209 -129.5t127.5 -194.5t44.5 -243q0 -195 -63.5 -361t-172 -278.5t-255.5 -176t-312 -63.5zM1456 2120l-38 -180h-748l38 180h748zM1117 1536q-47 0 -88.5 19t-65.5 41.5t-51 41.5t-49 19q-30 0 -55 -27.5t-37 -73.5h-202q28 133 109.5 213t188.5 80q47 0 88.5 -19
t65 -41.5t50.5 -41.5t49 -19q32 0 57 28t38 78h202q-29 -134 -111.5 -216t-188.5 -82z" />
    <glyph glyph-name="otildemacron" unicode="&#x22d;" horiz-adv-x="1299" 
d="M632 275q100 0 168.5 100.5t68.5 247.5q0 93 -41 149.5t-108 56.5q-103 0 -170.5 -99t-67.5 -249q0 -92 41.5 -149t108.5 -57zM740 1132q239 0 386.5 -138.5t147.5 -362.5q0 -190 -84 -340.5t-234.5 -234.5t-341.5 -84q-239 0 -386.5 138.5t-147.5 362.5q0 190 84 340.5
t234.5 234.5t341.5 84zM934 1238q-49 0 -91 18.5t-65 41t-51 41t-54 18.5q-61 0 -88 -101h-205q28 134 107.5 213.5t185.5 79.5q49 0 91 -18.5t65 -41t51 -41t54 -18.5q61 0 89 106h205q-29 -135 -109.5 -216.5t-184.5 -81.5zM1259 1820l-38 -180h-704l38 180h704z" />
    <glyph glyph-name="Odotaccent" unicode="&#x22e;" horiz-adv-x="1586" 
d="M915 1130q-96 0 -178.5 -69t-131.5 -188t-49 -258q0 -137 65.5 -219.5t175.5 -82.5q146 0 253 151.5t107 364.5q0 138 -66 219.5t-176 81.5zM784 -25q-151 0 -276 46.5t-208 129t-128.5 195t-45.5 243.5q0 194 62.5 359.5t170.5 279t254.5 177t311.5 63.5q155 0 281 -47
t209 -129.5t127.5 -194.5t44.5 -243q0 -195 -63.5 -361t-172 -278.5t-255.5 -176t-312 -63.5zM1008 1603q-75 0 -126 50.5t-51 122.5t51 122.5t126 50.5t126 -50.5t51 -122.5t-51 -122.5t-126 -50.5z" />
    <glyph glyph-name="odotaccent" unicode="&#x22f;" horiz-adv-x="1299" 
d="M632 275q100 0 168.5 100.5t68.5 247.5q0 93 -41 149.5t-108 56.5q-103 0 -170.5 -99t-67.5 -249q0 -92 41.5 -149t108.5 -57zM740 1132q239 0 386.5 -138.5t147.5 -362.5q0 -190 -84 -340.5t-234.5 -234.5t-341.5 -84q-239 0 -386.5 138.5t-147.5 362.5q0 190 84 340.5
t234.5 234.5t341.5 84zM803 1264q-75 0 -126 50.5t-51 122.5t51 122.5t126 50.5t126 -50.5t51 -122.5t-51 -122.5t-126 -50.5z" />
    <glyph glyph-name="Odotaccentmacron" unicode="&#x230;" horiz-adv-x="1586" 
d="M915 1130q-96 0 -178.5 -69t-131.5 -188t-49 -258q0 -137 65.5 -219.5t175.5 -82.5q146 0 253 151.5t107 364.5q0 138 -66 219.5t-176 81.5zM784 -25q-151 0 -276 46.5t-208 129t-128.5 195t-45.5 243.5q0 194 62.5 359.5t170.5 279t254.5 177t311.5 63.5q155 0 281 -47
t209 -129.5t127.5 -194.5t44.5 -243q0 -195 -63.5 -361t-172 -278.5t-255.5 -176t-312 -63.5zM989 1536q-68 0 -113 44t-45 106t45 106t113 44t113 -44t45 -106t-45 -106t-113 -44zM1456 2120l-38 -180h-748l38 180h748z" />
    <glyph glyph-name="odotaccentmacron" unicode="&#x231;" horiz-adv-x="1299" 
d="M632 275q100 0 168.5 100.5t68.5 247.5q0 93 -41 149.5t-108 56.5q-103 0 -170.5 -99t-67.5 -249q0 -92 41.5 -149t108.5 -57zM740 1132q239 0 386.5 -138.5t147.5 -362.5q0 -190 -84 -340.5t-234.5 -234.5t-341.5 -84q-239 0 -386.5 138.5t-147.5 362.5q0 190 84 340.5
t234.5 234.5t341.5 84zM795 1222q-75 0 -126 50.5t-51 122.5t51 122.5t126 50.5t126 -50.5t51 -122.5t-51 -122.5t-126 -50.5zM1259 1820l-38 -180h-704l38 180h704z" />
    <glyph glyph-name="Ymacron" unicode="&#x232;" horiz-adv-x="1430" 
d="M838 0h-424l97 457l-284 986h439l133 -585h8l371 585h459l-702 -986zM1375 1786l-38 -180h-748l38 180h748z" />
    <glyph glyph-name="ymacron" unicode="&#x233;" horiz-adv-x="1206" 
d="M75 -405h-152l64 305h106q172 0 172 97q0 18 -1 23l-111 1084h407l-1 -808h8l354 808h422l-568 -1086q-118 -226 -282 -324.5t-418 -98.5zM1190 1457l-38 -180h-704l38 180h704z" />
    <glyph glyph-name="dotlessj" unicode="&#x237;" horiz-adv-x="560" 
d="M623 1104l-250 -1173q-33 -155 -157.5 -245t-303.5 -90q-97 0 -174 17l61 277q28 -7 71 -7q48 0 78 23t38 64l241 1134h396z" />
    <glyph glyph-name="quoteright" unicode="&#x2bc;" horiz-adv-x="649" 
d="M491 826h-292l184 617h370z" />
    <glyph glyph-name="quoteright" unicode="&#x2019;" horiz-adv-x="649" 
d="M491 826h-292l184 617h370z" />
    <glyph glyph-name="circumflex" unicode="&#x2c6;" horiz-adv-x="1048" 
d="M930 1592l183 -336h-272l-85 180h-8l-163 -180h-296l327 336h314z" />
    <glyph glyph-name="caron" unicode="&#x2c7;" horiz-adv-x="1048" 
d="M858 1256h-314l-184 336h272l86 -180h8l162 180h296z" />
    <glyph glyph-name="breve" unicode="&#x2d8;" horiz-adv-x="1049" 
d="M376 1590h232q-3 -16 -3 -31q0 -56 34.5 -86.5t96.5 -30.5q71 0 122 39.5t68 108.5h240q-36 -153 -159.5 -243.5t-304.5 -90.5q-145 0 -238 78.5t-93 200.5q0 18 5 55z" />
    <glyph glyph-name="dotaccent" unicode="&#x2d9;" horiz-adv-x="1048" 
d="M739 1264q-75 0 -126 50.5t-51 122.5t51 122.5t126 50.5t126 -50.5t51 -122.5t-51 -122.5t-126 -50.5z" />
    <glyph glyph-name="ring" unicode="&#x2da;" horiz-adv-x="1048" 
d="M747 1235q-99 0 -171.5 69.5t-72.5 165.5q0 97 72.5 166.5t171.5 69.5t171 -69.5t72 -166.5t-72 -166t-171 -69zM747 1386q35 0 61.5 25t26.5 59q0 35 -26.5 60.5t-61.5 25.5t-61.5 -25.5t-26.5 -60.5q0 -34 26.5 -59t61.5 -25z" />
    <glyph glyph-name="ogonek" unicode="&#x2db;" horiz-adv-x="1048" 
d="M622 -268l-41 -193q-52 -13 -120 -13q-129 0 -209.5 59t-80.5 153q0 89 69 164t191 120l211 -22q-199 -94 -199 -180q0 -43 35.5 -66.5t101.5 -23.5q30 0 42 2z" />
    <glyph glyph-name="tilde" unicode="&#x2dc;" horiz-adv-x="1048" 
d="M865 1258q-49 0 -91 18.5t-65 41t-51 41t-54 18.5q-61 0 -88 -101h-205q28 133 107.5 213t185.5 80q49 0 91 -18.5t65 -41t51 -41t54 -18.5q61 0 89 106h205q-29 -135 -109.5 -216.5t-184.5 -81.5z" />
    <glyph glyph-name="hungarumlaut" unicode="&#x2dd;" horiz-adv-x="1048" 
d="M676 1276l250 320h309l-279 -320h-280zM243 1276l251 320h308l-279 -320h-280z" />
    <glyph glyph-name="gravecmb" unicode="&#x300;" 
d="M316 1275h-314l-197 321h347z" />
    <glyph glyph-name="acutecmb" unicode="&#x301;" 
d="M408 1275h-314l300 321h348z" />
    <glyph glyph-name="circumflexcmb" unicode="&#x302;" 
d="M422 1592l183 -336h-272l-85 180h-8l-163 -180h-296l327 336h314z" />
    <glyph glyph-name="tildecmb" unicode="&#x303;" 
d="M356 1258q-49 0 -91 18.5t-65 41t-51 41t-54 18.5q-61 0 -88 -101h-205q28 133 107.5 213t185.5 80q49 0 91 -18.5t65 -41t51 -41t54 -18.5q61 0 89 106h205q-29 -135 -109.5 -216.5t-184.5 -81.5z" />
    <glyph glyph-name="macroncmb" unicode="&#x304;" 
d="M594 1456l-38 -180h-704l38 180h704z" />
    <glyph glyph-name="brevecmb" unicode="&#x306;" 
d="M-125 1590h232q-3 -16 -3 -31q0 -56 34.5 -86.5t96.5 -30.5q71 0 122 39.5t68 108.5h240q-36 -153 -159.5 -243.5t-304.5 -90.5q-145 0 -238 78.5t-93 200.5q0 18 5 55z" />
    <glyph glyph-name="dotaccentcmb" unicode="&#x307;" 
d="M216 1264q-75 0 -126 50.5t-51 122.5t51 122.5t126 50.5t126 -50.5t51 -122.5t-51 -122.5t-126 -50.5z" />
    <glyph glyph-name="dieresiscmb" unicode="&#x308;" 
d="M16 1255q-64 0 -106.5 41t-42.5 100t42.5 100t106.5 41t106.5 -41t42.5 -100t-42.5 -100t-106.5 -41zM434 1255q-64 0 -106.5 41t-42.5 100t42.5 100t106.5 41t106.5 -41t42.5 -100t-42.5 -100t-106.5 -41z" />
    <glyph glyph-name="hookabovecmb" unicode="&#x309;" 
d="M62 1542l42 172q62 18 137 18q105 0 171 -55.5t66 -143.5q0 -98 -69 -182.5t-181 -123.5l-85 140q110 42 110 114q0 34 -26.5 54.5t-69.5 20.5q-55 0 -95 -14z" />
    <glyph glyph-name="ringcmb" unicode="&#x30a;" 
d="M239 1235q-99 0 -171.5 69.5t-72.5 165.5q0 97 72.5 166.5t171.5 69.5t171 -69.5t72 -166.5t-72 -166t-171 -69zM239 1386q35 0 61.5 25t26.5 59q0 35 -26.5 60.5t-61.5 25.5t-61.5 -25.5t-26.5 -60.5q0 -34 26.5 -59t61.5 -25z" />
    <glyph glyph-name="hungarumlautcmb" unicode="&#x30b;" 
d="M350 1276l250 320h309l-279 -320h-280zM-83 1276l251 320h308l-279 -320h-280z" />
    <glyph glyph-name="caroncmb" unicode="&#x30c;" 
d="M351 1256h-314l-184 336h272l86 -180h8l162 180h296z" />
    <glyph glyph-name="dblgravecmb" unicode="&#x30f;" 
d="M173 1276h-280l-211 320h309zM598 1276h-280l-211 320h308z" />
    <glyph glyph-name="invertedbrevecmb" unicode="&#x311;" 
d="M570 1256h-232q3 16 3 31q0 56 -34.5 86.5t-96.5 30.5q-71 0 -122 -39.5t-68 -108.5h-240q36 153 159.5 243.5t304.5 90.5q145 0 238 -78.5t93 -200.5q0 -18 -5 -55z" />
    <glyph glyph-name="horncmb" unicode="&#x31b;" 
d="M-87 860l56 264q22 -2 33 -2q53 0 71 82l35 163h301l-48 -224q-31 -146 -114.5 -221.5t-204.5 -75.5q-91 0 -129 14z" />
    <glyph glyph-name="dotbelowcmb" unicode="&#x323;" 
d="M-155 -482q-75 0 -126 50.5t-51 122.5t51 122.5t126 50.5t126 -50.5t51 -122.5t-51 -122.5t-126 -50.5z" />
    <glyph glyph-name="dieresisbelowcmb" unicode="&#x324;" 
d="M-365 -450q-64 0 -106.5 41t-42.5 100t42.5 100t106.5 41t106.5 -41t42.5 -100t-42.5 -100t-106.5 -41zM53 -450q-64 0 -106.5 41t-42.5 100t42.5 100t106.5 41t106.5 -41t42.5 -100t-42.5 -100t-106.5 -41z" />
    <glyph glyph-name="ringbelowcmb" unicode="&#x325;" 
d="M-139 -545q-99 0 -171.5 69.5t-72.5 165.5q0 97 72.5 166.5t171.5 69.5t171 -69.5t72 -166.5t-72 -166t-171 -69zM-139 -394q35 0 61.5 25t26.5 59q0 35 -26.5 60.5t-61.5 25.5t-61.5 -25.5t-26.5 -60.5q0 -34 26.5 -59t61.5 -25z" />
    <glyph glyph-name="commabelowcmb" unicode="&#x326;" 
d="M-258 -475h-308l220 321h359z" />
    <glyph glyph-name="cedillacmb" unicode="&#x327;" 
d="M-303 -211l29 125l85 102h191l-3 -16l-62 -76q138 -20 138 -149q0 -102 -93 -169t-235 -67q-98 0 -138 15l35 161q43 -12 110 -12q112 0 112 47q0 22 -24.5 30.5t-86.5 8.5h-58z" />
    <glyph glyph-name="ogonekcmb" unicode="&#x328;" 
d="M67 -268l-41 -193q-52 -13 -120 -13q-129 0 -209.5 59t-80.5 153q0 89 69 164t191 120l211 -22q-199 -94 -199 -180q0 -43 35.5 -66.5t101.5 -23.5q30 0 42 2z" />
    <glyph glyph-name="circumflexbelowcmb" unicode="&#x32d;" 
d="M32 -165l183 -336h-276l-91 192h-8l-173 -192h-276l327 336h314z" />
    <glyph glyph-name="brevebelowcmb" unicode="&#x32e;" 
d="M-515 -142h230q-3 -16 -3 -31q0 -54 34 -85.5t98 -31.5q73 0 122.5 40.5t66.5 107.5h242q-37 -144 -160.5 -239t-304.5 -95q-160 0 -245.5 77t-85.5 195q0 30 6 62z" />
    <glyph glyph-name="tildebelowcmb" unicode="&#x330;" 
d="M-12 -465q-49 0 -91 18.5t-65 41t-51 41t-54 18.5q-61 0 -88 -101h-205q28 134 107.5 213.5t185.5 79.5q49 0 91 -18.5t65 -41t51 -41t54 -18.5q61 0 89 106h205q-29 -135 -109.5 -216.5t-184.5 -81.5z" />
    <glyph glyph-name="macronbelowcmb" unicode="&#x331;" 
d="M238 -219l-38 -180h-748l38 180h748z" />
    <glyph glyph-name="macronbelowcmb" unicode="&#x332;" 
d="M238 -219l-38 -180h-748l38 180h748z" />
    <glyph glyph-name="greekquestionmark" unicode="&#x37e;" horiz-adv-x="618" 
d="M408 679q-86 0 -147 61t-61 147t61 147t147 61t147 -61t61 -147t-61 -147t-147 -61zM219 -344h-292l184 617h370z" />
    <glyph glyph-name="tonosgreek" unicode="&#x384;" horiz-adv-x="876" 
d="M418 1275l156 341h392l-231 -341h-317z" />
    <glyph glyph-name="dieresistonosgreek" unicode="&#x385;" horiz-adv-x="1541" 
d="M1029 1261h-250l92 340h373zM1376 1241q-68 0 -113 44t-45 106q0 63 45 106.5t113 43.5t113 -43.5t45 -106.5q0 -62 -45 -106t-113 -44zM572 1241q-68 0 -113 44t-45 106q0 63 45 106.5t113 43.5t113 -43.5t45 -106.5q0 -62 -45 -106t-113 -44z" />
    <glyph glyph-name="Alphatonosgreek" unicode="&#x386;" horiz-adv-x="1494" 
d="M902 1089l-247 -503h278l-22 503h-9zM959 0l-13 287h-438l-141 -287h-447l794 1443h532l148 -1443h-435zM13 1102l156 341h392l-231 -341h-317z" />
    <glyph glyph-name="anoteleia" unicode="&#x387;" horiz-adv-x="618" 
d="M416 716q-86 0 -147 61t-61 147t61 147t147 61t147 -61t61 -147t-61 -147t-147 -61z" />
    <glyph glyph-name="Epsilontonosgreek" unicode="&#x388;" horiz-adv-x="1700" 
d="M144 1102l156 341h392l-231 -341h-317zM1599 336l-71 -336h-1018l307 1443h1017l-72 -336h-593l-49 -234h556l-65 -304h-556l-50 -233h594z" />
    <glyph glyph-name="Etatonosgreek" unicode="&#x389;" horiz-adv-x="2064" 
d="M144 1102l156 341h392l-231 -341h-317zM1866 0h-434l120 562h-488l-120 -562h-434l307 1443h434l-118 -551h488l118 551h434z" />
    <glyph glyph-name="Iotatonosgreek" unicode="&#x38a;" horiz-adv-x="1132" 
d="M144 1102l156 341h392l-231 -341h-317zM934 0h-424l307 1443h424z" />
    <glyph glyph-name="Omicrontonosgreek" unicode="&#x38c;" horiz-adv-x="1899" 
d="M144 1102l156 341h392l-231 -341h-317zM1228 1130q-96 0 -178.5 -69t-131.5 -188t-49 -258q0 -137 65.5 -219.5t175.5 -82.5q146 0 253 151.5t107 364.5q0 138 -66 219.5t-176 81.5zM1097 -25q-151 0 -276 46.5t-208 129t-128.5 195t-45.5 243.5q0 194 62.5 359.5
t170.5 279t254.5 177t311.5 63.5q155 0 281 -47t209 -129.5t127.5 -194.5t44.5 -243q0 -195 -63.5 -361t-172 -278.5t-255.5 -176t-312 -63.5z" />
    <glyph glyph-name="Upsilontonosgreek" unicode="&#x38e;" horiz-adv-x="2061" 
d="M244 1102l156 341h392l-231 -341h-317zM1469 0h-424l97 457l-284 986h439l133 -585h8l371 585h459l-702 -986z" />
    <glyph glyph-name="Omegatonosgreek" unicode="&#x38f;" horiz-adv-x="1982" 
d="M144 1102l156 341h392l-231 -341h-317zM1170 0l82 388q150 56 238 177.5t88 273.5q0 131 -82 211t-207 80q-166 0 -271.5 -119t-105.5 -311q0 -107 36.5 -179t115.5 -133l-82 -388h-628l67 316h262l2 8q-95 71 -144.5 171t-49.5 212q0 180 66 326t180.5 240.5t266 145
t325.5 50.5q297 0 478 -155.5t181 -410.5q0 -182 -99 -338.5t-276 -240.5l-2 -8h283l-67 -316h-657z" />
    <glyph glyph-name="iotadieresistonosgreek" unicode="&#x390;" horiz-adv-x="739" 
d="M625 1103l-154 -715q-5 -25 -5 -44q0 -43 30 -61.5t98 -18.5q56 0 72 6l-60 -272q-52 -14 -162 -14q-186 0 -287 63t-101 185q0 67 12 122l161 749h396zM579 1237h-250l92 340h373zM926 1217q-68 0 -113 44t-45 106q0 63 45 106.5t113 43.5t113 -43.5t45 -106.5
q0 -62 -45 -106t-113 -44zM122 1217q-68 0 -113 44t-45 106q0 63 45 106.5t113 43.5t113 -43.5t45 -106.5q0 -62 -45 -106t-113 -44z" />
    <glyph glyph-name="Alphagreek" unicode="&#x391;" horiz-adv-x="1494" 
d="M902 1089l-247 -503h278l-22 503h-9zM959 0l-13 287h-438l-141 -287h-447l794 1443h532l148 -1443h-435z" />
    <glyph glyph-name="Betagreek" unicode="&#x392;" horiz-adv-x="1387" 
d="M808 0h-790l307 1443h669q207 0 318 -86t111 -221q0 -143 -94 -245t-246 -130l-1 -8q118 -27 193 -105.5t75 -187.5q0 -201 -153 -330.5t-389 -129.5zM682 1180l-62 -293h180q90 0 145.5 48.5t55.5 123.5q0 55 -40 88t-115 33h-164zM494 291h206q105 0 166.5 53t61.5 143
q0 64 -46 100.5t-132 36.5h-186z" />
    <glyph glyph-name="Gammagreek" unicode="&#x393;" horiz-adv-x="1149" 
d="M460 0h-442l307 1443h993l-72 -336h-551z" />
    <glyph glyph-name="Deltagreek" unicode="&#x394;" horiz-adv-x="1513" 
d="M1353 0h-1367l46 217l692 1226h532l143 -1228zM907 1121l-396 -777l-1 -8h456l1 8l-51 777h-9z" />
    <glyph glyph-name="Deltagreek" unicode="&#x2206;" horiz-adv-x="1513" 
d="M1353 0h-1367l46 217l692 1226h532l143 -1228zM907 1121l-396 -777l-1 -8h456l1 8l-51 777h-9z" />
    <glyph glyph-name="Epsilongreek" unicode="&#x395;" horiz-adv-x="1208" 
d="M1107 336l-71 -336h-1018l307 1443h1017l-72 -336h-593l-49 -234h556l-65 -304h-556l-50 -233h594z" />
    <glyph glyph-name="Zetagreek" unicode="&#x396;" horiz-adv-x="1281" 
d="M-18 0l57 266l772 833v8h-589l72 336h1108l-57 -265l-773 -834v-8h618l-71 -336h-1137z" />
    <glyph glyph-name="Etagreek" unicode="&#x397;" horiz-adv-x="1572" 
d="M1374 0h-434l120 562h-488l-120 -562h-434l307 1443h434l-118 -551h488l118 551h434z" />
    <glyph glyph-name="Thetagreek" unicode="&#x398;" horiz-adv-x="1669" 
d="M1067 555h-409l66 319h409zM805 -25q-313 0 -495.5 170t-182.5 460q0 254 108 450t304.5 304t451.5 108q313 0 495.5 -169.5t182.5 -459.5q0 -254 -108 -450.5t-304.5 -304.5t-451.5 -108zM1249 827q0 147 -75.5 230t-214.5 83q-116 0 -210.5 -70t-148.5 -190.5
t-54 -266.5q0 -145 75.5 -227t214.5 -82q176 0 294.5 151t118.5 372z" />
    <glyph glyph-name="Iotagreek" unicode="&#x399;" horiz-adv-x="640" 
d="M442 0h-424l307 1443h424z" />
    <glyph glyph-name="Kappagreek" unicode="&#x39a;" horiz-adv-x="1457" 
d="M442 0h-424l307 1443h424l-126 -590h8l561 590h480l-644 -675l322 -768h-464l-212 530l-154 -162z" />
    <glyph glyph-name="Lambdagreek" unicode="&#x39b;" horiz-adv-x="1473" 
d="M892 1089l-514 -1089h-448l774 1443h532l128 -1443h-434l-29 1089h-9z" />
    <glyph glyph-name="Mugreek" unicode="&#x39c;" horiz-adv-x="1850" 
d="M393 0h-374l306 1443h491l119 -905h8l487 905h529l-307 -1443h-375l195 908h-12l-502 -908h-244l-120 908h-8z" />
    <glyph glyph-name="Nugreek" unicode="&#x39d;" horiz-adv-x="1509" 
d="M423 0h-405l307 1443h320l393 -792h8l167 792h405l-307 -1443h-320l-393 792h-8z" />
    <glyph glyph-name="Xigreek" unicode="&#x39e;" horiz-adv-x="1281" 
d="M299 1443h1116l-74 -346h-1116zM1142 563h-942l66 314h942zM66 346h1116l-74 -346h-1116z" />
    <glyph glyph-name="Omicrongreek" unicode="&#x39f;" horiz-adv-x="1586" 
d="M915 1130q-96 0 -178.5 -69t-131.5 -188t-49 -258q0 -137 65.5 -219.5t175.5 -82.5q146 0 253 151.5t107 364.5q0 138 -66 219.5t-176 81.5zM784 -25q-151 0 -276 46.5t-208 129t-128.5 195t-45.5 243.5q0 194 62.5 359.5t170.5 279t254.5 177t311.5 63.5q155 0 281 -47
t209 -129.5t127.5 -194.5t44.5 -243q0 -195 -63.5 -361t-172 -278.5t-255.5 -176t-312 -63.5z" />
    <glyph glyph-name="Pigreek" unicode="&#x3a0;" horiz-adv-x="1552" 
d="M1354 0h-433l235 1107h-468l-237 -1107h-433l307 1443h1336z" />
    <glyph glyph-name="Rhogreek" unicode="&#x3a1;" horiz-adv-x="1357" 
d="M325 1443h547q252 0 392 -122t140 -327q0 -276 -181 -438t-491 -162h-205l-84 -394h-423zM681 1123l-89 -415h143q109 0 176.5 70.5t67.5 177.5q0 167 -187 167h-111z" />
    <glyph glyph-name="Sigmagreek" unicode="&#x3a3;" horiz-adv-x="1303" 
d="M578 343l-2 -8h636l-71 -335h-1159l51 239l419 486l-202 434l61 284h1113l-72 -336h-577l-2 -8l143 -353l-5 -18z" />
    <glyph glyph-name="Taugreek" unicode="&#x3a4;" horiz-adv-x="1306" 
d="M775 0h-424l235 1107h-401l72 336h1226l-72 -336h-401z" />
    <glyph glyph-name="Upsilongreek" unicode="&#x3a5;" horiz-adv-x="1430" 
d="M838 0h-424l97 457l-284 986h439l133 -585h8l371 585h459l-702 -986z" />
    <glyph glyph-name="Phigreek" unicode="&#x3a6;" horiz-adv-x="1999" 
d="M688 -153l34 156q-284 37 -439.5 206.5t-155.5 416.5q0 157 59.5 295t170.5 244.5t282.5 173.5t383.5 81l32 153h377l-34 -163q278 -36 436.5 -203t158.5 -423q0 -157 -60 -294.5t-172 -243.5t-282.5 -173t-381.5 -80l-32 -146h-377zM789 321l167 783
q-194 -34 -306.5 -155.5t-112.5 -325.5q0 -122 67 -201t185 -101zM1164 309q200 36 309.5 160t109.5 320q0 125 -68 203.5t-185 99.5z" />
    <glyph glyph-name="Chigreek" unicode="&#x3a7;" horiz-adv-x="1476" 
d="M-64 0l609 727l-304 716h454l169 -413h8l307 413h490l-614 -724l306 -719h-453l-173 420h-8l-313 -420h-478z" />
    <glyph glyph-name="Psigreek" unicode="&#x3a8;" horiz-adv-x="1847" 
d="M1030 0h-392l59 278q-248 17 -380.5 130t-132.5 309q0 63 13 124l128 602h394l-118 -556q-18 -86 -18 -118q0 -84 43 -123.5t140 -42.5l179 840h392l-182 -854q134 17 192 67t83 171l131 616h395l-141 -664q-54 -253 -228 -376t-501 -139z" />
    <glyph glyph-name="Omegagreek" unicode="&#x3a9;" horiz-adv-x="1637" 
d="M825 0l82 388q150 56 238 177.5t88 273.5q0 131 -82 211t-207 80q-166 0 -271.5 -119t-105.5 -311q0 -107 36.5 -179t115.5 -133l-82 -388h-628l67 316h262l2 8q-95 71 -144.5 171t-49.5 212q0 180 66 326t180.5 240.5t266 145t325.5 50.5q297 0 478 -155.5t181 -410.5
q0 -182 -99 -338.5t-276 -240.5l-2 -8h283l-67 -316h-657z" />
    <glyph glyph-name="Omegagreek" unicode="&#x2126;" horiz-adv-x="1637" 
d="M825 0l82 388q150 56 238 177.5t88 273.5q0 131 -82 211t-207 80q-166 0 -271.5 -119t-105.5 -311q0 -107 36.5 -179t115.5 -133l-82 -388h-628l67 316h262l2 8q-95 71 -144.5 171t-49.5 212q0 180 66 326t180.5 240.5t266 145t325.5 50.5q297 0 478 -155.5t181 -410.5
q0 -182 -99 -338.5t-276 -240.5l-2 -8h283l-67 -316h-657z" />
    <glyph glyph-name="Iotadieresisgreek" unicode="&#x3aa;" horiz-adv-x="640" 
d="M442 0h-424l307 1443h424zM383 1559q-64 0 -106.5 41t-42.5 100t42.5 100t106.5 41t106.5 -41t42.5 -100t-42.5 -100t-106.5 -41zM801 1559q-64 0 -106.5 41t-42.5 100t42.5 100t106.5 41t106.5 -41t42.5 -100t-42.5 -100t-106.5 -41z" />
    <glyph glyph-name="Upsilondieresisgreek" unicode="&#x3ab;" horiz-adv-x="1430" 
d="M838 0h-424l97 457l-284 986h439l133 -585h8l371 585h459l-702 -986zM773 1559q-64 0 -106.5 41t-42.5 100t42.5 100t106.5 41t106.5 -41t42.5 -100t-42.5 -100t-106.5 -41zM1191 1559q-64 0 -106.5 41t-42.5 100t42.5 100t106.5 41t106.5 -41t42.5 -100t-42.5 -100
t-106.5 -41z" />
    <glyph glyph-name="alphatonosgreek" unicode="&#x3ac;" horiz-adv-x="1407" 
d="M420 -16q-168 0 -266.5 111t-98.5 308q0 155 41.5 289t114 227.5t173.5 147t217 53.5q119 0 204.5 -54.5t120.5 -138.5h8l37 177h387l-153 -717q-8 -37 -8 -58q0 -31 16.5 -45t54.5 -14q36 0 59 10l-57 -267q-69 -23 -176 -23q-163 0 -229 44.5t-66 149.5v11h-6
q-139 -211 -373 -211zM615 285q94 0 162 99.5t68 239.5q0 87 -41.5 136t-107.5 49q-89 0 -160 -95t-71 -242q0 -89 45 -138t105 -49zM617 1275l156 341h392l-231 -341h-317z" />
    <glyph glyph-name="epsilontonosgreek" unicode="&#x3ad;" horiz-adv-x="1265" 
d="M518 -28q-497 0 -497 304q0 100 65 176t177 107l4 19q-69 32 -106 82.5t-37 111.5q0 168 154.5 264t423.5 96q262 0 395.5 -100t144.5 -304h-392q-5 64 -44.5 91t-129.5 27q-153 0 -153 -88q0 -37 30.5 -54t101.5 -17h144l-53 -260h-161q-147 0 -147 -87q0 -82 139 -82
q172 0 236 141h407q-45 -190 -240.5 -308.5t-461.5 -118.5zM652 1275l156 341h392l-231 -341h-317z" />
    <glyph glyph-name="etatonosgreek" unicode="&#x3ae;" horiz-adv-x="1397" 
d="M756 -353l208 977q7 32 7 66q0 59 -41 96.5t-105 37.5q-71 0 -125 -48.5t-70 -127.5l-138 -648h-394l152 714q8 40 8 59q0 68 -72 68q-40 0 -63 -10l57 268q68 22 201 22q271 0 290 -214l1 -11h8q48 111 146.5 173.5t225.5 62.5q151 0 241.5 -83.5t90.5 -224.5
q0 -75 -13 -137l-221 -1040h-394zM777 1275l156 341h392l-231 -341h-317z" />
    <glyph glyph-name="iotatonosgreek" unicode="&#x3af;" horiz-adv-x="739" 
d="M625 1103l-154 -715q-5 -25 -5 -44q0 -43 30 -61.5t98 -18.5q56 0 72 6l-60 -272q-52 -14 -162 -14q-186 0 -287 63t-101 185q0 67 12 122l161 749h396zM322 1274l156 341h392l-231 -341h-317z" />
    <glyph glyph-name="upsilondieresistonosgreek" unicode="&#x3b0;" horiz-adv-x="1203" 
d="M836 1104h369q12 -67 12 -160q0 -460 -186 -716t-520 -256q-212 0 -331 99.5t-119 276.5q0 70 31 218l115 538h365l-126 -592q-12 -54 -12 -93q0 -127 139 -127q125 0 197 179.5t72 493.5q0 76 -6 139zM854 1238h-250l92 340h373zM1201 1218q-68 0 -113 44t-45 106
q0 63 45 106.5t113 43.5t113 -43.5t45 -106.5q0 -62 -45 -106t-113 -44zM397 1218q-68 0 -113 44t-45 106q0 63 45 106.5t113 43.5t113 -43.5t45 -106.5q0 -62 -45 -106t-113 -44z" />
    <glyph glyph-name="alphagreek" unicode="&#x3b1;" horiz-adv-x="1407" 
d="M420 -16q-168 0 -266.5 111t-98.5 308q0 155 41.5 289t114 227.5t173.5 147t217 53.5q119 0 204.5 -54.5t120.5 -138.5h8l37 177h387l-153 -717q-8 -37 -8 -58q0 -31 16.5 -45t54.5 -14q36 0 59 10l-57 -267q-69 -23 -176 -23q-163 0 -229 44.5t-66 149.5v11h-6
q-139 -211 -373 -211zM615 285q94 0 162 99.5t68 239.5q0 87 -41.5 136t-107.5 49q-89 0 -160 -95t-71 -242q0 -89 45 -138t105 -49z" />
    <glyph glyph-name="betagreek" unicode="&#x3b2;" horiz-adv-x="1354" 
d="M184 902q65 307 208.5 438t415.5 131q219 0 350 -102.5t131 -277.5q0 -121 -65.5 -202.5t-179.5 -110.5l-3 -8q122 -28 188.5 -107t66.5 -200q0 -218 -141 -348.5t-369 -130.5q-242 0 -347 213h-8l-119 -550h-395zM604 624l57 271h68q191 0 191 157q0 59 -37.5 90.5
t-96.5 31.5q-76 0 -123.5 -48.5t-70.5 -152.5l-91 -420q-9 -39 -9 -81q0 -82 50.5 -131t141.5 -49t149 51t58 131q0 74 -56.5 112t-159.5 38h-71z" />
    <glyph glyph-name="gammagreek" unicode="&#x3b3;" horiz-adv-x="1239" 
d="M1319 1105q-6 -92 -26 -181q-49 -232 -185.5 -453t-415.5 -517l-65 -307h-387l55 261l-142 1197h400l46 -793h7q133 161 203.5 300t106.5 310q22 97 28 183h375z" />
    <glyph glyph-name="deltagreek" unicode="&#x3b4;" horiz-adv-x="1269" 
d="M578 -28q-241 0 -383 117t-142 318q0 213 122.5 346.5t332.5 174.5l1 4l1 4q-140 84 -140 218q0 146 123.5 232.5t333.5 86.5q132 0 256.5 -29.5t200.5 -78.5l-68 -255q-180 90 -317 90q-106 0 -106 -76q0 -22 17 -43t57 -49q107 -76 166 -124t108 -108.5t67.5 -124.5
t18.5 -150q0 -157 -83 -283t-231.5 -198t-334.5 -72zM589 238q97 0 156.5 83.5t59.5 228.5q0 82 -34 128.5t-95 46.5q-97 0 -157.5 -85t-60.5 -229q0 -84 34 -128.5t97 -44.5z" />
    <glyph glyph-name="epsilongreek" unicode="&#x3b5;" horiz-adv-x="1265" 
d="M518 -28q-497 0 -497 304q0 100 65 176t177 107l4 19q-69 32 -106 82.5t-37 111.5q0 168 154.5 264t423.5 96q262 0 395.5 -100t144.5 -304h-392q-5 64 -44.5 91t-129.5 27q-153 0 -153 -88q0 -37 30.5 -54t101.5 -17h144l-53 -260h-161q-147 0 -147 -87q0 -82 139 -82
q172 0 236 141h407q-45 -190 -240.5 -308.5t-461.5 -118.5z" />
    <glyph glyph-name="zetagreek" unicode="&#x3b6;" horiz-adv-x="1018" 
d="M718 -415l-262 100q74 77 95.5 111t21.5 84q0 44 -27.5 73t-114.5 76q-219 119 -302 217.5t-83 240.5q0 188 123 346t387 306l2 7h-337l66 299h854l16 -226q-709 -370 -709 -641q0 -81 40 -124.5t170 -110.5q174 -92 234.5 -161.5t60.5 -180.5q0 -94 -57 -192.5
t-178 -223.5z" />
    <glyph glyph-name="etagreek" unicode="&#x3b7;" horiz-adv-x="1397" 
d="M756 -353l208 977q7 32 7 66q0 59 -41 96.5t-105 37.5q-71 0 -125 -48.5t-70 -127.5l-138 -648h-394l152 714q8 40 8 59q0 68 -72 68q-40 0 -63 -10l57 268q68 22 201 22q271 0 290 -214l1 -11h8q48 111 146.5 173.5t225.5 62.5q151 0 241.5 -83.5t90.5 -224.5
q0 -75 -13 -137l-221 -1040h-394z" />
    <glyph glyph-name="thetagreek" unicode="&#x3b8;" horiz-adv-x="1320" 
d="M605 -28q-255 0 -386 132.5t-131 392.5q0 120 21 240q66 364 244 549t459 185q253 0 384.5 -132t131.5 -390q0 -103 -24 -253q-62 -369 -237 -546.5t-462 -177.5zM618 237q101 0 165 85.5t99 270.5h-397q-17 -97 -17 -151q0 -205 150 -205zM532 856h396q13 70 13 137
q0 105 -38 160t-109 55q-194 0 -262 -352z" />
    <glyph glyph-name="iotagreek" unicode="&#x3b9;" horiz-adv-x="739" 
d="M625 1103l-154 -715q-5 -25 -5 -44q0 -43 30 -61.5t98 -18.5q56 0 72 6l-60 -272q-52 -14 -162 -14q-186 0 -287 63t-101 185q0 67 12 122l161 749h396z" />
    <glyph glyph-name="kappagreek" unicode="&#x3ba;" horiz-adv-x="1266" 
d="M1177 1120q112 0 164 -21l-57 -268q-27 10 -67 10q-36 0 -68.5 -19.5t-81.5 -68.5l-163 -164l249 -589h-373l-164 399l-192 -168l-46 -231h-387l235 1105h387l-92 -431h8l292 281q101 97 172.5 131t183.5 34z" />
    <glyph glyph-name="lambdagreek" unicode="&#x3bb;" horiz-adv-x="1220" 
d="M1130 270q44 0 60 10l-57 -267q-64 -23 -187 -23q-140 0 -202.5 55t-79.5 189l-35 281h-8l-298 -515h-405l659 1022l-4 23q-14 80 -56 113t-123 33q-54 0 -78 -11l59 269q21 8 71 15t83 7q133 0 206.5 -37t114.5 -127t66 -265l90 -644q10 -74 36.5 -101t87.5 -27z" />
    <glyph glyph-name="nugreek" unicode="&#x3bd;" horiz-adv-x="1239" 
d="M1319 1105q-6 -95 -26 -181q-34 -161 -107.5 -311.5t-179.5 -291.5t-272 -321h-450l-131 1105h400l46 -793h7q128 155 200.5 293.5t109.5 316.5q22 100 28 183h375z" />
    <glyph glyph-name="xigreek" unicode="&#x3be;" horiz-adv-x="1057" 
d="M732 -415l-263 100q64 73 86 110.5t22 74.5q0 50 -26.5 76.5t-115.5 72.5q-226 118 -306 198.5t-80 193.5q0 110 75 179.5t211 92.5l1 2q-65 32 -97.5 88t-32.5 123q0 195 266 248v2h-219l63 297h804l19 -278l-208 -19q-169 -15 -239 -48t-70 -98q0 -50 48 -75t153 -25
h186l-61 -280h-298q-83 0 -130.5 -28.5t-47.5 -81.5q0 -46 38 -81.5t160 -99.5q73 -39 116.5 -65.5t80 -56.5t54 -60t26.5 -67t9 -88q0 -89 -56.5 -197.5t-167.5 -209.5z" />
    <glyph glyph-name="omicrongreek" unicode="&#x3bf;" horiz-adv-x="1299" 
d="M632 275q100 0 168.5 100.5t68.5 247.5q0 93 -41 149.5t-108 56.5q-103 0 -170.5 -99t-67.5 -249q0 -92 41.5 -149t108.5 -57zM740 1132q239 0 386.5 -138.5t147.5 -362.5q0 -190 -84 -340.5t-234.5 -234.5t-341.5 -84q-239 0 -386.5 138.5t-147.5 362.5q0 190 84 340.5
t234.5 234.5t341.5 84z" />
    <glyph glyph-name="pigreek" unicode="&#x3c0;" horiz-adv-x="1507" 
d="M830 317l104 488h-231l-171 -805h-377l171 805h-214l64 299h1434l-64 -299h-234l-88 -414q-6 -27 -6 -46q0 -75 100 -75q32 0 58 10l-57 -267q-71 -23 -172 -23q-158 0 -242.5 63.5t-84.5 182.5q0 33 10 81z" />
    <glyph glyph-name="rhogreek" unicode="&#x3c1;" horiz-adv-x="1283" 
d="M631 292q106 0 170.5 99t64.5 260q0 91 -37.5 138.5t-108.5 47.5q-105 0 -171.5 -102.5t-66.5 -265.5q0 -177 149 -177zM755 1132q258 0 389.5 -114.5t131.5 -339.5q0 -189 -74 -349t-201.5 -252.5t-278.5 -92.5q-110 0 -194.5 59t-110.5 154h-7l-117 -550h-396l181 852
q71 332 232 482.5t445 150.5z" />
    <glyph glyph-name="sigmafinalgreek" unicode="&#x3c2;" horiz-adv-x="1147" 
d="M978 -6q0 -164 -234 -409l-262 100q70 74 93 109.5t23 80.5q0 49 -26.5 77.5t-117.5 76.5q-215 114 -299 227.5t-84 277.5q0 266 177 432t460 166q236 0 372.5 -132.5t119.5 -345.5h-363q8 84 -31.5 134.5t-113.5 50.5q-90 0 -148 -69.5t-58 -177.5q0 -80 42 -136
t153 -113q181 -93 239 -161t58 -188z" />
    <glyph glyph-name="sigmagreek" unicode="&#x3c3;" horiz-adv-x="1368" 
d="M578 -28q-242 0 -380.5 129.5t-138.5 356.5q0 187 86.5 334.5t242.5 229.5t354 82h746l-66 -309h-253l-3 -7q54 -74 54 -188q0 -275 -180.5 -451.5t-461.5 -176.5zM597 261q96 0 161 98t65 241q0 98 -34 144.5t-106 46.5q-95 0 -161 -98.5t-66 -240.5q0 -98 34.5 -144.5
t106.5 -46.5z" />
    <glyph glyph-name="taugreek" unicode="&#x3c4;" horiz-adv-x="1178" 
d="M920 270l-60 -272q-52 -14 -162 -14q-186 0 -287 63t-101 185q0 62 12 122l94 452h-311l64 298h1091l-62 -298h-384l-89 -418q-5 -25 -5 -44q0 -43 30 -61.5t98 -18.5q56 0 72 6z" />
    <glyph glyph-name="upsilongreek" unicode="&#x3c5;" horiz-adv-x="1203" 
d="M836 1104h369q12 -67 12 -160q0 -460 -186 -716t-520 -256q-212 0 -331 99.5t-119 276.5q0 70 31 218l115 538h365l-126 -592q-12 -54 -12 -93q0 -127 139 -127q125 0 197 179.5t72 493.5q0 76 -6 139z" />
    <glyph glyph-name="phigreek" unicode="&#x3c6;" horiz-adv-x="1663" 
d="M491 -353l69 326q-227 13 -367 146t-140 333q0 199 95.5 354.5t267.5 242.5t391 87l42 198h353l-43 -204q225 -14 365 -147.5t140 -335.5q0 -199 -95 -353.5t-266 -240.5t-391 -86l-68 -320h-353zM632 260l124 583q-151 -4 -241 -100.5t-90 -258.5q0 -101 55 -160
t152 -64zM963 258q151 5 238.5 100.5t87.5 257.5q0 103 -53.5 162.5t-148.5 64.5z" />
    <glyph glyph-name="chigreek" unicode="&#x3c7;" horiz-adv-x="1192" 
d="M852 -338q-112 0 -178 46t-102 144l-73 202h-9l-260 -382h-380l539 709l-127 330q-28 73 -53.5 101.5t-64.5 28.5q-38 0 -64 -10l57 269q28 8 85 14.5t95 6.5q110 0 172.5 -47t98.5 -153l83 -249h4l308 433h386l-577 -755l99 -271q32 -85 61.5 -111t85.5 -26q38 0 60 10
l-57 -268q-66 -22 -189 -22z" />
    <glyph glyph-name="psigreek" unicode="&#x3c8;" horiz-adv-x="1659" 
d="M837 -353h-371l69 324q-238 2 -356 102t-118 283q0 60 18 146l128 602h365l-114 -536q-24 -114 -24 -139q0 -73 35.5 -105t133.5 -32l222 1042h371l-221 -1039q84 1 146.5 50t100.5 139t56.5 209t18.5 267q0 75 -6 144h368q13 -69 13 -161q0 -171 -25.5 -315t-83 -267
t-145 -208.5t-217.5 -133.5t-295 -48z" />
    <glyph glyph-name="omegagreek" unicode="&#x3c9;" horiz-adv-x="1683" 
d="M1665 649q0 -297 -152.5 -487t-389.5 -190q-146 0 -227 61t-94 179h-8q-56 -126 -140.5 -183t-216.5 -57q-182 0 -282 107.5t-100 304.5q0 208 81 400t222 320h386q-150 -150 -231 -324.5t-81 -345.5q0 -65 28.5 -103t76.5 -38q104 0 132 133l77 363h346l-67 -314
q-15 -72 -15 -104q0 -34 23.5 -56t63.5 -22q88 0 138 94.5t50 259.5q0 235 -88 457h377q91 -218 91 -455z" />
    <glyph glyph-name="iotadieresisgreek" unicode="&#x3ca;" horiz-adv-x="739" 
d="M625 1103l-154 -715q-5 -25 -5 -44q0 -43 30 -61.5t98 -18.5q56 0 72 6l-60 -272q-52 -14 -162 -14q-186 0 -287 63t-101 185q0 67 12 122l161 749h396zM302 1254q-64 0 -106.5 41t-42.5 100t42.5 100t106.5 41t106.5 -41t42.5 -100t-42.5 -100t-106.5 -41zM720 1254
q-64 0 -106.5 41t-42.5 100t42.5 100t106.5 41t106.5 -41t42.5 -100t-42.5 -100t-106.5 -41z" />
    <glyph glyph-name="upsilondieresisgreek" unicode="&#x3cb;" horiz-adv-x="1203" 
d="M836 1104h369q12 -67 12 -160q0 -460 -186 -716t-520 -256q-212 0 -331 99.5t-119 276.5q0 70 31 218l115 538h365l-126 -592q-12 -54 -12 -93q0 -127 139 -127q125 0 197 179.5t72 493.5q0 76 -6 139zM576 1255q-64 0 -106.5 41t-42.5 100t42.5 100t106.5 41t106.5 -41
t42.5 -100t-42.5 -100t-106.5 -41zM994 1255q-64 0 -106.5 41t-42.5 100t42.5 100t106.5 41t106.5 -41t42.5 -100t-42.5 -100t-106.5 -41z" />
    <glyph glyph-name="omicrontonosgreek" unicode="&#x3cc;" horiz-adv-x="1299" 
d="M632 275q100 0 168.5 100.5t68.5 247.5q0 93 -41 149.5t-108 56.5q-103 0 -170.5 -99t-67.5 -249q0 -92 41.5 -149t108.5 -57zM740 1132q239 0 386.5 -138.5t147.5 -362.5q0 -190 -84 -340.5t-234.5 -234.5t-341.5 -84q-239 0 -386.5 138.5t-147.5 362.5q0 190 84 340.5
t234.5 234.5t341.5 84zM624 1275l156 341h392l-231 -341h-317z" />
    <glyph glyph-name="upsilontonosgreek" unicode="&#x3cd;" horiz-adv-x="1203" 
d="M836 1104h369q12 -67 12 -160q0 -460 -186 -716t-520 -256q-212 0 -331 99.5t-119 276.5q0 70 31 218l115 538h365l-126 -592q-12 -54 -12 -93q0 -127 139 -127q125 0 197 179.5t72 493.5q0 76 -6 139zM597 1275l156 341h392l-231 -341h-317z" />
    <glyph glyph-name="omegatonosgreek" unicode="&#x3ce;" horiz-adv-x="1683" 
d="M1665 649q0 -297 -152.5 -487t-389.5 -190q-146 0 -227 61t-94 179h-8q-56 -126 -140.5 -183t-216.5 -57q-182 0 -282 107.5t-100 304.5q0 208 81 400t222 320h386q-150 -150 -231 -324.5t-81 -345.5q0 -65 28.5 -103t76.5 -38q104 0 132 133l77 363h346l-67 -314
q-15 -72 -15 -104q0 -34 23.5 -56t63.5 -22q88 0 138 94.5t50 259.5q0 235 -88 457h377q91 -218 91 -455zM878 1275l156 341h392l-231 -341h-317z" />
    <glyph glyph-name="uni0400" unicode="&#x400;" horiz-adv-x="1218" 
d="M1112 336l-71 -336h-1018l307 1443h1017l-72 -336h-593l-49 -234h556l-65 -304h-556l-50 -233h594zM694 1555l-206 321h332l164 -321h-290z" />
    <glyph glyph-name="Iocyrillic" unicode="&#x401;" horiz-adv-x="1218" 
d="M1112 336l-71 -336h-1018l307 1443h1017l-72 -336h-593l-49 -234h556l-65 -304h-556l-50 -233h594zM658 1559q-64 0 -106.5 41t-42.5 100t42.5 100t106.5 41t106.5 -41t42.5 -100t-42.5 -100t-106.5 -41zM1076 1559q-64 0 -106.5 41t-42.5 100t42.5 100t106.5 41
t106.5 -41t42.5 -100t-42.5 -100t-106.5 -41z" />
    <glyph glyph-name="Djecyrillic" unicode="&#x402;" horiz-adv-x="1796" 
d="M356 0l235 1107h-381l72 336h1186l-72 -336h-381l-63 -298h18q131 97 301 97q148 0 256 -59t161 -156t53 -218q0 -125 -47 -233t-132.5 -187.5t-213.5 -125t-283 -45.5q-58 0 -104.5 4t-64.5 8l-17 5l66 312q32 -9 120 -9q103 0 168.5 55t65.5 142q0 72 -51 113.5
t-138 41.5q-72 0 -135.5 -32.5t-101.5 -82.5l-93 -439h-424z" />
    <glyph glyph-name="Gjecyrillic" unicode="&#x403;" horiz-adv-x="1181" 
d="M446 0h-423l307 1443h1003l-72 -336h-579zM998 1555h-322l300 321h364z" />
    <glyph glyph-name="Ecyrillic" unicode="&#x404;" horiz-adv-x="1527" 
d="M1485 541q-53 -266 -251 -423.5t-482 -157.5q-289 0 -455.5 177t-166.5 485q0 252 99.5 448t279 304.5t409.5 108.5q183 0 327.5 -70t225 -195t80.5 -284v-31h-413q-6 106 -69 167t-167 61t-192 -70t-118 -183h492l-65 -306h-464q0 -121 68.5 -192t173.5 -71
q100 0 171.5 61t104.5 171h412z" />
    <glyph glyph-name="Dzecyrillic" unicode="&#x405;" horiz-adv-x="1394" 
d="M67 425h401q9 -59 73 -97.5t153 -38.5q92 0 146 33.5t54 87.5q0 42 -32.5 69t-130.5 57l-151 46q-369 112 -369 400q0 218 169.5 352t434.5 134q280 0 440 -121t161 -335h-387q-2 65 -58 104t-146 39q-82 0 -132.5 -33t-50.5 -85q0 -45 35.5 -76t120.5 -56l158 -46
q197 -57 284 -147t87 -244q0 -226 -176.5 -359.5t-464.5 -133.5q-292 0 -455 118.5t-164 331.5z" />
    <glyph glyph-name="Icyrillic" unicode="&#x406;" horiz-adv-x="650" 
d="M447 0h-424l307 1443h424z" />
    <glyph glyph-name="Yicyrillic" unicode="&#x407;" horiz-adv-x="650" 
d="M447 0h-424l307 1443h424zM388 1559q-64 0 -106.5 41t-42.5 100t42.5 100t106.5 41t106.5 -41t42.5 -100t-42.5 -100t-106.5 -41zM806 1559q-64 0 -106.5 41t-42.5 100t42.5 100t106.5 41t106.5 -41t42.5 -100t-42.5 -100t-106.5 -41z" />
    <glyph glyph-name="Jecyrillic" unicode="&#x408;" horiz-adv-x="1270" 
d="M43 434q0 40 3 71h404v-21q0 -69 36 -109t101 -40q125 0 160 160l202 948h424l-212 -996q-49 -231 -196 -351.5t-381 -120.5q-247 0 -394 125t-147 334z" />
    <glyph glyph-name="Ljecyrillic" unicode="&#x409;" horiz-adv-x="2255" 
d="M699 600q-33 -126 -69 -218.5t-87 -170.5t-115.5 -126t-151 -74.5t-195.5 -26.5q-91 0 -144 16l78 362q48 -9 78 -9q157 0 227 280l206 810h1114l-88 -414h136q251 0 387.5 -118.5t136.5 -336.5q0 -264 -182 -419t-492 -155h-629l236 1107h-315zM1600 709h-116l-84 -395
h143q111 0 179 62.5t68 163.5q0 81 -49.5 125t-140.5 44z" />
    <glyph glyph-name="Njecyrillic" unicode="&#x40a;" horiz-adv-x="2245" 
d="M904 0l125 589h-457l-126 -589h-423l307 1443h424l-113 -528h458l112 528h424l-112 -527h160q246 0 382.5 -104.5t136.5 -287.5q0 -241 -180.5 -382.5t-488.5 -141.5h-629zM1395 315h152q102 0 166 46t64 123q0 122 -171 122h-149z" />
    <glyph glyph-name="Tshecyrillic" unicode="&#x40b;" horiz-adv-x="1790" 
d="M1102 554q-132 0 -229 -115l-93 -439h-424l235 1107h-381l72 336h1186l-72 -336h-381l-63 -298h8q55 43 138 70t174 27q250 0 358.5 -147t54.5 -402l-76 -357h-424l76 355q19 91 -21 145t-138 54z" />
    <glyph glyph-name="Kjecyrillic" unicode="&#x40c;" horiz-adv-x="1478" 
d="M1450 1876l-342 -321h-322l300 321h364zM1668 1443l-712 -753l412 -690h-471l-321 543h-13l-116 -543h-424l307 1443h424l-124 -582h10l548 582h480z" />
    <glyph glyph-name="uni040D" unicode="&#x40d;" horiz-adv-x="1592" 
d="M975 0l175 818h-20l-703 -818h-404l307 1443h414l-175 -818h20l703 818h404l-307 -1443h-414zM894 1555l-206 321h332l164 -321h-290z" />
    <glyph glyph-name="Ushortcyrillic" unicode="&#x40e;" horiz-adv-x="1455" 
d="M326 -16q-40 0 -79 4t-58 8l-19 4l70 330q28 -10 90 -10q107 0 168 60l-234 1063h444l92 -669h20l361 669h454l-661 -1030q-69 -107 -132.5 -181t-141 -133t-170 -87t-204.5 -28zM650 1877h229q-12 -66 22 -101t103 -35q150 0 183 136h229q-33 -152 -137.5 -236.5
t-282.5 -84.5q-182 0 -275.5 85t-70.5 236z" />
    <glyph glyph-name="Dzhecyrillic" unicode="&#x40f;" horiz-adv-x="1572" 
d="M1369 0h-466l-61 -285h-358l61 285h-522l307 1443h424l-235 -1107h498l235 1107h424z" />
    <glyph glyph-name="Acyrillic" unicode="&#x410;" horiz-adv-x="1504" 
d="M907 1089l-247 -503h278l-22 503h-9zM964 0l-13 287h-438l-141 -287h-447l794 1443h532l148 -1443h-435z" />
    <glyph glyph-name="Becyrillic" unicode="&#x411;" horiz-adv-x="1375" 
d="M652 0h-629l306 1443h1074l-72 -336h-648l-37 -173h156q251 0 387.5 -103t136.5 -292q0 -248 -182 -393.5t-492 -145.5zM514 314h143q111 0 179 52.5t68 138.5q0 61 -44.5 95t-128.5 34h-149z" />
    <glyph glyph-name="Vecyrillic" unicode="&#x412;" horiz-adv-x="1397" 
d="M813 0h-790l307 1443h669q207 0 318 -86t111 -221q0 -143 -94 -245t-246 -130l-1 -8q118 -27 193 -105.5t75 -187.5q0 -201 -153 -330.5t-389 -129.5zM687 1180l-62 -293h180q90 0 145.5 48.5t55.5 123.5q0 55 -40 88t-115 33h-164zM499 291h206q105 0 166.5 53t61.5 143
q0 64 -46 100.5t-132 36.5h-186z" />
    <glyph glyph-name="Gecyrillic" unicode="&#x413;" horiz-adv-x="1181" 
d="M446 0h-423l307 1443h1003l-72 -336h-579z" />
    <glyph glyph-name="Decyrillic" unicode="&#x414;" horiz-adv-x="1629" 
d="M671 679q-66 -239 -149 -320l-4 -22h469l164 771h-359zM297 0l-61 -285h-380l133 622h95q80 59 122 139.5t87 243.5l199 723h1154l-235 -1106h180l-133 -622h-380l61 285h-842z" />
    <glyph glyph-name="Iecyrillic" unicode="&#x415;" horiz-adv-x="1218" 
d="M1112 336l-71 -336h-1018l307 1443h1017l-72 -336h-593l-49 -234h556l-65 -304h-556l-50 -233h594z" />
    <glyph glyph-name="Zhecyrillic" unicode="&#x416;" horiz-adv-x="2166" 
d="M902 542l-481 -542h-491l668 747l-315 696h430l259 -587h15l125 587h414l-125 -587h15l509 587h438l-658 -755l328 -688h-430l-253 542h-16l-115 -542h-414l115 542h-18z" />
    <glyph glyph-name="Zecyrillic" unicode="&#x417;" horiz-adv-x="1367" 
d="M527 591l60 293h175q102 0 159 37t57 102q0 59 -48 92.5t-131 33.5q-74 0 -129.5 -37t-67.5 -94h-382q29 199 199.5 324.5t412.5 125.5t394 -108.5t152 -282.5q0 -137 -93.5 -235.5t-243.5 -117.5l-1 -8q117 -29 183 -107t66 -189q0 -128 -78 -230t-218 -158.5
t-316 -56.5q-192 0 -337 65t-213 178.5t-42 252.5h389q-6 -74 52.5 -124t152.5 -50q86 0 144 45.5t58 112.5q0 63 -59 99.5t-161 36.5h-134z" />
    <glyph glyph-name="Iicyrillic" unicode="&#x418;" horiz-adv-x="1592" 
d="M975 0l175 818h-20l-703 -818h-404l307 1443h414l-175 -818h20l703 818h404l-307 -1443h-414z" />
    <glyph glyph-name="Iishortcyrillic" unicode="&#x419;" horiz-adv-x="1592" 
d="M975 0l175 818h-20l-703 -818h-404l307 1443h414l-175 -818h20l703 818h404l-307 -1443h-414zM720 1877h229q-12 -66 22 -101t103 -35q150 0 183 136h229q-33 -152 -137.5 -236.5t-282.5 -84.5q-182 0 -275.5 85t-70.5 236z" />
    <glyph glyph-name="Kacyrillic" unicode="&#x41a;" horiz-adv-x="1478" 
d="M1668 1443l-712 -753l412 -690h-471l-321 543h-13l-116 -543h-424l307 1443h424l-124 -582h10l548 582h480z" />
    <glyph glyph-name="Elcyrillic" unicode="&#x41b;" horiz-adv-x="1536" 
d="M1333 0h-424l235 1107h-314l-131 -507q-40 -154 -88.5 -262t-120.5 -191t-173 -123t-236 -40q-91 0 -144 16l78 362q48 -9 78 -9q155 0 227 280l206 810h1114z" />
    <glyph glyph-name="Emcyrillic" unicode="&#x41c;" horiz-adv-x="1860" 
d="M398 0h-374l306 1443h491l119 -905h8l487 905h529l-307 -1443h-375l195 908h-12l-502 -908h-244l-120 908h-8z" />
    <glyph glyph-name="Encyrillic" unicode="&#x41d;" horiz-adv-x="1582" 
d="M1379 0h-434l120 562h-488l-120 -562h-434l307 1443h434l-118 -551h488l118 551h434z" />
    <glyph glyph-name="Ocyrillic" unicode="&#x41e;" horiz-adv-x="1596" 
d="M920 1130q-96 0 -178.5 -69t-131.5 -188t-49 -258q0 -137 65.5 -219.5t175.5 -82.5q146 0 253 151.5t107 364.5q0 138 -66 219.5t-176 81.5zM789 -25q-151 0 -276 46.5t-208 129t-128.5 195t-45.5 243.5q0 194 62.5 359.5t170.5 279t254.5 177t311.5 63.5q155 0 281 -47
t209 -129.5t127.5 -194.5t44.5 -243q0 -195 -63.5 -361t-172 -278.5t-255.5 -176t-312 -63.5z" />
    <glyph glyph-name="Pecyrillic" unicode="&#x41f;" horiz-adv-x="1572" 
d="M1369 0h-424l235 1107h-498l-235 -1107h-424l307 1443h1346z" />
    <glyph glyph-name="Ercyrillic" unicode="&#x420;" horiz-adv-x="1367" 
d="M330 1443h547q252 0 392 -122t140 -327q0 -276 -181 -438t-491 -162h-205l-84 -394h-423zM686 1123l-89 -415h143q109 0 176.5 70.5t67.5 177.5q0 167 -187 167h-111z" />
    <glyph glyph-name="Escyrillic" unicode="&#x421;" horiz-adv-x="1550" 
d="M1158 862q1 6 1 40q0 95 -66.5 160t-163.5 65q-159 0 -260.5 -146t-101.5 -375q0 -133 62 -209.5t170 -76.5q105 0 184 62.5t111 169.5h411q-25 -171 -125 -302t-259 -203t-352 -72q-290 0 -464.5 165t-174.5 440q0 406 229 647t614 241q262 0 431.5 -153t169.5 -389
q0 -37 -5 -64h-411z" />
    <glyph glyph-name="Tecyrillic" unicode="&#x422;" horiz-adv-x="1316" 
d="M780 0h-424l235 1107h-401l72 336h1226l-72 -336h-401z" />
    <glyph glyph-name="Ucyrillic" unicode="&#x423;" horiz-adv-x="1455" 
d="M326 -16q-40 0 -79 4t-58 8l-19 4l70 330q28 -10 90 -10q107 0 168 60l-234 1063h444l92 -669h20l361 669h454l-661 -1030q-69 -107 -132.5 -181t-141 -133t-170 -87t-204.5 -28z" />
    <glyph glyph-name="Efcyrillic" unicode="&#x424;" horiz-adv-x="1963" 
d="M1091 -40h-420l33 157q-266 10 -421 153t-155 377q0 301 223.5 483t609.5 196l34 157h420l-33 -157q266 -10 421.5 -153.5t155.5 -380.5q0 -299 -224.5 -480.5t-610.5 -194.5zM564 664q0 -99 55 -157t158 -66l120 561q-147 -10 -240 -103t-93 -235zM1523 768
q0 106 -55 166t-159 67l-120 -560q148 10 241 101.5t93 225.5z" />
    <glyph glyph-name="Xacyrillic" unicode="&#x425;" horiz-adv-x="1486" 
d="M-59 0l609 727l-304 716h454l169 -413h8l307 413h490l-614 -724l306 -719h-453l-173 420h-8l-313 -420h-478z" />
    <glyph glyph-name="Tsecyrillic" unicode="&#x426;" horiz-adv-x="1659" 
d="M1488 -285h-380l61 285h-1146l307 1443h424l-236 -1107h498l236 1107h424l-236 -1107h180z" />
    <glyph glyph-name="Checyrillic" unicode="&#x427;" horiz-adv-x="1523" 
d="M1320 0h-424l114 539h-8q-143 -79 -335 -79q-163 0 -273.5 76.5t-151 214t-2.5 313.5l81 379h424l-83 -389q-25 -117 22 -179.5t165 -62.5q148 0 233 64l121 567h424z" />
    <glyph glyph-name="Shacyrillic" unicode="&#x428;" horiz-adv-x="2094" 
d="M23 0l307 1443h424l-236 -1107h298l236 1107h424l-236 -1107h298l236 1107h424l-307 -1443h-1868z" />
    <glyph glyph-name="Shchacyrillic" unicode="&#x429;" horiz-adv-x="2181" 
d="M2010 -285h-380l61 285h-1668l307 1443h424l-236 -1107h298l236 1107h424l-236 -1107h298l236 1107h424l-236 -1107h180z" />
    <glyph glyph-name="Hardsigncyrillic" unicode="&#x42a;" horiz-adv-x="1635" 
d="M918 0h-629l236 1108h-340l71 335h764l-88 -414h136q251 0 387.5 -118.5t136.5 -336.5q0 -264 -182 -419t-492 -155zM980 709h-116l-84 -395h143q111 0 179 62.5t68 163.5q0 81 -49.5 125t-140.5 44z" />
    <glyph glyph-name="Yericyrillic" unicode="&#x42b;" horiz-adv-x="2009" 
d="M714 709h-116l-84 -395h143q111 0 179 62.5t68 163.5q0 81 -49.5 125t-140.5 44zM23 0l307 1443h424l-88 -414h136q251 0 387.5 -118.5t136.5 -336.5q0 -264 -182 -419t-492 -155h-629zM1811 0h-424l307 1443h424z" />
    <glyph glyph-name="Softsigncyrillic" unicode="&#x42c;" horiz-adv-x="1369" 
d="M714 709h-116l-84 -395h143q111 0 179 62.5t68 163.5q0 81 -49.5 125t-140.5 44zM23 0l307 1443h424l-88 -414h136q251 0 387.5 -118.5t136.5 -336.5q0 -264 -182 -419t-492 -155h-629z" />
    <glyph glyph-name="Ereversedcyrillic" unicode="&#x42d;" horiz-adv-x="1540" 
d="M758 -25q-287 0 -462.5 156t-178.5 414h411q6 -101 72 -160t174 -59q113 0 193 65.5t111 183.5h-500l68 300h467q-2 115 -67 180t-177 65q-94 0 -167.5 -60t-105.5 -161h-412q54 266 246 417.5t474 151.5q292 0 462 -175t170 -474q0 -186 -57 -343.5t-158 -267.5
t-246 -171.5t-317 -61.5z" />
    <glyph glyph-name="IUcyrillic" unicode="&#x42e;" horiz-adv-x="2200" 
d="M1415 313q93 0 174 68.5t129 188t48 259.5q0 138 -63.5 219.5t-169.5 81.5q-93 0 -173 -69t-128 -188t-48 -258q0 -137 63 -219.5t168 -82.5zM637 895h169q79 265 278 419t459 154q153 0 277.5 -47t206 -129.5t125.5 -194.5t44 -243q0 -156 -40.5 -295t-113.5 -244.5
t-171.5 -182.5t-218.5 -117t-250 -40q-288 0 -458 163t-179 421h-200l-119 -559h-423l307 1443h424z" />
    <glyph glyph-name="IAcyrillic" unicode="&#x42f;" horiz-adv-x="1450" 
d="M852 774h145l73 345h-161q-117 0 -182 -49t-65 -137q0 -73 51 -116t139 -43zM844 484l-406 -484h-486l472 560q-91 52 -142 150.5t-51 223.5q0 236 181 372.5t493 136.5h649l-307 -1443h-424l103 484h-82z" />
    <glyph glyph-name="acyrillic" unicode="&#x430;" horiz-adv-x="1182" 
d="M530 252q65 0 117 37.5t64 93.5l15 71l-171 -4q-68 -2 -109 -31.5t-41 -76.5q0 -40 34.5 -65t90.5 -25zM345 -16q-138 0 -229.5 85t-91.5 214q0 172 135.5 273.5t371.5 106.5l241 5l13 64q4 23 4 31q0 38 -37 61.5t-97 23.5q-56 0 -95 -22.5t-54 -65.5h-357
q33 172 177 272t357 100q220 0 356 -93t136 -244q0 -49 -9 -89l-150 -706h-385l28 130h-8q-41 -67 -122.5 -106.5t-183.5 -39.5z" />
    <glyph glyph-name="becyrillic" unicode="&#x431;" horiz-adv-x="1296" 
d="M847 1064q199 0 306 -118.5t99 -330.5q-10 -298 -178.5 -469t-452.5 -171q-251 0 -391 157.5t-131 428.5q9 234 79 410q90 229 279.5 358t467.5 150l161 12q248 18 301 32l-75 -303q-59 -18 -265 -31l-166 -11q-336 -23 -416 -310h14q134 196 368 196zM641 275
q89 0 155 88t71 213q3 97 -38 154t-113 57q-94 0 -158 -86t-69 -217q-4 -95 37.5 -152t114.5 -57z" />
    <glyph glyph-name="vecyrillic" unicode="&#x432;" horiz-adv-x="1229" 
d="M-3 0l235 1104h619q166 0 260.5 -66.5t94.5 -182.5q0 -101 -77 -176t-194 -87l-3 -12q98 -9 156.5 -66t58.5 -145q0 -167 -132 -268t-351 -101h-667zM605 468h-120l-52 -239h122q81 0 132.5 39.5t51.5 99.5q0 100 -134 100zM693 881h-121l-45 -216h114q76 0 122.5 34.5
t46.5 91.5q0 90 -117 90z" />
    <glyph glyph-name="gecyrillic" unicode="&#x433;" horiz-adv-x="962" 
d="M1009 815h-423l-173 -815h-396l235 1104h819z" />
    <glyph glyph-name="decyrillic" unicode="&#x434;" horiz-adv-x="1378" 
d="M799 290l112 527h-264l-70 -252q-43 -157 -120 -256l-4 -19h346zM214 -281h-358l122 571h79q56 24 98 96.5t80 208.5l140 509h986l-173 -814h155l-122 -571h-358l60 281h-649z" />
    <glyph glyph-name="iecyrillic" unicode="&#x435;" horiz-adv-x="1244" 
d="M479 682h374q3 7 3 32q0 63 -45 103.5t-116 40.5q-77 0 -136.5 -48.5t-79.5 -127.5zM609 -27q-239 0 -380.5 134.5t-141.5 370.5q0 188 77.5 336.5t220.5 233t328 84.5q223 0 362.5 -130.5t139.5 -345.5q0 -110 -20 -190h-752q-3 -16 -3 -32q0 -79 51 -130.5t138 -51.5
q65 0 112 30t61 78h368q-43 -176 -193 -281.5t-368 -105.5z" />
    <glyph glyph-name="zhecyrillic" unicode="&#x436;" horiz-adv-x="1788" 
d="M1933 1104l-457 -546l221 -558h-395l-168 431h-16l-92 -431h-386l92 431h-16l-351 -431h-455l510 620l-208 484h395l166 -413h14l88 413h386l-88 -413h14l329 413h417z" />
    <glyph glyph-name="zecyrillic" unicode="&#x437;" horiz-adv-x="1203" 
d="M1120 351q0 -167 -152 -271.5t-394 -104.5q-236 0 -377 116t-143 312h367q6 -64 48.5 -99t113.5 -35q60 0 100.5 28t40.5 69q0 77 -121 77h-138l48 230h119q67 0 107 25t40 66q0 34 -31.5 55.5t-81.5 21.5q-65 0 -107 -31t-53 -88h-366q32 194 179 299.5t386 105.5
q206 0 336 -83.5t130 -215.5q0 -87 -60.5 -154.5t-155.5 -86.5l-3 -13q78 -26 123 -85.5t45 -137.5z" />
    <glyph glyph-name="iicyrillic" unicode="&#x438;" horiz-adv-x="1312" 
d="M384 0h-387l235 1104h386l-121 -566h19l467 566h387l-235 -1104h-387l124 582h-19z" />
    <glyph glyph-name="iishortcyrillic" unicode="&#x439;" horiz-adv-x="1312" 
d="M384 0h-387l235 1104h386l-121 -566h19l467 566h387l-235 -1104h-387l124 582h-19zM532 1604h229q-13 -74 19 -117.5t100 -43.5q67 0 117.5 43.5t69.5 117.5h229q-26 -158 -150.5 -253t-305.5 -95q-165 0 -249.5 95t-58.5 253z" />
    <glyph glyph-name="kacyrillic" unicode="&#x43a;" horiz-adv-x="1211" 
d="M1355 1104l-519 -545l282 -559h-428l-202 425h-5l-90 -425h-396l235 1104h396l-87 -407h5l371 407h438z" />
    <glyph glyph-name="elcyrillic" unicode="&#x43b;" horiz-adv-x="1247" 
d="M579 542q-77 -302 -202.5 -430t-342.5 -128q-72 0 -122 15l69 325q31 -7 70 -7q120 0 187 261l135 526h932l-235 -1104h-386l173 815h-208z" />
    <glyph glyph-name="emcyrillic" unicode="&#x43c;" horiz-adv-x="1636" 
d="M361 0h-364l235 1104h526l67 -597h20l324 597h525l-235 -1104h-364l147 692h-18l-346 -606h-264l-89 606h-17z" />
    <glyph glyph-name="encyrillic" unicode="&#x43d;" horiz-adv-x="1301" 
d="M-3 0l235 1104h396l-85 -400h335l85 400h396l-235 -1104h-396l88 416h-335l-88 -416h-396z" />
    <glyph glyph-name="ocyrillic" unicode="&#x43e;" horiz-adv-x="1309" 
d="M637 275q100 0 168.5 100.5t68.5 247.5q0 93 -41 149.5t-108 56.5q-103 0 -170.5 -99t-67.5 -249q0 -92 41.5 -149t108.5 -57zM745 1132q239 0 386.5 -138.5t147.5 -362.5q0 -190 -84 -340.5t-234.5 -234.5t-341.5 -84q-239 0 -386.5 138.5t-147.5 362.5q0 190 84 340.5
t234.5 234.5t341.5 84z" />
    <glyph glyph-name="pecyrillic" unicode="&#x43f;" horiz-adv-x="1292" 
d="M718 0l173 815h-325l-173 -815h-396l235 1104h1118l-235 -1104h-397z" />
    <glyph glyph-name="ercyrillic" unicode="&#x440;" horiz-adv-x="1325" 
d="M655 296q98 0 167.5 99t69.5 240q0 83 -42 134t-112 51q-95 0 -166 -101.5t-71 -237.5q0 -84 42 -134.5t112 -50.5zM318 -353h-396l310 1457h386l-33 -154h8q126 170 343 170q170 0 268 -112t98 -306q0 -204 -70.5 -368t-196 -257t-281.5 -93q-117 0 -197.5 55
t-113.5 158h-7z" />
    <glyph glyph-name="escyrillic" unicode="&#x441;" horiz-adv-x="1210" 
d="M711 1132q214 0 355.5 -117t141.5 -294q0 -48 -1 -54h-378q0 69 -37 109.5t-101 40.5q-94 0 -152.5 -98.5t-58.5 -255.5q0 -80 38 -128t101 -48q64 0 108.5 40.5t60.5 113.5h378q-25 -210 -180.5 -339.5t-384.5 -129.5q-235 0 -375.5 129t-140.5 345q0 318 168 502
t458 184z" />
    <glyph glyph-name="tecyrillic" unicode="&#x442;" horiz-adv-x="1061" 
d="M1181 1104l-62 -289h-306l-173 -815h-397l173 815h-306l62 289h1009z" />
    <glyph glyph-name="ucyrillic" unicode="&#x443;" horiz-adv-x="1216" 
d="M80 -405h-152l64 305h106q172 0 172 97q0 18 -1 23l-111 1084h407l-1 -808h8l354 808h422l-568 -1086q-118 -226 -282 -324.5t-418 -98.5z" />
    <glyph glyph-name="efcyrillic" unicode="&#x444;" horiz-adv-x="1778" 
d="M920 -353h-392l71 335q-240 7 -377.5 134.5t-137.5 342.5q0 293 206 474t551 190l68 320h392l-68 -320q240 -7 377.5 -134.5t137.5 -342.5q0 -293 -206.5 -474t-550.5 -190zM1345 619q0 101 -47 160.5t-129 62.5l-122 -579q127 7 212.5 108.5t85.5 247.5zM488 486
q0 -101 46 -160t128 -63l122 579q-127 -6 -211.5 -108t-84.5 -248z" />
    <glyph glyph-name="hacyrillic" unicode="&#x445;" horiz-adv-x="1233" 
d="M594 327h-8l-211 -327h-436l442 554l-201 550h426l88 -327h8l211 327h436l-442 -554l201 -550h-426z" />
    <glyph glyph-name="tsecyrillic" unicode="&#x446;" horiz-adv-x="1367" 
d="M1210 -281h-357l60 281h-916l235 1104h396l-173 -814h325l173 814h397l-173 -814h155z" />
    <glyph glyph-name="checyrillic" unicode="&#x447;" horiz-adv-x="1265" 
d="M1087 0h-396l95 445h-9q-118 -130 -311 -130q-192 0 -277 133t-37 357l64 299h396l-62 -289q-19 -89 15 -137t116 -48q47 0 91 22.5t70 59.5l85 392h396z" />
    <glyph glyph-name="shacyrillic" unicode="&#x448;" horiz-adv-x="1815" 
d="M-3 0l235 1104h396l-173 -814h226l173 814h397l-173 -814h226l173 814h396l-235 -1104h-1641z" />
    <glyph glyph-name="shchacyrillic" unicode="&#x449;" horiz-adv-x="1890" 
d="M1733 -281h-358l60 281h-1438l235 1104h396l-173 -814h226l173 814h397l-173 -814h226l173 814h396l-173 -814h155z" />
    <glyph glyph-name="hardsigncyrillic" unicode="&#x44a;" horiz-adv-x="1380" 
d="M800 0h-618l173 815h-275l62 289h671l-62 -291h179q183 0 294 -93t111 -247q0 -131 -70.5 -239.5t-193.5 -171t-271 -62.5zM824 528h-133l-50 -238h133q67 0 114 41t47 100q0 46 -29.5 71.5t-81.5 25.5z" />
    <glyph glyph-name="yericyrillic" unicode="&#x44b;" horiz-adv-x="1735" 
d="M1161 0l235 1104h397l-235 -1104h-397zM639 528h-133l-51 -238h133q67 0 114.5 41t47.5 100q0 45 -29.5 71t-81.5 26zM-3 0l235 1104h396l-62 -291h179q182 0 293.5 -93t111.5 -247q0 -130 -69.5 -238t-192.5 -171.5t-274 -63.5h-617z" />
    <glyph glyph-name="softsigncyrillic" unicode="&#x44c;" horiz-adv-x="1195" 
d="M639 528h-133l-51 -238h133q67 0 114.5 41t47.5 100q0 45 -29.5 71t-81.5 26zM-3 0l235 1104h396l-62 -291h179q182 0 293.5 -93t111.5 -247q0 -130 -69.5 -238t-192.5 -171.5t-274 -63.5h-617z" />
    <glyph glyph-name="ereversedcyrillic" unicode="&#x44d;" horiz-adv-x="1215" 
d="M115 696q48 212 193 324t371 112q238 0 372 -131t134 -364q0 -298 -172 -481.5t-452 -183.5q-227 0 -354.5 112.5t-137.5 323.5h363q5 -66 40.5 -101.5t97.5 -35.5q69 0 126.5 50.5t69.5 121.5h-317l49 233h304q-1 74 -40 114t-110 40q-60 0 -107 -36t-70 -98h-360z" />
    <glyph glyph-name="iucyrillic" unicode="&#x44e;" horiz-adv-x="1827" 
d="M1147 -28q-219 0 -360.5 121.5t-160.5 322.5h-142l-88 -416h-396l235 1105h396l-85 -400h113q64 196 228 311.5t386 115.5q235 0 379.5 -138.5t144.5 -362.5q0 -288 -182.5 -473.5t-467.5 -185.5zM1165 265q89 0 158 107t69 266q0 88 -38.5 144.5t-100.5 56.5
q-91 0 -159.5 -106t-68.5 -267q0 -88 38.5 -144.5t101.5 -56.5z" />
    <glyph glyph-name="iacyrillic" unicode="&#x44f;" horiz-adv-x="1228" 
d="M643 586h137l49 231h-135q-70 0 -116 -38t-46 -97q0 -44 29.5 -70t81.5 -26zM655 0l70 329h-48l-282 -329h-458l360 395q-79 45 -121 116.5t-42 161.5q0 188 150.5 309.5t384.5 121.5h617l-235 -1104h-396z" />
    <glyph glyph-name="uni0450" unicode="&#x450;" horiz-adv-x="1244" 
d="M479 682h374q3 7 3 32q0 63 -45 103.5t-116 40.5q-77 0 -136.5 -48.5t-79.5 -127.5zM609 -27q-239 0 -380.5 134.5t-141.5 370.5q0 188 77.5 336.5t220.5 233t328 84.5q223 0 362.5 -130.5t139.5 -345.5q0 -110 -20 -190h-752q-3 -16 -3 -32q0 -79 51 -130.5t138 -51.5
q65 0 112 30t61 78h368q-43 -176 -193 -281.5t-368 -105.5zM876 1275h-314l-197 321h347z" />
    <glyph glyph-name="iocyrillic" unicode="&#x451;" horiz-adv-x="1244" 
d="M479 682h374q3 7 3 32q0 63 -45 103.5t-116 40.5q-77 0 -136.5 -48.5t-79.5 -127.5zM609 -27q-239 0 -380.5 134.5t-141.5 370.5q0 188 77.5 336.5t220.5 233t328 84.5q223 0 362.5 -130.5t139.5 -345.5q0 -110 -20 -190h-752q-3 -16 -3 -32q0 -79 51 -130.5t138 -51.5
q65 0 112 30t61 78h368q-43 -176 -193 -281.5t-368 -105.5zM576 1255q-64 0 -106.5 41t-42.5 100t42.5 100t106.5 41t106.5 -41t42.5 -100t-42.5 -100t-106.5 -41zM994 1255q-64 0 -106.5 41t-42.5 100t42.5 100t106.5 41t106.5 -41t42.5 -100t-42.5 -100t-106.5 -41z" />
    <glyph glyph-name="djecyrillic" unicode="&#x452;" horiz-adv-x="1306" 
d="M592 937h8q62 91 154 140t205 49q151 0 243 -84t92 -222q0 -60 -14 -135l-157 -736q-35 -167 -170 -260t-343 -93q-64 0 -122 5l61 278q17 -3 45 -3q63 0 96.5 22t43.5 69l140 657q7 36 7 68q0 57 -42.5 94.5t-108.5 37.5q-71 0 -126.5 -49t-71.5 -127l-138 -648h-394
l248 1168h-139l38 171h138l22 104h394l-22 -104h217l-38 -171h-216z" />
    <glyph glyph-name="gjecyrillic" unicode="&#x453;" horiz-adv-x="962" 
d="M1009 815h-423l-173 -815h-396l235 1104h819zM930 1275h-314l300 321h348z" />
    <glyph glyph-name="ecyrillic" unicode="&#x454;" horiz-adv-x="1204" 
d="M1156 409q-40 -211 -184 -324t-373 -113q-246 0 -380 129.5t-134 367.5q0 295 173.5 479t451.5 184q228 0 354.5 -112t137.5 -323h-363q-4 62 -45 99t-106 37q-69 0 -119.5 -42.5t-64.5 -113.5h318l-49 -233h-305q1 -80 43.5 -125t118.5 -45q62 0 107.5 37t58.5 98h360z
" />
    <glyph glyph-name="dzecyrillic" unicode="&#x455;" horiz-adv-x="1167" 
d="M164 760q0 170 137.5 271t367.5 101q214 0 352 -103.5t144 -268.5h-354q-3 50 -43.5 81t-104.5 31q-57 0 -90.5 -21t-33.5 -57q0 -30 27.5 -49.5t106.5 -46.5l124 -42q159 -54 225.5 -123.5t66.5 -180.5q0 -173 -142 -276.5t-380 -103.5q-241 0 -385 104t-151 282h374
q3 -56 50 -90.5t122 -34.5q57 0 88.5 19t31.5 54q0 28 -28 48t-102 46l-100 34q-155 53 -229 132.5t-74 193.5z" />
    <glyph glyph-name="icyrillic" unicode="&#x456;" horiz-adv-x="572" 
d="M-3 0l235 1104h397l-235 -1104h-397zM485 1169q-86 0 -144 55t-58 137t58 137t144 55t144 -55t58 -137t-58 -137t-144 -55z" />
    <glyph glyph-name="yicyrillic" unicode="&#x457;" horiz-adv-x="581" 
d="M317 1212q-67 0 -112 46t-45 112t45 112t112 46t112 -46t45 -112t-45 -112t-112 -46zM695 1212q-67 0 -112 46t-45 112t45 112t112 46t112 -46t45 -112t-45 -112t-112 -46zM2 0l235 1104h397l-235 -1104h-397z" />
    <glyph glyph-name="jecyrillic" unicode="&#x458;" horiz-adv-x="570" 
d="M485 1169q-86 0 -144 55t-58 137t58 137t144 55t144 -55t58 -137t-58 -137t-144 -55zM628 1104l-250 -1173q-33 -155 -157.5 -245t-303.5 -90q-97 0 -174 17l61 277q28 -7 71 -7q48 0 78 23t38 64l241 1134h396z" />
    <glyph glyph-name="ljecyrillic" unicode="&#x459;" horiz-adv-x="1872" 
d="M29 -16q-65 0 -117 15l69 325q32 -7 70 -7q120 0 184 248l138 539h932l-62 -291h178q183 0 294.5 -93.5t111.5 -246.5q0 -199 -155 -336t-381 -137h-617l173 815h-203l-71 -275q-79 -304 -202 -430t-342 -126zM1316 528h-133l-51 -238h133q67 0 114 41t47 100
q0 45 -29.5 71t-80.5 26z" />
    <glyph glyph-name="njecyrillic" unicode="&#x45a;" horiz-adv-x="1918" 
d="M1178 281h132q73 0 118 31.5t45 83.5q0 35 -29.5 55.5t-80.5 20.5h-145zM396 0h-396l235 1104h396l-77 -360h325l77 360h397l-76 -355h158q201 0 319.5 -87.5t118.5 -235.5q0 -182 -153 -304t-382 -122h-617l98 463h-324z" />
    <glyph glyph-name="tshecyrillic" unicode="&#x45b;" horiz-adv-x="1302" 
d="M592 937h8q62 91 154 140t205 49q151 0 243.5 -84.5t92.5 -221.5q0 -63 -15 -135l-144 -685h-393l131 624q7 36 7 68q0 57 -42.5 94.5t-107.5 37.5q-71 0 -127 -49t-72 -127l-137 -648h-395l249 1171h-90l40 188h90l18 84h394l-18 -84h198l-41 -188h-198z" />
    <glyph glyph-name="kjecyrillic" unicode="&#x45c;" horiz-adv-x="1211" 
d="M1310 1596l-334 -321h-314l300 321h348zM1355 1104l-519 -545l282 -559h-428l-202 425h-5l-90 -425h-396l235 1104h396l-87 -407h5l371 407h438z" />
    <glyph glyph-name="uni045D" unicode="&#x45d;" horiz-adv-x="1312" 
d="M384 0h-387l235 1104h386l-121 -566h19l467 566h387l-235 -1104h-387l124 582h-19zM971 1275h-314l-197 321h347z" />
    <glyph glyph-name="ushortcyrillic" unicode="&#x45e;" horiz-adv-x="1216" 
d="M80 -405h-152l64 305h106q172 0 172 97q0 18 -1 23l-111 1084h407l-1 -808h8l354 808h422l-568 -1086q-118 -226 -282 -324.5t-418 -98.5zM478 1605h229q-13 -74 19 -117.5t100 -43.5q67 0 117.5 43.5t69.5 117.5h229q-26 -158 -150.5 -253t-305.5 -95q-165 0 -249.5 95
t-58.5 253z" />
    <glyph glyph-name="dzhecyrillic" unicode="&#x45f;" horiz-adv-x="1292" 
d="M1115 0h-380l-60 -281h-358l60 281h-380l235 1104h396l-173 -814h325l173 814h397z" />
    <glyph glyph-name="uni0462" unicode="&#x462;" horiz-adv-x="1368" 
d="M514 314h143q109 0 176 56t67 148q0 67 -51.5 103t-146.5 36h-116zM653 969h136q255 0 394 -108t139 -307q0 -255 -180.5 -404.5t-489.5 -149.5h-629l228 1071h-143l55 261h143l44 206h424l-44 -206h347l-55 -261h-347z" />
    <glyph glyph-name="uni0463" unicode="&#x463;" horiz-adv-x="1877" 
d="M777 359q0 61 15 130l25 110q7 31 7 67q0 61 -31.5 98.5t-83.5 37.5q-62 0 -109 -48t-65 -131l-135 -623h-408l237 1104h398l-41 -187h9q55 99 145 151t206 52q140 0 223 -86.5t83 -232.5h138q210 0 323.5 -90t113.5 -256q0 -216 -155.5 -347.5t-410.5 -131.5
q-231 0 -357.5 100t-126.5 283zM1180 376q0 -46 31 -73.5t83 -27.5q60 0 99 39.5t39 100.5q0 50 -29.5 73.5t-91.5 23.5h-107l-19 -86q-5 -19 -5 -50z" />
    <glyph glyph-name="uni0472" unicode="&#x472;" horiz-adv-x="1596" 
d="M802 313q105 0 193 79t134 209q-81 -58 -164 -58q-61 0 -150.5 30.5t-138.5 30.5q-69 0 -118 -38q12 -117 77.5 -185t166.5 -68zM920 1130q-104 0 -192 -79t-134 -209q77 59 159 59q64 0 155 -30.5t140 -30.5q66 0 117 34q-11 119 -76.5 187.5t-168.5 68.5zM930 1468
q155 0 281 -47t209 -129.5t127.5 -194.5t44.5 -243q0 -195 -63.5 -361t-172 -278.5t-255.5 -176t-312 -63.5q-151 0 -276 46.5t-208 129t-128.5 195t-45.5 243.5q0 194 62.5 359.5t170.5 279t254.5 177t311.5 63.5z" />
    <glyph glyph-name="uni0473" unicode="&#x473;" horiz-adv-x="1309" 
d="M635 265q72 0 133 48t98 129q-52 -38 -118 -38q-49 0 -105.5 17t-86.5 17q-55 0 -92 -29q14 -67 59.5 -105.5t111.5 -38.5zM731 839q-84 0 -151 -60.5t-99 -161.5q66 69 146 69q53 0 109 -14.5t86 -14.5q59 0 81 21q-10 74 -56 117.5t-116 43.5zM745 1132
q239 0 386.5 -138.5t147.5 -362.5q0 -190 -84 -340.5t-234.5 -234.5t-341.5 -84q-239 0 -386.5 138.5t-147.5 362.5q0 190 84 340.5t234.5 234.5t341.5 84z" />
    <glyph glyph-name="uni0474" unicode="&#x474;" horiz-adv-x="1660" 
d="M947 0h-552l-138 1443h493l16 -1016h20l246 573q65 151 130 245t143 144q110 72 265 72q77 0 154.5 -21t129.5 -56l-184 -334q-45 21 -83 21q-43 0 -75 -24q-36 -26 -73 -95z" />
    <glyph glyph-name="uni0475" unicode="&#x475;" horiz-adv-x="1313" 
d="M1456 1063l-160 -292q-31 18 -72 18q-38 0 -66 -21q-28 -23 -58 -79l-369 -689h-464l-109 1104h399l6 -766h8l169 393q58 136 112.5 214.5t122.5 121.5q101 65 227 65q70 0 140.5 -19t113.5 -50z" />
    <glyph glyph-name="uni048A" unicode="&#x48a;" horiz-adv-x="1791" 
d="M1257 1877h229q-33 -152 -137.5 -236.5t-282.5 -84.5q-182 0 -275.5 85t-70.5 236h229q-12 -66 22 -101t103 -35q150 0 183 136zM1696 1443l-236 -1107h236l-15 -73l-281 -548h-383l142 285h-184l175 818h-20l-703 -818h-404l307 1443h414l-175 -818h20l703 818h404z" />
    </font>
</defs>
</svg>
