<?xml version="1.0" standalone="no"?>
<!DOCTYPE svg PUBLIC "-//W3C//DTD SVG 1.1//EN" "http://www.w3.org/Graphics/SVG/1.1/DTD/svg11.dtd" >
<svg xmlns="http://www.w3.org/2000/svg" xmlns:xlink="http://www.w3.org/1999/xlink" version="1.1">
<metadata>
Created by FontForge 20201107 at Wed May 31 05:50:23 2017
 By 
(c) 2015-2017 Apple Inc. All rights reserved.
</metadata>
<defs>
<font id="SFProDisplay-SemiboldItalic" horiz-adv-x="0" >
  <font-face 
    font-family="SF Pro Display"
    font-weight="600"
    font-style="italic"
    font-stretch="normal"
    units-per-em="2048"
    panose-1="0 0 7 0 0 0 0 0 0 0"
    ascent="1638"
    descent="-410"
    x-height="1062"
    cap-height="1443"
    bbox="-610 -516 2835 2162"
    underline-thickness="169"
    underline-position="-372"
    slope="-12"
    unicode-range="U+0020-FB02"
  />
<missing-glyph horiz-adv-x="2048" 
d="M-75 -494l50 229h1848l-51 -229h-1847zM19 -51l50 229h1847l-49 -229h-1848zM114 392l49 229h1847l-49 -229h-1847zM207 835l50 229h1847l-49 -229h-1848zM301 1278l50 229h1847l-49 -229h-1848zM395 1721l49 229h1848l-50 -229h-1847z" />
    <glyph glyph-name=".notdef" horiz-adv-x="2048" 
d="M-75 -494l50 229h1848l-51 -229h-1847zM19 -51l50 229h1847l-49 -229h-1848zM114 392l49 229h1847l-49 -229h-1847zM207 835l50 229h1847l-49 -229h-1848zM301 1278l50 229h1847l-49 -229h-1848zM395 1721l49 229h1848l-50 -229h-1847z" />
    <glyph glyph-name=".null" 
 />
    <glyph glyph-name="nonmarkingreturn" 
 />
    <glyph glyph-name="space" unicode=" " horiz-adv-x="467" 
 />
    <glyph glyph-name="exclam" unicode="!" horiz-adv-x="615" 
d="M411 1443h270l-229 -966h-224zM264 -21q-61 0 -103.5 42t-42.5 103q0 60 42.5 101.5t103.5 41.5q60 0 102.5 -41.5t42.5 -101.5q0 -61 -42.5 -103t-102.5 -42z" />
    <glyph glyph-name="quotedbl" unicode="&#x22;" horiz-adv-x="885" 
d="M474 896h-217l115 547h218zM872 896h-218l116 547h217z" />
    <glyph glyph-name="numbersign" unicode="#" horiz-adv-x="1277" 
d="M622 0l127 387h-284l-128 -387h-192l127 387h-228l59 194h231l99 299h-237l61 192h237l123 371h192l-121 -371h283l123 371h194l-123 -371h241l-60 -192h-243l-100 -299h248l-59 -194h-250l-127 -387h-193zM512 567h303l108 325h-303z" />
    <glyph glyph-name="dollar" unicode="$" horiz-adv-x="1294" 
d="M774 591l-86 -402q121 3 191.5 61t70.5 148q0 65 -41.5 109.5t-134.5 83.5zM696 876l80 378q-108 -3 -175.5 -58.5t-67.5 -137.5q0 -61 40.5 -104.5t122.5 -77.5zM824 828l36 -13q174 -64 260.5 -157.5t86.5 -228.5q0 -205 -151.5 -327t-396.5 -122h-16l-25 -119h-138
l29 134q-172 36 -279 147t-114 265h247q10 -75 59.5 -127.5t130.5 -74.5l92 434l-56 20q-151 55 -232.5 152.5t-81.5 225.5q0 188 145 306.5t382 118.5h18l28 131h139l-32 -149q157 -39 252.5 -148t97.5 -252h-242q-20 140 -153 190z" />
    <glyph glyph-name="percent" unicode="%" horiz-adv-x="1705" 
d="M204 1016q0 196 104 322t263 126q134 0 210 -76.5t76 -210.5q0 -196 -105.5 -323.5t-263.5 -127.5q-133 0 -208.5 77.5t-75.5 212.5zM490 887q60 0 107.5 93.5t47.5 211.5q0 53 -20 82.5t-56 29.5q-60 0 -107 -93t-47 -212q0 -53 20 -82.5t55 -29.5zM370 0h-228l721 765
l640 678h226l-701 -745zM1016 270q0 196 104 322.5t263 126.5q133 0 209.5 -77t76.5 -211q0 -196 -105.5 -323.5t-264.5 -127.5q-132 0 -207.5 77.5t-75.5 212.5zM1302 141q59 0 107 94t48 211q0 54 -20 83t-56 29q-60 0 -107 -92.5t-47 -212.5q0 -53 20 -82.5t55 -29.5z
" />
    <glyph glyph-name="ampersand" unicode="&#x26;" horiz-adv-x="1420" 
d="M602 1099q0 -43 22 -90.5t73 -115.5q133 43 196.5 110t63.5 145q0 64 -45 102.5t-116 38.5q-80 0 -137 -55.5t-57 -134.5zM584 166q169 0 290 80l-284 423q-2 -1 -25.5 -9.5t-24.5 -8.5q-116 -42 -177 -109.5t-61 -150.5q0 -98 77 -161.5t205 -63.5zM1033 0l-55 83
q-178 -110 -412 -110q-140 0 -255 51.5t-181.5 142.5t-66.5 203q0 284 364 426l68 28q-116 168 -116 291q0 149 120.5 252t298.5 103q163 0 271.5 -85.5t108.5 -214.5q0 -131 -95 -238.5t-289 -178.5l244 -353q108 132 122 322l3 40h217l-4 -46q-24 -283 -221 -493l148 -223
h-270z" />
    <glyph glyph-name="quotesingle" unicode="'" horiz-adv-x="487" 
d="M474 896h-217l115 547h218z" />
    <glyph glyph-name="parenleft" unicode="(" horiz-adv-x="708" 
d="M524 -310h-223q-52 111 -85 296.5t-33 365.5q0 315 120.5 601.5t327.5 489.5h265q-219 -216 -340.5 -505.5t-120.5 -619.5q1 -375 89 -628z" />
    <glyph glyph-name="parenright" unicode=")" horiz-adv-x="708" 
d="M286 1443h223q53 -109 85.5 -294.5t32.5 -367.5q0 -314 -120.5 -600.5t-327.5 -490.5h-265q219 217 340.5 506t120.5 620q-1 374 -89 627z" />
    <glyph glyph-name="asterisk" unicode="*" horiz-adv-x="982" 
d="M916 824l-212 185l-31 -287l-163 17l69 279l-263 -132l-58 153l278 96l-230 147l98 133l211 -187l32 291l164 -17l-67 -277l259 132l58 -156l-285 -97l237 -149z" />
    <glyph glyph-name="plus" unicode="+" horiz-adv-x="1294" 
d="M783 462l-88 -417h-222l88 417h-414l47 227h415l91 431h222l-92 -431h421l-46 -227h-422z" />
    <glyph glyph-name="comma" unicode="," horiz-adv-x="552" 
d="M163 -307h-192l199 547h243z" />
    <glyph glyph-name="hyphen" unicode="-" horiz-adv-x="830" 
d="M119 464l46 220h650l-46 -220h-650z" />
    <glyph glyph-name="hyphen" unicode="&#x2011;" horiz-adv-x="830" 
d="M119 464l46 220h650l-46 -220h-650z" />
    <glyph glyph-name="period" unicode="." horiz-adv-x="553" 
d="M235 -11q-60 0 -102 43t-42 104t42 103.5t102 42.5t102 -42.5t42 -103.5t-42 -104t-102 -43z" />
    <glyph glyph-name="slash" unicode="/" horiz-adv-x="708" 
d="M95 -310h-230l851 1753h229z" />
    <glyph glyph-name="zero" unicode="0" horiz-adv-x="1338" 
d="M666 -24q-229 0 -366 147.5t-137 394.5q0 274 86.5 490.5t241 337.5t349.5 121q229 0 366 -148t137 -395q0 -275 -86 -491.5t-240.5 -336.5t-350.5 -120zM426 523q0 -155 67 -243.5t184 -88.5q110 0 202.5 97t146 265t53.5 367q0 154 -66 242.5t-182 88.5
q-110 0 -203.5 -97.5t-147.5 -265t-54 -365.5z" />
    <glyph glyph-name="one" unicode="1" horiz-adv-x="962" 
d="M404 0l251 1176h-5l-427 -261l55 264l433 264h257l-307 -1443h-257z" />
    <glyph glyph-name="two" unicode="2" horiz-adv-x="1230" 
d="M249 1021q19 197 168.5 321.5t367.5 124.5q201 0 332.5 -108t131.5 -274q0 -92 -36 -167.5t-121.5 -163t-256.5 -225.5l-378 -306l-1 -6h663l-45 -217h-1020l40 195l580 470q192 156 255.5 234.5t63.5 160.5q0 86 -62.5 140t-161.5 54q-109 0 -183 -62t-94 -171h-243z
" />
    <glyph glyph-name="three" unicode="3" horiz-adv-x="1267" 
d="M504 639l41 203h179q135 0 217 59.5t82 158.5q0 88 -66 141.5t-174 53.5q-104 0 -178 -52t-90 -137h-240q28 183 172.5 292t357.5 109q205 0 337 -105.5t132 -269.5q0 -136 -93.5 -236.5t-238.5 -120.5l-1 -5q116 -29 180.5 -109t64.5 -197q0 -194 -157.5 -321
t-398.5 -127t-386.5 118t-140.5 309q0 18 2 29h242q-1 -109 79.5 -175.5t214.5 -66.5q128 0 208.5 66t80.5 171q0 101 -66.5 156.5t-187.5 55.5h-172z" />
    <glyph glyph-name="four" unicode="4" horiz-adv-x="1293" 
d="M727 0l58 269h-717l42 240q122 163 307 380.5t481 553.5h384l-204 -956h194l-45 -218h-194l-58 -269h-248zM352 486l-1 -5h482l164 759h-6q-395 -441 -639 -754z" />
    <glyph glyph-name="five" unicode="5" horiz-adv-x="1248" 
d="M660 -24q-150 0 -269 56t-186 156t-68 226v3l1 13h241q9 -106 90 -171.5t202 -65.5q131 0 216 86t85 219q0 119 -75.5 192t-194.5 73q-70 0 -139 -32t-113 -86h-248l243 798h871l-47 -217h-660l-123 -384h6q52 54 129 84t168 30q188 0 309.5 -123t121.5 -317
q0 -234 -158 -387t-402 -153z" />
    <glyph glyph-name="six" unicode="6" horiz-adv-x="1297" 
d="M1260 510q-6 -232 -165 -383t-400 -151q-80 0 -152.5 18t-142 63.5t-119 114.5t-78 178t-24.5 247q5 240 93.5 438t247 315t355.5 117q204 0 339 -116.5t144 -300.5h-253q-16 93 -82 146.5t-166 53.5q-146 0 -258.5 -133.5t-152.5 -352.5h6q67 88 162.5 136t210.5 48
q194 0 316.5 -123t118.5 -315zM743 749q-127 0 -217.5 -83.5t-93.5 -203.5q-3 -116 75 -193.5t197 -77.5q130 0 214 81.5t87 209.5q4 116 -70 191.5t-192 75.5z" />
    <glyph glyph-name="seven" unicode="7" horiz-adv-x="1125" 
d="M74 0l889 1220v6h-709l45 217h984l-46 -220l-878 -1223h-285z" />
    <glyph glyph-name="eight" unicode="8" horiz-adv-x="1302" 
d="M1229 415q0 -125 -75.5 -226t-209.5 -158t-300 -57q-239 0 -391.5 111t-152.5 284q0 154 111.5 269t287.5 144l1 5q-91 37 -142.5 109.5t-51.5 163.5q0 113 69 206.5t190 146.5t268 53q210 0 348 -102.5t138 -258.5q0 -134 -91 -234.5t-239 -129.5l-1 -6
q112 -37 176.5 -122.5t64.5 -197.5zM686 650q-136 0 -225.5 -72.5t-89.5 -181.5q0 -96 79.5 -156.5t206.5 -60.5q133 0 222 73t89 182q0 95 -79 155.5t-203 60.5zM555 1036q0 -83 66 -136.5t169 -53.5q114 0 192 66.5t78 162.5q0 84 -66.5 137.5t-172.5 53.5
q-113 0 -189.5 -66.5t-76.5 -163.5z" />
    <glyph glyph-name="nine" unicode="9" horiz-adv-x="1296" 
d="M757 692q127 0 215.5 81t91.5 201q3 118 -72 197t-197 79q-127 0 -211 -83t-87 -212q-3 -116 70 -189.5t190 -73.5zM243 935q7 233 165.5 382.5t399.5 149.5q75 0 145.5 -18t139.5 -62t119 -110t79.5 -171.5t26.5 -237.5q-4 -149 -38 -285t-95 -246t-143 -191
t-187.5 -125.5t-223.5 -44.5q-205 0 -343.5 115t-149.5 295h254q13 -88 80.5 -140.5t168.5 -52.5q150 0 264 133t151 351h-6q-135 -183 -367 -183q-192 0 -318 125.5t-122 315.5z" />
    <glyph glyph-name="colon" unicode=":" horiz-adv-x="553" 
d="M235 -11q-60 0 -102 43t-42 104t42 103.5t102 42.5t102 -42.5t42 -103.5t-42 -104t-102 -43zM390 713q-60 0 -102 43t-42 104q0 62 41.5 104.5t102.5 42.5q60 0 101.5 -42.5t41.5 -104.5q0 -61 -41.5 -104t-101.5 -43z" />
    <glyph glyph-name="semicolon" unicode=";" horiz-adv-x="553" 
d="M390 713q-60 0 -102 43t-42 104q0 62 41.5 104.5t102.5 42.5q60 0 101.5 -42.5t41.5 -104.5q0 -61 -41.5 -104t-101.5 -43zM163 -307h-192l199 547h243z" />
    <glyph glyph-name="less" unicode="&#x3c;" horiz-adv-x="1294" 
d="M1091 237l-51 -251l-823 502l42 201l1035 498l-55 -264l-734 -340l-3 -13z" />
    <glyph glyph-name="equal" unicode="=" horiz-adv-x="1294" 
d="M1141 244h-1021l46 222h1021zM1234 686h-1022l46 222h1022z" />
    <glyph glyph-name="greater" unicode="&#x3e;" horiz-adv-x="1294" 
d="M314 936l51 251l823 -502l-42 -201l-1035 -499l55 265l734 340l2 13z" />
    <glyph glyph-name="question" unicode="?" horiz-adv-x="1028" 
d="M197 1066q29 177 157.5 283.5t329.5 106.5q200 0 324 -99.5t124 -249.5q0 -127 -77 -232.5t-209 -164.5q-111 -49 -157 -93.5t-60 -118.5l-9 -49h-237l14 70q24 128 81 196t176 121q117 54 167.5 112.5t50.5 136.5q0 68 -54 114.5t-148 46.5q-86 0 -149 -48t-87 -132
h-237zM428 -21q-61 0 -103 42t-42 103q0 60 42 101.5t103 41.5t103 -41.5t42 -101.5q0 -61 -42 -103t-103 -42z" />
    <glyph glyph-name="at" unicode="@" horiz-adv-x="1812" 
d="M1052 1442q222 0 396 -84t270.5 -236t96.5 -347q0 -265 -132 -436t-337 -171q-93 0 -156 40t-69 104q0 2 0.5 6t0.5 5l-18 -1q-39 -68 -103.5 -104.5t-145.5 -36.5q-136 0 -220 97t-84 254q0 207 116 346.5t287 139.5q88 0 155 -45.5t83 -116.5l17 -1l26 125h189
l-116 -532q-4 -17 -4 -42q0 -38 22 -59.5t62 -21.5q71 0 131.5 59.5t95 161.5t34.5 222q0 236 -168 380t-443 144q-154 0 -291 -58t-235.5 -158t-155.5 -239.5t-57 -296.5q0 -283 186.5 -456t491.5 -173q136 0 189 22l-32 -153q-92 -19 -190 -19q-177 0 -328 57.5
t-257.5 159t-166.5 246t-60 313.5q0 258 118.5 465t328.5 323.5t473 116.5zM1148 652q0 87 -45 139t-120 52q-97 0 -163 -86t-66 -214q0 -89 43.5 -141.5t117.5 -52.5q97 0 165 88.5t68 214.5z" />
    <glyph glyph-name="A" unicode="A" horiz-adv-x="1356" 
d="M867 1177l-330 -604h410l-75 604h-5zM1011 0l-45 369h-534l-204 -369h-277l822 1443h293l200 -1443h-255z" />
    <glyph glyph-name="B" unicode="B" horiz-adv-x="1328" 
d="M721 0h-661l307 1443h562q185 0 295.5 -86.5t110.5 -227.5q0 -137 -90 -238.5t-232 -135.5l-1 -6q117 -21 185.5 -100.5t68.5 -189.5q0 -202 -152 -330.5t-393 -128.5zM583 1248l-86 -404h259q141 0 229 65.5t88 168.5q0 83 -61 126.5t-178 43.5h-251zM360 205h322
q142 0 231 71t89 182q0 95 -65.5 144t-193.5 49h-287z" />
    <glyph glyph-name="C" unicode="C" horiz-adv-x="1446" 
d="M1248 937q0 2 -0.5 11.5t-0.5 18.5q-10 124 -101 198.5t-227 74.5q-144 0 -256.5 -81t-174.5 -225t-62 -325q0 -188 95 -296.5t259 -108.5q132 0 233 70t146 192h254q-52 -222 -228 -356t-416 -134q-278 0 -443 168t-165 452q0 188 57 349.5t158 276.5t245 180t313 65
q244 0 402 -135t168 -355q0 -29 -1 -40h-255z" />
    <glyph glyph-name="D" unicode="D" horiz-adv-x="1438" 
d="M367 1443h478q278 0 438.5 -152.5t160.5 -422.5q0 -253 -96.5 -450.5t-272.5 -307.5t-403 -110h-610zM583 1222l-215 -1000h275q235 0 385.5 170.5t150.5 442.5q0 187 -99.5 287t-288.5 100h-208z" />
    <glyph glyph-name="E" unicode="E" horiz-adv-x="1158" 
d="M1041 223l-46 -223h-935l307 1443h935l-47 -223h-673l-84 -383h637l-44 -210h-636l-88 -404h674z" />
    <glyph glyph-name="F" unicode="F" horiz-adv-x="1111" 
d="M326 0h-266l307 1443h921l-47 -223h-654l-91 -420h598l-45 -215h-598z" />
    <glyph glyph-name="G" unicode="G" horiz-adv-x="1481" 
d="M1488 755l-40 -198q-55 -277 -233.5 -429t-442.5 -152q-281 0 -446 172t-165 453q0 131 30.5 255.5t94.5 235.5t153 194.5t215 132t273 48.5q256 0 415.5 -138.5t164.5 -348.5q0 -3 -0.5 -10t-0.5 -10h-253q-9 128 -97.5 205t-232.5 77q-100 0 -183.5 -36t-141 -97
t-97.5 -142.5t-58.5 -171.5t-18.5 -184q0 -188 95 -299.5t269 -111.5q149 0 258 87.5t140 230.5l7 36h-346l42 201h599z" />
    <glyph glyph-name="H" unicode="H" horiz-adv-x="1479" 
d="M1280 0h-264l134 624h-693l-133 -624h-264l307 1443h264l-128 -598h692l128 598h264z" />
    <glyph glyph-name="I" unicode="I" horiz-adv-x="520" 
d="M321 0h-261l307 1443h261z" />
    <glyph glyph-name="J" unicode="J" horiz-adv-x="1100" 
d="M56 366q0 6 0.5 20.5t0.5 19.5h253v-8q0 -86 52.5 -136t142.5 -50q180 0 229 230l213 1001h261l-222 -1044q-43 -205 -169 -314t-325 -109q-192 0 -314 109.5t-122 280.5z" />
    <glyph glyph-name="K" unicode="K" horiz-adv-x="1322" 
d="M321 0h-261l307 1443h261l-142 -662h5l708 662h315l-692 -657l416 -786h-291l-334 629l-196 -179z" />
    <glyph glyph-name="L" unicode="L" horiz-adv-x="1102" 
d="M1027 226l-46 -226h-921l307 1443h261l-260 -1217h659z" />
    <glyph glyph-name="M" unicode="M" horiz-adv-x="1752" 
d="M295 0h-234l306 1443h293l203 -1107h6l669 1107h321l-307 -1443h-235l225 1048h-8l-637 -1041h-182l-190 1041h-7z" />
    <glyph glyph-name="N" unicode="N" horiz-adv-x="1458" 
d="M315 0h-255l307 1443h228l488 -1040h5l223 1040h254l-307 -1443h-227l-488 1040h-6z" />
    <glyph glyph-name="O" unicode="O" horiz-adv-x="1540" 
d="M924 1241q-142 0 -257.5 -84.5t-179 -228t-63.5 -315.5q0 -188 97.5 -299.5t261.5 -111.5q142 0 257.5 84.5t179.5 228t64 315.5q0 188 -98 299.5t-262 111.5zM779 -24q-281 0 -449.5 172.5t-168.5 451.5q0 243 99.5 441.5t275 312t391.5 113.5q283 0 451.5 -172.5
t168.5 -451.5q0 -182 -59 -343t-160.5 -276t-244 -181.5t-304.5 -66.5z" />
    <glyph glyph-name="P" unicode="P" horiz-adv-x="1266" 
d="M367 1443h520q201 0 326.5 -112.5t125.5 -298.5q0 -256 -170.5 -407.5t-442.5 -151.5h-303l-101 -473h-261zM583 1227l-116 -540h252q163 0 259.5 86.5t96.5 235.5q0 105 -68 161.5t-188 56.5h-236z" />
    <glyph glyph-name="Q" unicode="Q" horiz-adv-x="1540" 
d="M1306 -149h-242l-77 156q-101 -31 -208 -31q-281 0 -449.5 172.5t-168.5 451.5q0 243 99.5 441.5t275 312t391.5 113.5q283 0 451.5 -172.5t168.5 -451.5q0 -234 -96 -428.5t-266 -311.5zM783 202q53 0 112 14l-116 239h230l65 -119q98 79 154 209.5t56 284.5
q0 188 -98 299.5t-262 111.5q-142 0 -257.5 -84.5t-179 -228t-63.5 -315.5q0 -188 97.5 -299.5t261.5 -111.5z" />
    <glyph glyph-name="R" unicode="R" horiz-adv-x="1309" 
d="M479 746h297q142 0 230.5 77t88.5 198q0 97 -60 152.5t-165 55.5h-287zM367 1443h551q208 0 325 -109t117 -289q0 -167 -100 -297.5t-273 -176.5l188 -571h-270l-173 541h-295l-116 -541h-261z" />
    <glyph glyph-name="S" unicode="S" horiz-adv-x="1277" 
d="M88 424h251q13 -103 103 -167.5t229 -64.5q127 0 207 54t80 148q0 77 -51 123.5t-175 84.5l-113 35q-183 57 -271.5 151.5t-88.5 239.5q0 196 148.5 317.5t383.5 121.5q241 0 388.5 -116t148.5 -316h-246q-5 97 -82 156.5t-207 59.5q-127 0 -199 -57t-72 -138
q0 -70 52.5 -116.5t169.5 -82.5l116 -36q187 -57 275.5 -148.5t88.5 -233.5q0 -96 -38 -180t-107.5 -147t-176 -99.5t-235.5 -36.5q-165 0 -294 52.5t-205.5 155t-79.5 240.5z" />
    <glyph glyph-name="T" unicode="T" horiz-adv-x="1241" 
d="M682 0h-261l260 1220h-443l46 223h1147l-46 -223h-443z" />
    <glyph glyph-name="U" unicode="U" horiz-adv-x="1453" 
d="M708 -24q-251 0 -394 129.5t-144 332.5q-1 59 13 128l184 877h261l-183 -868q-14 -60 -12 -113q4 -119 82 -186t221 -67q140 0 237.5 81.5t128.5 226.5l197 926h261l-209 -981q-49 -231 -215.5 -358.5t-427.5 -127.5z" />
    <glyph glyph-name="V" unicode="V" horiz-adv-x="1342" 
d="M751 0h-293l-200 1443h269l131 -1139h5l604 1139h291z" />
    <glyph glyph-name="W" unicode="W" horiz-adv-x="1934" 
d="M1113 1033l-510 -1033h-248l-80 1443h254l31 -1073h6l519 1073h220l76 -1072h6l479 1072h268l-686 -1443h-247l-83 1033h-5z" />
    <glyph glyph-name="X" unicode="X" horiz-adv-x="1359" 
d="M-34 0l638 732l-323 711h284l233 -522h8l441 522h314l-639 -730l324 -713h-285l-234 525h-8l-443 -525h-310z" />
    <glyph glyph-name="Y" unicode="Y" horiz-adv-x="1312" 
d="M718 0h-261l121 569l-320 874h270l223 -632h6l483 632h288l-693 -890z" />
    <glyph glyph-name="Z" unicode="Z" horiz-adv-x="1269" 
d="M20 0l37 176l962 1039l1 5h-719l47 223h1049l-37 -176l-961 -1039l-1 -5h757l-46 -223h-1089z" />
    <glyph glyph-name="bracketleft" unicode="[" horiz-adv-x="708" 
d="M420 1443h508l-40 -191h-269l-294 -1371h269l-40 -191h-508z" />
    <glyph glyph-name="backslash" unicode="\" horiz-adv-x="708" 
d="M321 -310l-53 1753h221l53 -1753h-221z" />
    <glyph glyph-name="bracketright" unicode="]" horiz-adv-x="708" 
d="M390 -310h-509l40 192h270l294 1370h-270l40 191h509z" />
    <glyph glyph-name="asciicircum" unicode="^" horiz-adv-x="958" 
d="M609 1222l-285 -409h-226l441 616h234l177 -616h-220l-105 409h-16z" />
    <glyph glyph-name="underscore" unicode="_" horiz-adv-x="1024" 
d="M-158 -315l45 215h1069l-44 -215h-1070z" />
    <glyph glyph-name="grave" unicode="`" horiz-adv-x="1079" 
d="M954 1231h-195l-187 308h231z" />
    <glyph glyph-name="a" unicode="a" horiz-adv-x="1070" 
d="M473 173q97 0 172.5 55.5t94.5 142.5l23 101l-248 -12q-101 -4 -158.5 -44.5t-57.5 -107.5q0 -61 48 -98t126 -37zM383 -17q-137 0 -231 83t-94 209q0 159 119 250t331 100l289 12l14 64q4 17 4 44q0 65 -48.5 102.5t-135.5 37.5q-88 0 -143.5 -37.5t-70.5 -102.5h-238
q26 153 153.5 246t317.5 93q182 0 294.5 -86.5t112.5 -224.5q0 -51 -8 -88l-145 -685h-236l27 128h-4q-51 -67 -131.5 -106t-176.5 -39z" />
    <glyph glyph-name="b" unicode="b" horiz-adv-x="1198" 
d="M661 -17q-122 0 -216 63.5t-122 162.5h-5l-45 -209h-235l308 1443h243l-115 -541h5q45 80 133 129t189 49q176 0 279 -118t103 -325q0 -130 -37.5 -248.5t-104 -208.5t-165.5 -143.5t-215 -53.5zM625 192q90 0 161 56.5t109.5 152t38.5 210.5q0 123 -59 193.5t-164 70.5
q-92 0 -166 -58.5t-115 -156.5t-41 -213q0 -114 65 -184.5t171 -70.5z" />
    <glyph glyph-name="c" unicode="c" horiz-adv-x="1085" 
d="M666 1084q201 0 320.5 -110t119.5 -269v-24h-236q-2 84 -59 138.5t-153 54.5q-136 0 -222 -118.5t-86 -305.5q0 -121 59 -191.5t157 -70.5q89 0 153.5 48.5t92.5 132.5h236q-33 -171 -169 -281t-320 -110q-214 0 -335 126.5t-121 335.5q0 283 156 463.5t407 180.5z" />
    <glyph glyph-name="d" unicode="d" horiz-adv-x="1206" 
d="M482 -17q-175 0 -278 118.5t-103 319.5q0 186 69.5 337t191 236.5t270.5 85.5q121 0 211 -61.5t116 -157.5h6l126 582h244l-307 -1443h-242l34 162h-5q-53 -82 -141 -130.5t-192 -48.5zM572 188q137 0 230.5 123.5t93.5 304.5q0 113 -63.5 184t-168.5 71
q-133 0 -223.5 -120t-90.5 -301q0 -121 59.5 -191.5t162.5 -70.5z" />
    <glyph glyph-name="e" unicode="e" horiz-adv-x="1117" 
d="M365 640h499q1 8 1 30q0 93 -56 156t-162 63q-104 0 -178.5 -69t-103.5 -180zM562 -22q-217 0 -337.5 129t-120.5 345q0 176 69 320t195.5 228t285.5 84q204 0 325 -122.5t121 -329.5q0 -93 -12 -158h-750q-1 -11 -1 -34q0 -121 63 -193t169 -72q91 0 156 42.5t95 116.5
h233q-42 -157 -176 -256.5t-315 -99.5z" />
    <glyph glyph-name="f" unicode="f" horiz-adv-x="683" 
d="M107 0l182 861h-171l40 195h169l22 113q30 154 124 225t264 71q79 0 158 -17l-37 -180q-33 10 -97 10q-75 0 -116.5 -32.5t-55.5 -100.5l-18 -89h232l-41 -195h-228l-181 -861h-246z" />
    <glyph glyph-name="g" unicode="g" horiz-adv-x="1194" 
d="M479 -401q-206 0 -334 90t-128 236h244q10 -64 70.5 -102t154.5 -38q238 0 297 242l35 152h-9q-48 -78 -135.5 -124t-188.5 -46q-173 0 -278 116.5t-105 310.5q0 100 23.5 195t69.5 176t109 142t147.5 96t179.5 35q120 0 208 -63t116 -163h9l43 208h240l-220 -1041
q-44 -205 -188 -313.5t-360 -108.5zM573 200q94 0 168.5 57.5t113.5 152t39 206.5t-65.5 183.5t-165.5 71.5q-138 0 -226 -119.5t-88 -296.5q0 -116 59 -185.5t165 -69.5z" />
    <glyph glyph-name="h" unicode="h" horiz-adv-x="1171" 
d="M38 0l307 1443h245l-117 -544h6q52 82 140.5 132.5t202.5 50.5q149 0 241.5 -89.5t92.5 -220.5q0 -56 -14 -126l-140 -646h-244l131 605q11 53 11 90q0 81 -54.5 131t-146.5 50q-104 0 -181.5 -67.5t-100.5 -176.5l-134 -632h-245z" />
    <glyph glyph-name="i" unicode="i" horiz-adv-x="462" 
d="M38 0l226 1062h246l-225 -1062h-247zM445 1199q-58 0 -98 40t-40 98t40 98t98 40t98.5 -40t40.5 -98t-40.5 -98t-98.5 -40z" />
    <glyph glyph-name="j" unicode="j" horiz-adv-x="462" 
d="M451 1199q-58 0 -98.5 40t-40.5 98t40.5 98t98.5 40t98 -40t40 -98t-40 -98t-98 -40zM510 1062l-242 -1135q-32 -149 -128.5 -224.5t-250.5 -76.5q-58 0 -109 8l43 196q32 -5 57 -5q64 0 98.5 30.5t49.5 100.5l237 1106h245z" />
    <glyph glyph-name="k" unicode="k" horiz-adv-x="1051" 
d="M284 0h-246l308 1443h245l-172 -802h6l478 421h296l-510 -449l309 -613h-269l-237 474l-129 -107z" />
    <glyph glyph-name="l" unicode="l" horiz-adv-x="473" 
d="M44 0l307 1443h246l-307 -1443h-246z" />
    <glyph glyph-name="m" unicode="m" horiz-adv-x="1717" 
d="M33 0l225 1062h235l-36 -169h6q43 83 128 137t184 54q105 0 179 -54t96 -136h4q57 85 147 137.5t206 52.5q129 0 213.5 -82.5t84.5 -210.5q0 -62 -14 -124l-140 -667h-245l133 628q10 47 10 88q0 70 -43 115t-118 45q-83 0 -150 -60t-88 -162l-139 -654h-239l133 628
q11 52 11 88q0 70 -43 115t-118 45q-82 0 -150 -61.5t-88 -159.5l-139 -655h-245z" />
    <glyph glyph-name="n" unicode="n" horiz-adv-x="1155" 
d="M33 0l225 1062h235l-34 -163h5q55 87 144.5 136t200.5 49q144 0 237.5 -86.5t93.5 -221.5q0 -58 -14 -130l-137 -646h-244l128 605q11 51 11 94q0 81 -54 129t-143 48q-100 0 -175.5 -66.5t-99.5 -177.5l-134 -632h-245z" />
    <glyph glyph-name="o" unicode="o" horiz-adv-x="1161" 
d="M576 184q137 0 228 121t91 300q0 124 -61 198.5t-164 74.5q-138 0 -228.5 -120t-90.5 -301q0 -124 61 -198.5t164 -74.5zM677 1084q211 0 339 -129.5t128 -342.5q0 -133 -43.5 -251t-119.5 -202t-182.5 -132.5t-228.5 -48.5q-211 0 -339 130t-128 343q0 133 43.5 250.5
t119.5 201.5t182.5 132.5t228.5 48.5z" />
    <glyph glyph-name="p" unicode="p" horiz-adv-x="1193" 
d="M617 192q134 0 224 119.5t90 298.5q0 124 -59 194.5t-162 70.5q-94 0 -169 -60t-115 -157t-40 -211t63.5 -184.5t167.5 -70.5zM201 -350h-242l299 1412h240l-35 -163h4q54 84 143 132.5t190 48.5q175 0 276.5 -118.5t101.5 -320.5q0 -187 -68.5 -337.5t-189 -235.5
t-269.5 -85q-119 0 -207 60.5t-119 160.5h-6z" />
    <glyph glyph-name="q" unicode="q" horiz-adv-x="1198" 
d="M572 188q137 0 230.5 123.5t93.5 304.5q0 114 -63 184.5t-168 70.5q-134 0 -224 -120.5t-90 -300.5q0 -122 58.5 -192t162.5 -70zM951 -350h-243l113 517h-4q-55 -85 -143.5 -134.5t-191.5 -49.5q-176 0 -278 118t-102 320q0 184 69.5 335t191 237.5t270.5 86.5
q120 0 211 -61.5t121 -157.5h6l42 201h238z" />
    <glyph glyph-name="r" unicode="r" horiz-adv-x="760" 
d="M33 0l226 1062h236l-30 -145h5q100 161 284 161q76 0 130 -25l-49 -228q-60 28 -141 28q-120 0 -191 -66t-100 -198l-125 -589h-245z" />
    <glyph glyph-name="s" unicode="s" horiz-adv-x="1014" 
d="M177 752q0 147 117 239t307 92q183 0 299.5 -93.5t119.5 -242.5h-226q-5 67 -60 110t-136 43q-84 0 -134.5 -35t-50.5 -90q0 -47 35 -76t127 -58l101 -32q146 -47 209 -113.5t63 -172.5q0 -152 -123.5 -248.5t-317.5 -96.5q-201 0 -325 96t-129 249h238q9 -72 69 -116
t156 -44q82 0 135 39t53 98q0 43 -32 68.5t-123 53.5l-93 30q-146 47 -212.5 118.5t-66.5 181.5z" />
    <glyph glyph-name="t" unicode="t" horiz-adv-x="698" 
d="M461 -11q-137 0 -217 57.5t-80 167.5q0 47 10 101l117 541h-158l41 195h158l54 260h245l-55 -260h221l-41 -195h-220l-106 -494q-10 -40 -10 -76q0 -101 133 -101q39 0 72 5l-41 -189q-57 -12 -123 -12z" />
    <glyph glyph-name="u" unicode="u" horiz-adv-x="1155" 
d="M1208 1062l-225 -1062h-236l35 158h-6q-44 -76 -137.5 -128t-206.5 -52q-150 0 -239 85t-89 218q0 73 15 145l133 636h246l-127 -597q-11 -50 -11 -98q0 -176 188 -176q106 0 182 67t100 178l133 626h245z" />
    <glyph glyph-name="v" unicode="v" horiz-adv-x="1040" 
d="M169 1063h244l82 -816h6l417 816h265l-593 -1063h-276z" />
    <glyph glyph-name="w" unicode="w" horiz-adv-x="1550" 
d="M1684 1062l-506 -1062h-261l-43 775h-5l-363 -775h-266l-62 1062h234l18 -807h5l369 807h241l34 -807h5l352 807h248z" />
    <glyph glyph-name="x" unicode="x" horiz-adv-x="1043" 
d="M534 367h-6l-290 -367h-277l455 541l-230 521h260l150 -366h5l290 366h278l-455 -541l229 -521h-259z" />
    <glyph glyph-name="y" unicode="y" horiz-adv-x="1049" 
d="M93 -388q-26 0 -71.5 3.5t-56.5 7.5l38 201q25 -10 98 -10q136 0 196 145q0 1 11.5 26t11.5 26l-151 1051h246l85 -834h5l421 834h265l-624 -1130q-96 -178 -206 -249t-268 -71z" />
    <glyph glyph-name="z" unicode="z" horiz-adv-x="1015" 
d="M7 0l32 154l697 703l1 5h-540l42 200h849l-36 -168l-678 -689l-1 -5h539l-42 -200h-863z" />
    <glyph glyph-name="braceleft" unicode="{" horiz-adv-x="708" 
d="M213 235q11 52 11 87q0 66 -42.5 93.5t-138.5 27.5l51 246q117 0 175.5 46t83.5 163l43 194q40 190 148 270.5t304 80.5h80l-40 -191h-43q-98 0 -148 -48t-76 -164l-49 -228q-24 -113 -96.5 -169.5t-194.5 -68.5l-4 -17q105 -17 150 -62.5t45 -119.5q0 -29 -11 -86
l-43 -197q-11 -59 -11 -89q0 -62 33 -94t110 -32h44l-39 -187h-79q-141 0 -227.5 67t-86.5 196q0 45 13 110z" />
    <glyph glyph-name="bar" unicode="|" horiz-adv-x="708" 
d="M331 -310h-226l373 1753h227z" />
    <glyph glyph-name="braceright" unicode="}" horiz-adv-x="708" 
d="M597 898q-11 -52 -11 -87q0 -66 42.5 -93.5t138.5 -27.5l-51 -246q-117 0 -175.5 -46t-83.5 -164l-43 -193q-40 -190 -148 -270.5t-304 -80.5h-80l40 191h43q98 0 148 48t76 164l49 228q24 112 96.5 169t194.5 69l4 17q-105 17 -150 62.5t-45 119.5q0 30 11 85l43 198
q11 57 11 88q0 62 -33 94.5t-110 32.5h-44l39 187h79q141 0 227.5 -67t86.5 -196q0 -45 -13 -110z" />
    <glyph glyph-name="asciitilde" unicode="~" horiz-adv-x="1295" 
d="M903 433q-57 0 -105.5 21.5t-81.5 52.5t-62 62.5t-60 53t-62 21.5q-102 0 -133 -161h-208q26 185 117.5 284.5t220.5 99.5q57 0 105.5 -22t81 -53t61 -62t59 -53t61.5 -22q103 0 134 163h208q-26 -186 -115.5 -285.5t-220.5 -99.5z" />
    <glyph glyph-name="nonbreakingspace" unicode="&#xa0;" horiz-adv-x="467" 
 />
    <glyph glyph-name="exclamdown" unicode="&#xa1;" horiz-adv-x="615" 
d="M300 -340h-270l228 966h224zM447 1124q61 0 103 -42t42 -103q0 -60 -42 -101.5t-103 -41.5t-103 41.5t-42 101.5q0 61 42 103t103 42z" />
    <glyph glyph-name="cent" unicode="&#xa2;" horiz-adv-x="1294" 
d="M1191 518q-29 -152 -150 -254t-300 -116l-38 -181h-217l43 203q-142 43 -223.5 159.5t-81.5 281.5q0 276 151.5 465t391.5 210l33 161h217l-39 -182q118 -38 192 -123.5t87 -192.5q3 -21 3 -45h-239q-6 79 -67.5 127t-151.5 48q-142 0 -234.5 -128t-92.5 -318
q0 -131 64 -204t167 -73q89 0 152 42t90 120h243z" />
    <glyph glyph-name="sterling" unicode="&#xa3;" horiz-adv-x="1294" 
d="M1189 223l-46 -219h-1102l45 218q150 13 260.5 118.5t114.5 247.5q0 19 -3 55h-308l39 188h254q-9 109 -9 161q0 232 153 356.5t416 124.5q114 0 218 -22t164 -51l-44 -213q-47 25 -135 45t-183 20q-149 0 -240.5 -68.5t-91.5 -196.5q0 -59 9 -156h402l-39 -188h-354
q2 -19 2 -41q-4 -135 -59 -231.5t-142 -143.5v-4h679z" />
    <glyph glyph-name="currency" unicode="&#xa4;" horiz-adv-x="1294" 
d="M472 651q0 -100 72.5 -172t173.5 -72q100 0 172.5 72t72.5 172t-72.5 172t-172.5 72q-101 0 -173.5 -72t-72.5 -172zM1322 1028l-221 -184q45 -90 45 -193q0 -143 -84 -257l102 -130l-171 -143l-105 133q-81 -36 -170 -36q-146 0 -264 92l-226 -187l-116 151l222 184
q-45 90 -45 193q0 142 85 257l-104 131l171 143l106 -134q81 36 171 36q147 0 263 -92l225 186z" />
    <glyph glyph-name="yen" unicode="&#xa5;" horiz-adv-x="1294" 
d="M1028 229h-270l-48 -229h-261l49 229h-274l33 157h274l31 145h-274l33 157h207l-278 755h269l226 -630h7l482 630h286l-589 -755h194l-33 -157h-271l-31 -145h271z" />
    <glyph glyph-name="brokenbar" unicode="&#xa6;" horiz-adv-x="708" 
d="M561 770h-227l144 673h227zM332 -310h-226l142 674h227z" />
    <glyph glyph-name="section" unicode="&#xa7;" horiz-adv-x="982" 
d="M473 440l101 -46q79 17 127 64t48 109q0 95 -113 141l-97 44q-82 -11 -136 -59t-54 -112q0 -89 124 -141zM425 -277q-176 0 -295 91.5t-125 238.5h225q12 -63 66 -103t133 -40q86 0 140.5 40t54.5 102q0 43 -25 74.5t-86 55.5l-159 70q-233 100 -233 294q0 113 76 190
t191 104v10q-79 51 -112.5 105t-33.5 132q0 149 116.5 241.5t296.5 92.5q174 0 284 -88.5t124 -236.5h-221q-9 62 -60.5 99.5t-128.5 37.5q-79 0 -129.5 -38.5t-50.5 -97.5q0 -81 121 -131l143 -65q122 -53 181.5 -122t59.5 -168q0 -113 -74.5 -193.5t-187.5 -108.5v-10
q78 -52 109.5 -106t31.5 -131q0 -148 -122 -243.5t-310 -95.5z" />
    <glyph glyph-name="dieresis" unicode="&#xa8;" horiz-adv-x="1079" 
d="M566 1229q-51 0 -86.5 35.5t-35.5 85.5t35.5 85.5t86.5 35.5q52 0 87.5 -35.5t35.5 -85.5t-35.5 -85.5t-87.5 -35.5zM953 1229q-51 0 -86.5 35.5t-35.5 85.5t35.5 85.5t86.5 35.5t86.5 -35.5t35.5 -85.5t-35.5 -85.5t-86.5 -35.5z" />
    <glyph glyph-name="copyright" unicode="&#xa9;" horiz-adv-x="1663" 
d="M888 -146q-226 0 -404.5 96.5t-277.5 269t-99 391.5q0 170 62.5 322.5t169 261.5t255 173t314.5 64q227 0 405 -96.5t277 -269.5t99 -392q0 -228 -105.5 -416t-289.5 -296t-406 -108zM888 7q179 0 327 88t233 241t85 338q0 269 -173 437t-452 168q-134 0 -253.5 -52
t-205.5 -141t-136 -213t-50 -262q0 -267 174 -435.5t451 -168.5zM1268 770h-167q-3 61 -48.5 99.5t-113.5 38.5q-100 0 -167.5 -91t-67.5 -227q0 -93 48 -147.5t129 -54.5q118 0 163 107h171q-28 -118 -119.5 -185.5t-223.5 -67.5q-150 0 -244 95t-94 246q0 203 117 336.5
t296 133.5q141 0 230.5 -79t90.5 -204z" />
    <glyph glyph-name="ordfeminine" unicode="&#xaa;" horiz-adv-x="788" 
d="M511 1025q-66 0 -101.5 -26.5t-35.5 -68.5t37 -63.5t85 -21.5q60 0 104.5 34t56.5 89l13 57h-159zM181 904q0 108 78 173t225 65h210q5 25 10 45q4 26 4 29q0 42 -34 66.5t-90 24.5q-44 0 -77.5 -19t-47.5 -52h-182q26 105 109.5 163t205.5 58q138 0 223 -63t85 -164
q0 -26 -6 -54l-98 -466h-187l19 93l-7 1q-35 -47 -89.5 -73t-118.5 -26q-59 0 -110 20.5t-86.5 67t-35.5 111.5z" />
    <glyph glyph-name="guillemotleft" unicode="&#xab;" horiz-adv-x="1341" 
d="M677 149h-237l-267 411l2 16l407 406h259l-426 -421v-10zM1153 151h-237l-264 396l3 16l420 419h259l-440 -434v-10z" />
    <glyph glyph-name="logicalnot" unicode="&#xac;" horiz-adv-x="1294" 
d="M1228 692l-127 -608h-216l83 390h-794l45 218h1009z" />
    <glyph glyph-name="registered" unicode="&#xae;" horiz-adv-x="1184" 
d="M623 844h-113l98 460h227q62 0 104 -39t42 -94q0 -56 -37 -99t-94 -55l82 -173h-134l-69 161h-72zM701 1211l-26 -121h98q38 0 62 20t24 51q0 23 -16 36.5t-45 13.5h-97zM749 573q-209 0 -353.5 143t-144.5 351t144 350.5t354 142.5t354.5 -142.5t144.5 -350.5
t-144.5 -351t-354.5 -143zM749 693q158 0 264.5 107.5t106.5 266.5q0 158 -107 265.5t-264 107.5t-263.5 -107.5t-106.5 -265.5q0 -159 106.5 -266.5t263.5 -107.5z" />
    <glyph glyph-name="macron" unicode="&#xaf;" horiz-adv-x="1079" 
d="M1089 1418l-29 -138h-615l29 138h615z" />
    <glyph glyph-name="degree" unicode="&#xb0;" horiz-adv-x="751" 
d="M550 841q-129 0 -217 89t-88 219t88 219t217 89t218 -89t89 -219t-89 -219t-218 -89zM551 1000q62 0 105.5 44t43.5 105q0 62 -43.5 106t-105.5 44q-60 0 -104.5 -44t-44.5 -106q0 -61 44.5 -105t104.5 -44z" />
    <glyph glyph-name="plusminus" unicode="&#xb1;" horiz-adv-x="1294" 
d="M1078 86h-964l40 197h964zM824 654l-55 -255h-215l55 255h-375l40 192h375l56 255h215l-56 -255h375l-40 -192h-375z" />
    <glyph glyph-name="two.sups" unicode="&#xb2;" horiz-adv-x="647" 
d="M631 1339l-102 -77h270l-32 -158h-546l31 146l240 174q104 77 136.5 110.5t32.5 65.5q0 28 -21.5 46t-55.5 18q-35 0 -61 -22.5t-33 -59.5l-1 -4h-186q6 105 91.5 174t208.5 69q113 0 186.5 -56.5t73.5 -144.5q0 -69 -48 -126t-184 -155z" />
    <glyph glyph-name="three.sups" unicode="&#xb3;" horiz-adv-x="673" 
d="M469 1392l29 137h84q48 0 75 19.5t27 54.5q0 29 -23.5 46.5t-61.5 17.5q-33 0 -58.5 -16.5t-32.5 -43.5h-186q20 99 99 156.5t194 57.5t188.5 -54t73.5 -140q0 -65 -46.5 -113t-116.5 -58l-1 -4q54 -13 86 -53.5t32 -95.5q0 -96 -82 -157.5t-211 -61.5q-131 0 -209 59
t-78 158q0 13 3 29h190q-3 -35 23.5 -58t70.5 -23q43 0 69.5 21.5t26.5 56.5q0 29 -23 47t-60 18h-82z" />
    <glyph glyph-name="acute" unicode="&#xb4;" horiz-adv-x="1079" 
d="M709 1231h-209l283 308h244z" />
    <glyph glyph-name="mugreek" unicode="&#xb5;" horiz-adv-x="1225" 
d="M-39 -350l300 1412h245l-120 -566q-16 -73 -16 -114q0 -183 182 -183q100 0 181.5 76.5t107.5 195.5l125 591h245l-159 -750q-7 -31 -7 -54q0 -36 21 -51.5t67 -15.5q22 0 52 6l-40 -187q-50 -15 -116 -15q-111 0 -164.5 47.5t-51.5 143.5l-2 2h-4q-45 -91 -134 -146
t-188 -55q-60 0 -109.5 27t-71.5 74h-6l-94 -438h-243z" />
    <glyph glyph-name="mugreek" unicode="&#x3bc;" horiz-adv-x="1225" 
d="M-39 -350l300 1412h245l-120 -566q-16 -73 -16 -114q0 -183 182 -183q100 0 181.5 76.5t107.5 195.5l125 591h245l-159 -750q-7 -31 -7 -54q0 -36 21 -51.5t67 -15.5q22 0 52 6l-40 -187q-50 -15 -116 -15q-111 0 -164.5 47.5t-51.5 143.5l-2 2h-4q-45 -91 -134 -146
t-188 -55q-60 0 -109.5 27t-71.5 74h-6l-94 -438h-243z" />
    <glyph glyph-name="paragraph" unicode="&#xb6;" horiz-adv-x="1379" 
d="M734 -245h-244l160 747q-184 11 -296 123t-112 281q0 234 164 383t429 154h257zM894 -245l359 1688h244l-359 -1688h-244z" />
    <glyph glyph-name="periodcentered" unicode="&#xb7;" horiz-adv-x="553" 
d="M319 384q-60 0 -102 43t-42 104t42 104t102 43t102 -43t42 -104t-42 -104t-102 -43z" />
    <glyph glyph-name="cedilla" unicode="&#xb8;" horiz-adv-x="1086" 
d="M274 -224l21 91l89 144h151l-1 -11l-74 -118q83 -2 128 -40t45 -106q0 -94 -75.5 -152.5t-196.5 -58.5q-100 0 -165 24l27 130q58 -20 130 -20q121 0 121 61q0 29 -33 42.5t-108 13.5h-59z" />
    <glyph glyph-name="one.sups" unicode="&#xb9;" horiz-adv-x="526" 
d="M379 1104l109 513h-4l-195 -112l38 180l199 116h208l-149 -697h-206z" />
    <glyph glyph-name="ordmasculine" unicode="&#xba;" horiz-adv-x="817" 
d="M534 695q-153 0 -244 86t-91 233q0 191 115 317.5t288 126.5q154 0 244 -87t90 -235q0 -191 -114 -316t-288 -125zM740 1139q0 76 -38.5 119.5t-104.5 43.5q-84 0 -142.5 -84t-58.5 -205q0 -75 38 -118.5t104 -43.5q85 0 143.5 83.5t58.5 204.5z" />
    <glyph glyph-name="guillemotright" unicode="&#xbb;" horiz-adv-x="1341" 
d="M765 982h237l267 -411l-3 -16l-406 -406h-260l427 421v10zM289 980h237l264 -396l-3 -16l-420 -419h-259l439 434l1 10z" />
    <glyph glyph-name="onequarter" unicode="&#xbc;" horiz-adv-x="1560" 
d="M303 746l109 513h-4l-195 -112l38 180l199 116h208l-149 -697h-206zM266 0h-229l721 765l640 678h227l-702 -745zM1175 0l22 101h-346l36 183q100 140 336 413h295l-93 -435h83l-34 -161h-82l-22 -101h-195zM1059 258l-1 -5h177l64 300h-4q-128 -143 -236 -295z" />
    <glyph glyph-name="onehalf" unicode="&#xbd;" horiz-adv-x="1589" 
d="M412 1259h-4l-195 -112l38 180l199 116h208l-149 -697h-206zM1398 1443h227l-702 -745l-657 -698h-229l721 765zM1197 478l-1 -4h-186q6 105 91.5 174t208.5 69q113 0 186.5 -56.5t73.5 -144.5q0 -69 -48 -126t-184 -155l-102 -77h270l-32 -158h-546l31 146l240 174
q104 77 136.5 110.5t32.5 65.5q0 28 -21.5 46t-55.5 18q-35 0 -61 -22.5t-33 -59.5z" />
    <glyph glyph-name="threequarters" unicode="&#xbe;" horiz-adv-x="1668" 
d="M393 1034l29 137h84q48 0 75 19.5t27 54.5q0 29 -23.5 46.5t-61.5 17.5q-33 0 -58.5 -16.5t-32.5 -43.5h-186q20 99 99 156.5t194 57.5t188.5 -54t73.5 -140q0 -65 -46.5 -113t-116.5 -58l-1 -4q54 -13 86 -53.5t32 -95.5q0 -96 -82 -157.5t-211 -61.5q-131 0 -209 59
t-78 158q0 12 3 29h190q-3 -35 23.5 -58t70.5 -23q43 0 69.5 21.5t26.5 56.5q0 29 -23 47t-60 18h-82zM374 0h-229l721 765l640 678h227l-702 -745zM1282 0l22 101h-346l36 183q100 140 336 413h295l-93 -435h83l-34 -161h-82l-22 -101h-195zM1166 258l-1 -5h177l64 300h-4
q-128 -143 -236 -295z" />
    <glyph glyph-name="questiondown" unicode="&#xbf;" horiz-adv-x="1028" 
d="M926 37q-28 -176 -156.5 -283t-329.5 -107q-200 0 -324.5 99.5t-124.5 249.5q0 127 77 232.5t209 164.5q111 49 157 93.5t60 118.5l10 49h237l-14 -70q-24 -128 -81 -196t-177 -121q-116 -53 -167 -112t-51 -137q0 -68 54 -114.5t148 -46.5q86 0 149.5 48t86.5 132h237z
M695 1124q61 0 103.5 -42t42.5 -103q0 -60 -42.5 -101.5t-103.5 -41.5q-60 0 -102.5 41.5t-42.5 101.5q0 61 42.5 103t102.5 42z" />
    <glyph glyph-name="Agrave" unicode="&#xc0;" horiz-adv-x="1356" 
d="M867 1177l-330 -604h410l-75 604h-5zM1011 0l-45 369h-534l-204 -369h-277l822 1443h293l200 -1443h-255zM837 1558l-201 300h229l161 -300h-189z" />
    <glyph glyph-name="Aacute" unicode="&#xc1;" horiz-adv-x="1356" 
d="M867 1177l-330 -604h410l-75 604h-5zM1011 0l-45 369h-534l-204 -369h-277l822 1443h293l200 -1443h-255zM1049 1558h-213l287 300h254z" />
    <glyph glyph-name="Acircumflex" unicode="&#xc2;" horiz-adv-x="1356" 
d="M867 1177l-330 -604h410l-75 604h-5zM1011 0l-45 369h-534l-204 -369h-277l822 1443h293l200 -1443h-255zM1093 1863l208 -311h-193l-124 192h-7l-206 -192h-209l340 311h191z" />
    <glyph glyph-name="Atilde" unicode="&#xc3;" horiz-adv-x="1356" 
d="M867 1177l-330 -604h410l-75 604h-5zM1011 0l-45 369h-534l-204 -369h-277l822 1443h293l200 -1443h-255zM1095 1546q-46 0 -84.5 22t-60 48t-48 48t-52.5 22q-34 0 -60.5 -33.5t-39.5 -93.5h-145q23 124 91 196t160 72q40 0 72.5 -14.5t54 -35.5t40 -41.5t38 -35
t40.5 -14.5q32 0 58 33.5t40 96.5h146q-26 -123 -94 -196.5t-156 -73.5z" />
    <glyph glyph-name="Adieresis" unicode="&#xc4;" horiz-adv-x="1356" 
d="M867 1177l-330 -604h410l-75 604h-5zM1011 0l-45 369h-534l-204 -369h-277l822 1443h293l200 -1443h-255zM778 1597q-51 0 -86.5 35.5t-35.5 85.5t35.5 85.5t86.5 35.5q52 0 87.5 -35.5t35.5 -85.5t-35.5 -85.5t-87.5 -35.5zM1165 1597q-51 0 -86.5 35.5t-35.5 85.5
t35.5 85.5t86.5 35.5t86.5 -35.5t35.5 -85.5t-35.5 -85.5t-86.5 -35.5z" />
    <glyph glyph-name="Aring" unicode="&#xc5;" horiz-adv-x="1356" 
d="M867 1177l-330 -604h410l-75 604h-5zM1011 0l-45 369h-534l-204 -369h-277l822 1443h293l200 -1443h-255zM984 1562q-85 0 -145 56.5t-60 144.5q0 91 61 151.5t150 60.5q87 0 146.5 -56.5t58.5 -144.5q0 -91 -60.5 -151.5t-150.5 -60.5zM984 1671q45 0 73 28t28 73
q-1 42 -27.5 68.5t-67.5 26.5q-43 0 -71.5 -28.5t-28.5 -73.5q0 -41 27 -67.5t67 -26.5z" />
    <glyph glyph-name="AE" unicode="&#xc6;" horiz-adv-x="1938" 
d="M1139 1235h-135l-406 -632h405zM875 0l86 398h-485l-258 -398h-268l923 1443h1204l-46 -223h-651l-84 -389h614l-44 -211h-613l-87 -397h650l-46 -223h-895z" />
    <glyph glyph-name="Ccedilla" unicode="&#xc7;" horiz-adv-x="1446" 
d="M1503 937h-255q0 2 -0.5 11.5t-0.5 18.5q-10 124 -101 198.5t-227 74.5q-144 0 -256.5 -81t-174.5 -225t-62 -325q0 -188 95 -296.5t259 -108.5q132 0 233 70t146 192h254q-49 -210 -210 -342t-383 -146l-60 -96q83 -2 128 -40t45 -106q0 -94 -75.5 -152.5t-196.5 -58.5
q-100 0 -165 24l27 130q58 -20 130 -20q121 0 121 61q0 29 -33 42.5t-108 13.5h-59l21 91l71 116q-234 30 -369.5 193.5t-135.5 419.5q0 188 57 349.5t158 276.5t245 180t313 65q244 0 402 -135t168 -355q0 -29 -1 -40z" />
    <glyph glyph-name="Egrave" unicode="&#xc8;" horiz-adv-x="1158" 
d="M1041 223l-46 -223h-935l307 1443h935l-47 -223h-673l-84 -383h637l-44 -210h-636l-88 -404h674zM747 1558l-201 300h229l161 -300h-189z" />
    <glyph glyph-name="Eacute" unicode="&#xc9;" horiz-adv-x="1158" 
d="M1041 223l-46 -223h-935l307 1443h935l-47 -223h-673l-84 -383h637l-44 -210h-636l-88 -404h674zM959 1558h-213l287 300h254z" />
    <glyph glyph-name="Ecircumflex" unicode="&#xca;" horiz-adv-x="1158" 
d="M1041 223l-46 -223h-935l307 1443h935l-47 -223h-673l-84 -383h637l-44 -210h-636l-88 -404h674zM1003 1863l208 -311h-193l-124 192h-7l-206 -192h-209l340 311h191z" />
    <glyph glyph-name="Edieresis" unicode="&#xcb;" horiz-adv-x="1158" 
d="M1041 223l-46 -223h-935l307 1443h935l-47 -223h-673l-84 -383h637l-44 -210h-636l-88 -404h674zM688 1597q-51 0 -86.5 35.5t-35.5 85.5t35.5 85.5t86.5 35.5q52 0 87.5 -35.5t35.5 -85.5t-35.5 -85.5t-87.5 -35.5zM1075 1597q-51 0 -86.5 35.5t-35.5 85.5t35.5 85.5
t86.5 35.5t86.5 -35.5t35.5 -85.5t-35.5 -85.5t-86.5 -35.5z" />
    <glyph glyph-name="Igrave" unicode="&#xcc;" horiz-adv-x="520" 
d="M321 0h-261l307 1443h261zM419 1558l-201 300h229l161 -300h-189z" />
    <glyph glyph-name="Iacute" unicode="&#xcd;" horiz-adv-x="520" 
d="M321 0h-261l307 1443h261zM631 1558h-213l287 300h254z" />
    <glyph glyph-name="Icircumflex" unicode="&#xce;" horiz-adv-x="520" 
d="M321 0h-261l307 1443h261zM675 1863l208 -311h-193l-124 192h-7l-206 -192h-209l340 311h191z" />
    <glyph glyph-name="Idieresis" unicode="&#xcf;" horiz-adv-x="520" 
d="M321 0h-261l307 1443h261zM360 1597q-51 0 -86.5 35.5t-35.5 85.5t35.5 85.5t86.5 35.5q52 0 87.5 -35.5t35.5 -85.5t-35.5 -85.5t-87.5 -35.5zM747 1597q-51 0 -86.5 35.5t-35.5 85.5t35.5 85.5t86.5 35.5t86.5 -35.5t35.5 -85.5t-35.5 -85.5t-86.5 -35.5z" />
    <glyph glyph-name="Eth" unicode="&#xd0;" horiz-adv-x="1438" 
d="M368 222h275q235 0 385.5 170.5t150.5 442.5q0 187 -99.5 287t-288.5 100h-208l-81 -378h281l-46 -223h-283zM367 1443h478q278 0 438.5 -152.5t160.5 -422.5q0 -253 -96.5 -450.5t-272.5 -307.5t-403 -110h-610l131 621h-130l47 223h130z" />
    <glyph glyph-name="Ntilde" unicode="&#xd1;" horiz-adv-x="1458" 
d="M315 0h-255l307 1443h228l488 -1040h5l223 1040h254l-307 -1443h-227l-488 1040h-6zM1138 1546q-46 0 -84.5 22t-60 48t-48 48t-52.5 22q-34 0 -60.5 -33.5t-39.5 -93.5h-145q23 124 91 196t160 72q40 0 72.5 -14.5t54 -35.5t40 -41.5t38 -35t40.5 -14.5q32 0 58 33.5
t40 96.5h146q-26 -123 -94 -196.5t-156 -73.5z" />
    <glyph glyph-name="Ograve" unicode="&#xd2;" horiz-adv-x="1540" 
d="M924 1241q-142 0 -257.5 -84.5t-179 -228t-63.5 -315.5q0 -188 97.5 -299.5t261.5 -111.5q142 0 257.5 84.5t179.5 228t64 315.5q0 188 -98 299.5t-262 111.5zM779 -24q-281 0 -449.5 172.5t-168.5 451.5q0 243 99.5 441.5t275 312t391.5 113.5q283 0 451.5 -172.5
t168.5 -451.5q0 -182 -59 -343t-160.5 -276t-244 -181.5t-304.5 -66.5zM865 1558l-201 300h229l161 -300h-189z" />
    <glyph glyph-name="Oacute" unicode="&#xd3;" horiz-adv-x="1540" 
d="M924 1241q-142 0 -257.5 -84.5t-179 -228t-63.5 -315.5q0 -188 97.5 -299.5t261.5 -111.5q142 0 257.5 84.5t179.5 228t64 315.5q0 188 -98 299.5t-262 111.5zM779 -24q-281 0 -449.5 172.5t-168.5 451.5q0 243 99.5 441.5t275 312t391.5 113.5q283 0 451.5 -172.5
t168.5 -451.5q0 -182 -59 -343t-160.5 -276t-244 -181.5t-304.5 -66.5zM1077 1558h-213l287 300h254z" />
    <glyph glyph-name="Ocircumflex" unicode="&#xd4;" horiz-adv-x="1540" 
d="M924 1241q-142 0 -257.5 -84.5t-179 -228t-63.5 -315.5q0 -188 97.5 -299.5t261.5 -111.5q142 0 257.5 84.5t179.5 228t64 315.5q0 188 -98 299.5t-262 111.5zM779 -24q-281 0 -449.5 172.5t-168.5 451.5q0 243 99.5 441.5t275 312t391.5 113.5q283 0 451.5 -172.5
t168.5 -451.5q0 -182 -59 -343t-160.5 -276t-244 -181.5t-304.5 -66.5zM1121 1863l208 -311h-193l-124 192h-7l-206 -192h-209l340 311h191z" />
    <glyph glyph-name="Otilde" unicode="&#xd5;" horiz-adv-x="1540" 
d="M924 1241q-142 0 -257.5 -84.5t-179 -228t-63.5 -315.5q0 -188 97.5 -299.5t261.5 -111.5q142 0 257.5 84.5t179.5 228t64 315.5q0 188 -98 299.5t-262 111.5zM779 -24q-281 0 -449.5 172.5t-168.5 451.5q0 243 99.5 441.5t275 312t391.5 113.5q283 0 451.5 -172.5
t168.5 -451.5q0 -182 -59 -343t-160.5 -276t-244 -181.5t-304.5 -66.5zM1123 1546q-46 0 -84.5 22t-60 48t-48 48t-52.5 22q-34 0 -60.5 -33.5t-39.5 -93.5h-145q23 124 91 196t160 72q40 0 72.5 -14.5t54 -35.5t40 -41.5t38 -35t40.5 -14.5q32 0 58 33.5t40 96.5h146
q-26 -123 -94 -196.5t-156 -73.5z" />
    <glyph glyph-name="Odieresis" unicode="&#xd6;" horiz-adv-x="1540" 
d="M924 1241q-142 0 -257.5 -84.5t-179 -228t-63.5 -315.5q0 -188 97.5 -299.5t261.5 -111.5q142 0 257.5 84.5t179.5 228t64 315.5q0 188 -98 299.5t-262 111.5zM779 -24q-281 0 -449.5 172.5t-168.5 451.5q0 243 99.5 441.5t275 312t391.5 113.5q283 0 451.5 -172.5
t168.5 -451.5q0 -182 -59 -343t-160.5 -276t-244 -181.5t-304.5 -66.5zM806 1597q-51 0 -86.5 35.5t-35.5 85.5t35.5 85.5t86.5 35.5q52 0 87.5 -35.5t35.5 -85.5t-35.5 -85.5t-87.5 -35.5zM1193 1597q-51 0 -86.5 35.5t-35.5 85.5t35.5 85.5t86.5 35.5t86.5 -35.5
t35.5 -85.5t-35.5 -85.5t-86.5 -35.5z" />
    <glyph glyph-name="multiply" unicode="&#xd7;" horiz-adv-x="1294" 
d="M903 129l-228 303l-357 -284l-122 169l357 284l-231 307l175 134l229 -301l358 284l123 -169l-358 -284l230 -309z" />
    <glyph glyph-name="Oslash" unicode="&#xd8;" horiz-adv-x="1540" 
d="M1257 1004l-714 -714q96 -88 240 -88q142 0 257.5 84.5t179.5 228t64 315.5q0 98 -27 174zM451 439l713 713q-95 89 -240 89q-142 0 -257.5 -84.5t-179 -228t-63.5 -315.5q0 -97 27 -174zM1609 1356l-156 -156q94 -151 94 -357q0 -182 -59 -343t-160.5 -276t-244 -181.5
t-304.5 -66.5q-249 0 -412 138l-149 -149l-119 122l156 156q-94 153 -94 357q0 243 99.5 441.5t275 312t391.5 113.5q251 0 414 -138l149 149z" />
    <glyph glyph-name="Ugrave" unicode="&#xd9;" horiz-adv-x="1453" 
d="M708 -24q-251 0 -394 129.5t-144 332.5q-1 59 13 128l184 877h261l-183 -868q-14 -60 -12 -113q4 -119 82 -186t221 -67q140 0 237.5 81.5t128.5 226.5l197 926h261l-209 -981q-49 -231 -215.5 -358.5t-427.5 -127.5zM871 1558l-201 300h229l161 -300h-189z" />
    <glyph glyph-name="Uacute" unicode="&#xda;" horiz-adv-x="1453" 
d="M708 -24q-251 0 -394 129.5t-144 332.5q-1 59 13 128l184 877h261l-183 -868q-14 -60 -12 -113q4 -119 82 -186t221 -67q140 0 237.5 81.5t128.5 226.5l197 926h261l-209 -981q-49 -231 -215.5 -358.5t-427.5 -127.5zM1083 1558h-213l287 300h254z" />
    <glyph glyph-name="Ucircumflex" unicode="&#xdb;" horiz-adv-x="1453" 
d="M708 -24q-251 0 -394 129.5t-144 332.5q-1 59 13 128l184 877h261l-183 -868q-14 -60 -12 -113q4 -119 82 -186t221 -67q140 0 237.5 81.5t128.5 226.5l197 926h261l-209 -981q-49 -231 -215.5 -358.5t-427.5 -127.5zM1127 1863l208 -311h-193l-124 192h-7l-206 -192
h-209l340 311h191z" />
    <glyph glyph-name="Udieresis" unicode="&#xdc;" horiz-adv-x="1453" 
d="M708 -24q-251 0 -394 129.5t-144 332.5q-1 59 13 128l184 877h261l-183 -868q-14 -60 -12 -113q4 -119 82 -186t221 -67q140 0 237.5 81.5t128.5 226.5l197 926h261l-209 -981q-49 -231 -215.5 -358.5t-427.5 -127.5zM812 1597q-51 0 -86.5 35.5t-35.5 85.5t35.5 85.5
t86.5 35.5q52 0 87.5 -35.5t35.5 -85.5t-35.5 -85.5t-87.5 -35.5zM1199 1597q-51 0 -86.5 35.5t-35.5 85.5t35.5 85.5t86.5 35.5t86.5 -35.5t35.5 -85.5t-35.5 -85.5t-86.5 -35.5z" />
    <glyph glyph-name="Yacute" unicode="&#xdd;" horiz-adv-x="1311" 
d="M718 0h-261l121 569l-320 874h270l223 -632h6l483 632h288l-693 -890zM1024 1558h-213l287 300h254z" />
    <glyph glyph-name="Thorn" unicode="&#xde;" horiz-adv-x="1265" 
d="M69 0l307 1443h257l-53 -244h293q181 0 297.5 -107.5t116.5 -275.5q0 -220 -159.5 -362.5t-411.5 -142.5h-323l-67 -311h-257zM535 982l-98 -456h258q154 0 242 70.5t88 193.5q0 91 -60 141.5t-175 50.5h-255z" />
    <glyph glyph-name="germandbls" unicode="&#xdf;" horiz-adv-x="1301" 
d="M331 0h-249l235 1099q36 167 168 262.5t325 95.5q196 0 323 -99.5t127 -254.5q0 -134 -87.5 -229.5t-224.5 -112.5l-4 -19q139 -21 218.5 -101.5t79.5 -202.5q0 -194 -141.5 -316t-364.5 -122q-136 0 -236 37l44 205q73 -33 173 -33q119 0 198 67.5t79 168.5
q0 90 -72.5 141.5t-197.5 51.5h-73l45 218h76q99 0 169 59.5t70 146.5q0 82 -58 133t-152 51q-98 0 -164.5 -60t-89.5 -170z" />
    <glyph glyph-name="agrave" unicode="&#xe0;" horiz-adv-x="1070" 
d="M473 173q97 0 172.5 55.5t94.5 142.5l23 101l-248 -12q-101 -4 -158.5 -44.5t-57.5 -107.5q0 -61 48 -98t126 -37zM383 -17q-137 0 -231 83t-94 209q0 159 119 250t331 100l289 12l14 64q4 17 4 44q0 65 -48.5 102.5t-135.5 37.5q-88 0 -143.5 -37.5t-70.5 -102.5h-238
q26 153 153.5 246t317.5 93q182 0 294.5 -86.5t112.5 -224.5q0 -51 -8 -88l-145 -685h-236l27 128h-4q-51 -67 -131.5 -106t-176.5 -39zM793 1231h-195l-187 308h231z" />
    <glyph glyph-name="aacute" unicode="&#xe1;" horiz-adv-x="1070" 
d="M473 173q97 0 172.5 55.5t94.5 142.5l23 101l-248 -12q-101 -4 -158.5 -44.5t-57.5 -107.5q0 -61 48 -98t126 -37zM383 -17q-137 0 -231 83t-94 209q0 159 119 250t331 100l289 12l14 64q4 17 4 44q0 65 -48.5 102.5t-135.5 37.5q-88 0 -143.5 -37.5t-70.5 -102.5h-238
q26 153 153.5 246t317.5 93q182 0 294.5 -86.5t112.5 -224.5q0 -51 -8 -88l-145 -685h-236l27 128h-4q-51 -67 -131.5 -106t-176.5 -39zM817 1231h-209l283 308h244z" />
    <glyph glyph-name="acircumflex" unicode="&#xe2;" horiz-adv-x="1070" 
d="M473 173q97 0 172.5 55.5t94.5 142.5l23 101l-248 -12q-101 -4 -158.5 -44.5t-57.5 -107.5q0 -61 48 -98t126 -37zM383 -17q-137 0 -231 83t-94 209q0 159 119 250t331 100l289 12l14 64q4 17 4 44q0 65 -48.5 102.5t-135.5 37.5q-88 0 -143.5 -37.5t-70.5 -102.5h-238
q26 153 153.5 246t317.5 93q182 0 294.5 -86.5t112.5 -224.5q0 -51 -8 -88l-145 -685h-236l27 128h-4q-51 -67 -131.5 -106t-176.5 -39zM863 1537l200 -312h-194l-117 188h-7l-198 -188h-209l334 312h191z" />
    <glyph glyph-name="atilde" unicode="&#xe3;" horiz-adv-x="1070" 
d="M473 173q97 0 172.5 55.5t94.5 142.5l23 101l-248 -12q-101 -4 -158.5 -44.5t-57.5 -107.5q0 -61 48 -98t126 -37zM383 -17q-137 0 -231 83t-94 209q0 159 119 250t331 100l289 12l14 64q4 17 4 44q0 65 -48.5 102.5t-135.5 37.5q-88 0 -143.5 -37.5t-70.5 -102.5h-238
q26 153 153.5 246t317.5 93q182 0 294.5 -86.5t112.5 -224.5q0 -51 -8 -88l-145 -685h-236l27 128h-4q-51 -67 -131.5 -106t-176.5 -39zM847 1230q-46 0 -84.5 22t-60 48t-48 48t-52.5 22q-34 0 -60.5 -33.5t-39.5 -93.5h-145q23 124 91 196t160 72q40 0 72.5 -14.5
t54 -35.5t40 -41.5t38 -35t40.5 -14.5q32 0 58 33.5t40 96.5h146q-26 -123 -94 -196.5t-156 -73.5z" />
    <glyph glyph-name="adieresis" unicode="&#xe4;" horiz-adv-x="1070" 
d="M473 173q97 0 172.5 55.5t94.5 142.5l23 101l-248 -12q-101 -4 -158.5 -44.5t-57.5 -107.5q0 -61 48 -98t126 -37zM383 -17q-137 0 -231 83t-94 209q0 159 119 250t331 100l289 12l14 64q4 17 4 44q0 65 -48.5 102.5t-135.5 37.5q-88 0 -143.5 -37.5t-70.5 -102.5h-238
q26 153 153.5 246t317.5 93q182 0 294.5 -86.5t112.5 -224.5q0 -51 -8 -88l-145 -685h-236l27 128h-4q-51 -67 -131.5 -106t-176.5 -39zM530 1229q-51 0 -86.5 35.5t-35.5 85.5t35.5 85.5t86.5 35.5q52 0 87.5 -35.5t35.5 -85.5t-35.5 -85.5t-87.5 -35.5zM917 1229
q-51 0 -86.5 35.5t-35.5 85.5t35.5 85.5t86.5 35.5t86.5 -35.5t35.5 -85.5t-35.5 -85.5t-86.5 -35.5z" />
    <glyph glyph-name="aring" unicode="&#xe5;" horiz-adv-x="1070" 
d="M473 173q97 0 172.5 55.5t94.5 142.5l23 101l-248 -12q-101 -4 -158.5 -44.5t-57.5 -107.5q0 -61 48 -98t126 -37zM383 -17q-137 0 -231 83t-94 209q0 159 119 250t331 100l289 12l14 64q4 17 4 44q0 65 -48.5 102.5t-135.5 37.5q-88 0 -143.5 -37.5t-70.5 -102.5h-238
q26 153 153.5 246t317.5 93q182 0 294.5 -86.5t112.5 -224.5q0 -51 -8 -88l-145 -685h-236l27 128h-4q-51 -67 -131.5 -106t-176.5 -39zM727 1181q-85 0 -145 56.5t-60 144.5q0 91 61 151.5t150 60.5q87 0 146.5 -56.5t58.5 -144.5q0 -91 -60.5 -151.5t-150.5 -60.5z
M727 1290q45 0 73 28t28 73q-1 42 -27.5 68.5t-67.5 26.5q-43 0 -71.5 -28.5t-28.5 -73.5q0 -41 27 -67.5t67 -26.5z" />
    <glyph glyph-name="ae" unicode="&#xe6;" horiz-adv-x="1782" 
d="M1228 -22q-127 0 -224.5 58t-140.5 156h-9q-70 -104 -182 -159t-251 -55q-154 0 -256 85.5t-102 211.5q0 159 118.5 251t335.5 99l288 12l13 64q4 16 4 44q0 63 -50 101.5t-136 38.5q-88 0 -143.5 -38t-69.5 -102h-238q26 151 151 245t310 94q107 0 197 -41t135 -111h9
q136 152 346 152q195 0 314 -124.5t119 -327.5q0 -83 -12 -158h-749v-27q0 -125 63.5 -199t172.5 -74q89 0 152.5 41.5t92.5 118.5h233q-41 -159 -176.5 -257.5t-314.5 -98.5zM1032 640h499q2 14 2 30q0 98 -57.5 158.5t-149.5 60.5q-109 0 -186 -67t-108 -182zM477 170
q101 0 177 56.5t95 142.5l23 100l-254 -11q-98 -5 -156 -46.5t-58 -106.5q0 -59 47.5 -97t125.5 -38z" />
    <glyph glyph-name="ccedilla" unicode="&#xe7;" horiz-adv-x="1085" 
d="M1106 681h-236q-2 84 -59 138.5t-153 54.5q-136 0 -222 -118.5t-86 -305.5q0 -121 59 -191.5t157 -70.5q89 0 153.5 48.5t92.5 132.5h236q-30 -155 -146 -261.5t-278 -125.5l-63 -100q83 -2 128 -40t45 -106q0 -94 -75.5 -152.5t-196.5 -58.5q-100 0 -165 24l27 130
q58 -20 130 -20q121 0 121 61q0 29 -33 42.5t-108 13.5h-59l21 91l73 118q-174 26 -270 148t-96 307q0 283 156 463.5t407 180.5q201 0 320.5 -110t119.5 -269v-24z" />
    <glyph glyph-name="egrave" unicode="&#xe8;" horiz-adv-x="1117" 
d="M365 640h499q1 8 1 30q0 93 -56 156t-162 63q-104 0 -178.5 -69t-103.5 -180zM562 -22q-217 0 -337.5 129t-120.5 345q0 176 69 320t195.5 228t285.5 84q204 0 325 -122.5t121 -329.5q0 -93 -12 -158h-750q-1 -11 -1 -34q0 -121 63 -193t169 -72q91 0 156 42.5t95 116.5
h233q-42 -157 -176 -256.5t-315 -99.5zM795 1231h-195l-187 308h231z" />
    <glyph glyph-name="eacute" unicode="&#xe9;" horiz-adv-x="1117" 
d="M365 640h499q1 8 1 30q0 93 -56 156t-162 63q-104 0 -178.5 -69t-103.5 -180zM562 -22q-217 0 -337.5 129t-120.5 345q0 176 69 320t195.5 228t285.5 84q204 0 325 -122.5t121 -329.5q0 -93 -12 -158h-750q-1 -11 -1 -34q0 -121 63 -193t169 -72q91 0 156 42.5t95 116.5
h233q-42 -157 -176 -256.5t-315 -99.5zM819 1231h-209l283 308h244z" />
    <glyph glyph-name="ecircumflex" unicode="&#xea;" horiz-adv-x="1117" 
d="M365 640h499q1 8 1 30q0 93 -56 156t-162 63q-104 0 -178.5 -69t-103.5 -180zM562 -22q-217 0 -337.5 129t-120.5 345q0 176 69 320t195.5 228t285.5 84q204 0 325 -122.5t121 -329.5q0 -93 -12 -158h-750q-1 -11 -1 -34q0 -121 63 -193t169 -72q91 0 156 42.5t95 116.5
h233q-42 -157 -176 -256.5t-315 -99.5zM865 1537l200 -312h-194l-117 188h-7l-198 -188h-209l334 312h191z" />
    <glyph glyph-name="edieresis" unicode="&#xeb;" horiz-adv-x="1117" 
d="M365 640h499q1 8 1 30q0 93 -56 156t-162 63q-104 0 -178.5 -69t-103.5 -180zM562 -22q-217 0 -337.5 129t-120.5 345q0 176 69 320t195.5 228t285.5 84q204 0 325 -122.5t121 -329.5q0 -93 -12 -158h-750q-1 -11 -1 -34q0 -121 63 -193t169 -72q91 0 156 42.5t95 116.5
h233q-42 -157 -176 -256.5t-315 -99.5zM532 1229q-51 0 -86.5 35.5t-35.5 85.5t35.5 85.5t86.5 35.5q52 0 87.5 -35.5t35.5 -85.5t-35.5 -85.5t-87.5 -35.5zM919 1229q-51 0 -86.5 35.5t-35.5 85.5t35.5 85.5t86.5 35.5t86.5 -35.5t35.5 -85.5t-35.5 -85.5t-86.5 -35.5z" />
    <glyph glyph-name="igrave" unicode="&#xec;" horiz-adv-x="468" 
d="M41 0l226 1062h246l-226 -1062h-246zM524 1231h-195l-187 308h231z" />
    <glyph glyph-name="iacute" unicode="&#xed;" horiz-adv-x="468" 
d="M41 0l226 1062h246l-226 -1062h-246zM548 1231h-209l283 308h244z" />
    <glyph glyph-name="icircumflex" unicode="&#xee;" horiz-adv-x="468" 
d="M41 0l226 1062h246l-226 -1062h-246zM594 1537l200 -312h-194l-117 188h-7l-198 -188h-209l334 312h191z" />
    <glyph glyph-name="idieresis" unicode="&#xef;" horiz-adv-x="468" 
d="M41 0l226 1062h246l-226 -1062h-246zM261 1229q-51 0 -86.5 35.5t-35.5 85.5t35.5 85.5t86.5 35.5q52 0 87.5 -35.5t35.5 -85.5t-35.5 -85.5t-87.5 -35.5zM648 1229q-51 0 -86.5 35.5t-35.5 85.5t35.5 85.5t86.5 35.5t86.5 -35.5t35.5 -85.5t-35.5 -85.5t-86.5 -35.5z
" />
    <glyph glyph-name="eth" unicode="&#xf0;" horiz-adv-x="1181" 
d="M583 189q81 0 156 56t120.5 149t45.5 195q0 111 -68 180.5t-175 69.5q-130 0 -219 -109t-89 -275q0 -117 61 -191.5t168 -74.5zM1217 1316l-177 -53q130 -243 130 -499q0 -168 -39 -303q-64 -225 -214 -353.5t-351 -128.5q-210 0 -338 132.5t-128 329.5q0 127 40 238.5
t109 189.5t164 123t202 45q108 0 194 -47.5t123 -119.5h9q-8 158 -102 328l-319 -96l-16 142l254 76q-51 64 -140 149h274q52 -58 71 -84l236 73z" />
    <glyph glyph-name="ntilde" unicode="&#xf1;" horiz-adv-x="1155" 
d="M33 0l225 1062h235l-34 -163h5q55 87 144.5 136t200.5 49q144 0 237.5 -86.5t93.5 -221.5q0 -58 -14 -130l-137 -646h-244l128 605q11 51 11 94q0 81 -54 129t-143 48q-100 0 -175.5 -66.5t-99.5 -177.5l-134 -632h-245zM907 1230q-46 0 -84.5 22t-60 48t-48 48t-52.5 22
q-34 0 -60.5 -33.5t-39.5 -93.5h-145q23 124 91 196t160 72q40 0 72.5 -14.5t54 -35.5t40 -41.5t38 -35t40.5 -14.5q32 0 58 33.5t40 96.5h146q-26 -123 -94 -196.5t-156 -73.5z" />
    <glyph glyph-name="ograve" unicode="&#xf2;" horiz-adv-x="1161" 
d="M576 184q137 0 228 121t91 300q0 124 -61 198.5t-164 74.5q-138 0 -228.5 -120t-90.5 -301q0 -124 61 -198.5t164 -74.5zM677 1084q211 0 339 -129.5t128 -342.5q0 -133 -43.5 -251t-119.5 -202t-182.5 -132.5t-228.5 -48.5q-211 0 -339 130t-128 343q0 133 43.5 250.5
t119.5 201.5t182.5 132.5t228.5 48.5zM813 1231h-195l-187 308h231z" />
    <glyph glyph-name="oacute" unicode="&#xf3;" horiz-adv-x="1161" 
d="M576 184q137 0 228 121t91 300q0 124 -61 198.5t-164 74.5q-138 0 -228.5 -120t-90.5 -301q0 -124 61 -198.5t164 -74.5zM677 1084q211 0 339 -129.5t128 -342.5q0 -133 -43.5 -251t-119.5 -202t-182.5 -132.5t-228.5 -48.5q-211 0 -339 130t-128 343q0 133 43.5 250.5
t119.5 201.5t182.5 132.5t228.5 48.5zM837 1231h-209l283 308h244z" />
    <glyph glyph-name="ocircumflex" unicode="&#xf4;" horiz-adv-x="1161" 
d="M576 184q137 0 228 121t91 300q0 124 -61 198.5t-164 74.5q-138 0 -228.5 -120t-90.5 -301q0 -124 61 -198.5t164 -74.5zM677 1084q211 0 339 -129.5t128 -342.5q0 -133 -43.5 -251t-119.5 -202t-182.5 -132.5t-228.5 -48.5q-211 0 -339 130t-128 343q0 133 43.5 250.5
t119.5 201.5t182.5 132.5t228.5 48.5zM883 1537l200 -312h-194l-117 188h-7l-198 -188h-209l334 312h191z" />
    <glyph glyph-name="otilde" unicode="&#xf5;" horiz-adv-x="1161" 
d="M576 184q137 0 228 121t91 300q0 124 -61 198.5t-164 74.5q-138 0 -228.5 -120t-90.5 -301q0 -124 61 -198.5t164 -74.5zM677 1084q211 0 339 -129.5t128 -342.5q0 -133 -43.5 -251t-119.5 -202t-182.5 -132.5t-228.5 -48.5q-211 0 -339 130t-128 343q0 133 43.5 250.5
t119.5 201.5t182.5 132.5t228.5 48.5zM867 1230q-46 0 -84.5 22t-60 48t-48 48t-52.5 22q-34 0 -60.5 -33.5t-39.5 -93.5h-145q23 124 91 196t160 72q40 0 72.5 -14.5t54 -35.5t40 -41.5t38 -35t40.5 -14.5q32 0 58 33.5t40 96.5h146q-26 -123 -94 -196.5t-156 -73.5z" />
    <glyph glyph-name="odieresis" unicode="&#xf6;" horiz-adv-x="1161" 
d="M576 184q137 0 228 121t91 300q0 124 -61 198.5t-164 74.5q-138 0 -228.5 -120t-90.5 -301q0 -124 61 -198.5t164 -74.5zM677 1084q211 0 339 -129.5t128 -342.5q0 -133 -43.5 -251t-119.5 -202t-182.5 -132.5t-228.5 -48.5q-211 0 -339 130t-128 343q0 133 43.5 250.5
t119.5 201.5t182.5 132.5t228.5 48.5zM550 1229q-51 0 -86.5 35.5t-35.5 85.5t35.5 85.5t86.5 35.5q52 0 87.5 -35.5t35.5 -85.5t-35.5 -85.5t-87.5 -35.5zM937 1229q-51 0 -86.5 35.5t-35.5 85.5t35.5 85.5t86.5 35.5t86.5 -35.5t35.5 -85.5t-35.5 -85.5t-86.5 -35.5z" />
    <glyph glyph-name="divide" unicode="&#xf7;" horiz-adv-x="1294" 
d="M1208 478h-1057l40 197h1058zM776 807q-66 0 -108.5 41.5t-42.5 107.5t42.5 107t108.5 41t109 -41t43 -107t-43 -107.5t-109 -41.5zM616 48q-66 0 -108.5 41.5t-42.5 107.5t42.5 107t108.5 41q67 0 109.5 -41t42.5 -107t-42.5 -107.5t-109.5 -41.5z" />
    <glyph glyph-name="oslash" unicode="&#xf8;" horiz-adv-x="1161" 
d="M891 697l-464 -465q59 -56 148 -56q140 0 232.5 123.5t92.5 308.5q0 48 -9 89zM355 365l465 465q-60 57 -149 57q-141 0 -233 -123.5t-92 -309.5q0 -48 9 -89zM1189 996l-115 -115q70 -115 70 -269q0 -133 -43.5 -251t-119.5 -202t-182.5 -132.5t-228.5 -48.5
q-180 0 -301 96l-109 -110l-102 103l115 115q-70 115 -70 269q0 133 43.5 250.5t119.5 201.5t182.5 132.5t228.5 48.5q180 0 301 -95l109 109z" />
    <glyph glyph-name="ugrave" unicode="&#xf9;" horiz-adv-x="1155" 
d="M1208 1062l-225 -1062h-236l35 158h-6q-44 -76 -137.5 -128t-206.5 -52q-150 0 -239 85t-89 218q0 73 15 145l133 636h246l-127 -597q-11 -50 -11 -98q0 -176 188 -176q106 0 182 67t100 178l133 626h245zM859 1231h-195l-187 308h231z" />
    <glyph glyph-name="uacute" unicode="&#xfa;" horiz-adv-x="1155" 
d="M1208 1062l-225 -1062h-236l35 158h-6q-44 -76 -137.5 -128t-206.5 -52q-150 0 -239 85t-89 218q0 73 15 145l133 636h246l-127 -597q-11 -50 -11 -98q0 -176 188 -176q106 0 182 67t100 178l133 626h245zM883 1231h-209l283 308h244z" />
    <glyph glyph-name="ucircumflex" unicode="&#xfb;" horiz-adv-x="1155" 
d="M1208 1062l-225 -1062h-236l35 158h-6q-44 -76 -137.5 -128t-206.5 -52q-150 0 -239 85t-89 218q0 73 15 145l133 636h246l-127 -597q-11 -50 -11 -98q0 -176 188 -176q106 0 182 67t100 178l133 626h245zM929 1537l200 -312h-194l-117 188h-7l-198 -188h-209l334 312
h191z" />
    <glyph glyph-name="udieresis" unicode="&#xfc;" horiz-adv-x="1155" 
d="M1208 1062l-225 -1062h-236l35 158h-6q-44 -76 -137.5 -128t-206.5 -52q-150 0 -239 85t-89 218q0 73 15 145l133 636h246l-127 -597q-11 -50 -11 -98q0 -176 188 -176q106 0 182 67t100 178l133 626h245zM596 1229q-51 0 -86.5 35.5t-35.5 85.5t35.5 85.5t86.5 35.5
q52 0 87.5 -35.5t35.5 -85.5t-35.5 -85.5t-87.5 -35.5zM983 1229q-51 0 -86.5 35.5t-35.5 85.5t35.5 85.5t86.5 35.5t86.5 -35.5t35.5 -85.5t-35.5 -85.5t-86.5 -35.5z" />
    <glyph glyph-name="yacute" unicode="&#xfd;" horiz-adv-x="1049" 
d="M93 -388q-26 0 -71.5 3.5t-56.5 7.5l38 201q25 -10 98 -10q136 0 196 145q0 1 11.5 26t11.5 26l-151 1051h246l85 -834h5l421 834h265l-624 -1130q-96 -178 -206 -249t-268 -71zM826 1231h-209l283 308h244z" />
    <glyph glyph-name="thorn" unicode="&#xfe;" horiz-adv-x="1196" 
d="M618 192q133 0 223.5 119.5t90.5 298.5q0 124 -59 194.5t-162 70.5q-142 0 -233 -126t-91 -302q0 -114 63.5 -184.5t167.5 -70.5zM324 205l-116 -544h-244l381 1789h244l-119 -551h8q51 82 137.5 131.5t185.5 49.5q174 0 276 -119t102 -320q0 -187 -69 -337.5
t-189.5 -235.5t-268.5 -85q-117 0 -203.5 61.5t-115.5 160.5h-9z" />
    <glyph glyph-name="ydieresis" unicode="&#xff;" horiz-adv-x="1049" 
d="M93 -388q-26 0 -71.5 3.5t-56.5 7.5l38 201q25 -10 98 -10q136 0 196 145q0 1 11.5 26t11.5 26l-151 1051h246l85 -834h5l421 834h265l-624 -1130q-96 -178 -206 -249t-268 -71zM539 1229q-51 0 -86.5 35.5t-35.5 85.5t35.5 85.5t86.5 35.5q52 0 87.5 -35.5t35.5 -85.5
t-35.5 -85.5t-87.5 -35.5zM926 1229q-51 0 -86.5 35.5t-35.5 85.5t35.5 85.5t86.5 35.5t86.5 -35.5t35.5 -85.5t-35.5 -85.5t-86.5 -35.5z" />
    <glyph glyph-name="Amacron" unicode="&#x100;" horiz-adv-x="1356" 
d="M867 1177l-330 -604h410l-75 604h-5zM1011 0l-45 369h-534l-204 -369h-277l822 1443h293l200 -1443h-255zM1320 1763l-29 -139h-671l30 139h670z" />
    <glyph glyph-name="amacron" unicode="&#x101;" horiz-adv-x="1070" 
d="M473 173q97 0 172.5 55.5t94.5 142.5l23 101l-248 -12q-101 -4 -158.5 -44.5t-57.5 -107.5q0 -61 48 -98t126 -37zM383 -17q-137 0 -231 83t-94 209q0 159 119 250t331 100l289 12l14 64q4 17 4 44q0 65 -48.5 102.5t-135.5 37.5q-88 0 -143.5 -37.5t-70.5 -102.5h-238
q26 153 153.5 246t317.5 93q182 0 294.5 -86.5t112.5 -224.5q0 -51 -8 -88l-145 -685h-236l27 128h-4q-51 -67 -131.5 -106t-176.5 -39zM1050 1418l-29 -138h-615l29 138h615z" />
    <glyph glyph-name="Abreve" unicode="&#x102;" horiz-adv-x="1356" 
d="M867 1177l-330 -604h410l-75 604h-5zM1011 0l-45 369h-534l-204 -369h-277l822 1443h293l200 -1443h-255zM660 1856h159q-7 -23 -7 -45q0 -64 40 -100t111 -36q82 0 143 49t80 132h163q-33 -145 -141 -230.5t-269 -85.5q-130 0 -209 68.5t-79 177.5q0 38 9 70z" />
    <glyph glyph-name="abreve" unicode="&#x103;" horiz-adv-x="1070" 
d="M473 173q97 0 172.5 55.5t94.5 142.5l23 101l-248 -12q-101 -4 -158.5 -44.5t-57.5 -107.5q0 -61 48 -98t126 -37zM383 -17q-137 0 -231 83t-94 209q0 159 119 250t331 100l289 12l14 64q4 17 4 44q0 65 -48.5 102.5t-135.5 37.5q-88 0 -143.5 -37.5t-70.5 -102.5h-238
q26 153 153.5 246t317.5 93q182 0 294.5 -86.5t112.5 -224.5q0 -51 -8 -88l-145 -685h-236l27 128h-4q-51 -67 -131.5 -106t-176.5 -39zM421 1537h159q-6 -26 -6 -45q0 -64 40.5 -101t109.5 -37q82 0 143.5 49t80.5 134h162q-33 -149 -140.5 -234t-269.5 -85
q-124 0 -206 70.5t-82 180.5q0 28 9 68z" />
    <glyph glyph-name="Aogonek" unicode="&#x104;" horiz-adv-x="1356" 
d="M1149 -283l-30 -145q-42 -22 -132 -22q-94 0 -152.5 46t-58.5 123q0 74 62 148t172 135l-46 367h-534l-202 -369h-277l820 1443h293l199 -1426l-23 -10q-129 -56 -196 -115.5t-67 -113.5q0 -35 25.5 -54t73.5 -19t73 12zM864 1177l-329 -604h410l-75 604h-6z" />
    <glyph glyph-name="aogonek" unicode="&#x105;" horiz-adv-x="1070" 
d="M472 179q101 0 175.5 53t93.5 139l23 101l-251 -12q-99 -4 -156 -44.5t-57 -107.5q0 -58 47.5 -93.5t124.5 -35.5zM791 -416q-42 -22 -132 -22q-95 0 -152.5 46.5t-57.5 121.5q0 150 220 272l27 126h-4q-50 -67 -130 -103t-180 -36q-138 0 -230.5 82t-92.5 204
q0 158 118.5 249.5t334.5 100.5l286 12l14 64q4 20 4 44q0 62 -50.5 98t-138.5 36q-84 0 -139 -35t-70 -99h-238q26 152 153 242.5t313 90.5q184 0 298 -84.5t114 -220.5q0 -53 -8 -88l-146 -687l-17 -5q-101 -34 -169.5 -91.5t-68.5 -111.5q0 -34 27 -53.5t71 -19.5
q45 0 73 11z" />
    <glyph glyph-name="Cacute" unicode="&#x106;" horiz-adv-x="1446" 
d="M1248 937q0 2 -0.5 11.5t-0.5 18.5q-10 124 -101 198.5t-227 74.5q-144 0 -256.5 -81t-174.5 -225t-62 -325q0 -188 95 -296.5t259 -108.5q132 0 233 70t146 192h254q-52 -222 -228 -356t-416 -134q-278 0 -443 168t-165 452q0 188 57 349.5t158 276.5t245 180t313 65
q244 0 402 -135t168 -355q0 -29 -1 -40h-255zM1064 1559h-213l287 300h254z" />
    <glyph glyph-name="cacute" unicode="&#x107;" horiz-adv-x="1085" 
d="M666 1084q201 0 320.5 -110t119.5 -269v-24h-236q-2 84 -59 138.5t-153 54.5q-136 0 -222 -118.5t-86 -305.5q0 -121 59 -191.5t157 -70.5q89 0 153.5 48.5t92.5 132.5h236q-33 -171 -169 -281t-320 -110q-214 0 -335 126.5t-121 335.5q0 283 156 463.5t407 180.5z
M833 1231h-209l283 308h244z" />
    <glyph glyph-name="Ccircumflex" unicode="&#x108;" horiz-adv-x="1446" 
d="M1248 937q0 2 -0.5 11.5t-0.5 18.5q-10 124 -101 198.5t-227 74.5q-144 0 -256.5 -81t-174.5 -225t-62 -325q0 -188 95 -296.5t259 -108.5q132 0 233 70t146 192h254q-52 -222 -228 -356t-416 -134q-278 0 -443 168t-165 452q0 188 57 349.5t158 276.5t245 180t313 65
q244 0 402 -135t168 -355q0 -29 -1 -40h-255zM1108 1864l208 -311h-193l-124 192h-7l-206 -192h-209l340 311h191z" />
    <glyph glyph-name="ccircumflex" unicode="&#x109;" horiz-adv-x="1085" 
d="M666 1084q201 0 320.5 -110t119.5 -269v-24h-236q-2 84 -59 138.5t-153 54.5q-136 0 -222 -118.5t-86 -305.5q0 -121 59 -191.5t157 -70.5q89 0 153.5 48.5t92.5 132.5h236q-33 -171 -169 -281t-320 -110q-214 0 -335 126.5t-121 335.5q0 283 156 463.5t407 180.5z
M879 1537l200 -312h-194l-117 188h-7l-198 -188h-209l334 312h191z" />
    <glyph glyph-name="Cdotaccent" unicode="&#x10a;" horiz-adv-x="1446" 
d="M1248 937q0 2 -0.5 11.5t-0.5 18.5q-10 124 -101 198.5t-227 74.5q-144 0 -256.5 -81t-174.5 -225t-62 -325q0 -188 95 -296.5t259 -108.5q132 0 233 70t146 192h254q-52 -222 -228 -356t-416 -134q-278 0 -443 168t-165 452q0 188 57 349.5t158 276.5t245 180t313 65
q244 0 402 -135t168 -355q0 -29 -1 -40h-255zM994 1609q-59 0 -100 41.5t-41 99.5q0 59 41 100.5t100 41.5q58 0 99 -41.5t41 -100.5q0 -58 -41 -99.5t-99 -41.5z" />
    <glyph glyph-name="cdotaccent" unicode="&#x10b;" horiz-adv-x="1085" 
d="M666 1084q201 0 320.5 -110t119.5 -269v-24h-236q-2 84 -59 138.5t-153 54.5q-136 0 -222 -118.5t-86 -305.5q0 -121 59 -191.5t157 -70.5q89 0 153.5 48.5t92.5 132.5h236q-33 -171 -169 -281t-320 -110q-214 0 -335 126.5t-121 335.5q0 283 156 463.5t407 180.5z
M738 1228q-58 0 -99.5 41t-41.5 100q0 58 41.5 99.5t99.5 41.5t99.5 -41.5t41.5 -99.5q0 -59 -41.5 -100t-99.5 -41z" />
    <glyph glyph-name="Ccaron" unicode="&#x10c;" horiz-adv-x="1446" 
d="M1248 937q0 2 -0.5 11.5t-0.5 18.5q-10 124 -101 198.5t-227 74.5q-144 0 -256.5 -81t-174.5 -225t-62 -325q0 -188 95 -296.5t259 -108.5q132 0 233 70t146 192h254q-52 -222 -228 -356t-416 -134q-278 0 -443 168t-165 452q0 188 57 349.5t158 276.5t245 180t313 65
q244 0 402 -135t168 -355q0 -29 -1 -40h-255zM862 1553l-208 311h193l125 -192h7l205 192h210l-340 -311h-192z" />
    <glyph glyph-name="ccaron" unicode="&#x10d;" horiz-adv-x="1085" 
d="M666 1084q201 0 320.5 -110t119.5 -269v-24h-236q-2 84 -59 138.5t-153 54.5q-136 0 -222 -118.5t-86 -305.5q0 -121 59 -191.5t157 -70.5q89 0 153.5 48.5t92.5 132.5h236q-33 -171 -169 -281t-320 -110q-214 0 -335 126.5t-121 335.5q0 283 156 463.5t407 180.5z
M819 1225h-192l-200 312h190l117 -190h6l199 190h212z" />
    <glyph glyph-name="Dcaron" unicode="&#x10e;" horiz-adv-x="1438" 
d="M367 1443h478q278 0 438.5 -152.5t160.5 -422.5q0 -253 -96.5 -450.5t-272.5 -307.5t-403 -110h-610zM583 1222l-215 -1000h275q235 0 385.5 170.5t150.5 442.5q0 187 -99.5 287t-288.5 100h-208zM737 1552l-208 311h193l125 -192h7l205 192h210l-340 -311h-192z" />
    <glyph glyph-name="dcaron" unicode="&#x10f;" horiz-adv-x="1451" 
d="M1470 1443h218l-156 -498h-168zM482 -17q-175 0 -278 118.5t-103 319.5q0 186 69.5 337t191 236.5t270.5 85.5q121 0 211 -61.5t116 -157.5h6l126 582h244l-307 -1443h-242l34 162h-5q-53 -82 -141 -130.5t-192 -48.5zM572 188q137 0 230.5 123.5t93.5 304.5
q0 113 -63.5 184t-168.5 71q-133 0 -223.5 -120t-90.5 -301q0 -121 59.5 -191.5t162.5 -70.5z" />
    <glyph glyph-name="Dcroat" unicode="&#x110;" horiz-adv-x="1438" 
d="M368 222h275q235 0 385.5 170.5t150.5 442.5q0 187 -99.5 287t-288.5 100h-208l-81 -378h281l-46 -223h-283zM367 1443h478q278 0 438.5 -152.5t160.5 -422.5q0 -253 -96.5 -450.5t-272.5 -307.5t-403 -110h-610l131 621h-130l47 223h130z" />
    <glyph glyph-name="dcroat" unicode="&#x111;" horiz-adv-x="1206" 
d="M572 188q137 0 230.5 123.5t93.5 304.5q0 113 -63.5 184t-168.5 71q-133 0 -223.5 -120t-90.5 -301q0 -121 59.5 -191.5t162.5 -70.5zM1422 1345l-33 -160h-109l-252 -1185h-242l34 162h-5q-53 -82 -141 -130.5t-192 -48.5q-175 0 -278 118.5t-103 319.5q0 186 69.5 337
t191 236.5t270.5 85.5q121 0 211 -61.5t116 -157.5h6l70 324h-236l34 160h237l21 98h244l-21 -98h108z" />
    <glyph glyph-name="Emacron" unicode="&#x112;" horiz-adv-x="1158" 
d="M1041 223l-46 -223h-935l307 1443h935l-47 -223h-673l-84 -383h637l-44 -210h-636l-88 -404h674zM1230 1763l-29 -139h-671l30 139h670z" />
    <glyph glyph-name="emacron" unicode="&#x113;" horiz-adv-x="1117" 
d="M365 640h499q1 8 1 30q0 93 -56 156t-162 63q-104 0 -178.5 -69t-103.5 -180zM562 -22q-217 0 -337.5 129t-120.5 345q0 176 69 320t195.5 228t285.5 84q204 0 325 -122.5t121 -329.5q0 -93 -12 -158h-750q-1 -11 -1 -34q0 -121 63 -193t169 -72q91 0 156 42.5t95 116.5
h233q-42 -157 -176 -256.5t-315 -99.5zM1052 1418l-29 -138h-615l29 138h615z" />
    <glyph glyph-name="Ebreve" unicode="&#x114;" horiz-adv-x="1158" 
d="M1041 223l-46 -223h-935l307 1443h935l-47 -223h-673l-84 -383h637l-44 -210h-636l-88 -404h674zM570 1856h159q-7 -23 -7 -45q0 -64 40 -100t111 -36q82 0 143 49t80 132h163q-33 -145 -141 -230.5t-269 -85.5q-130 0 -209 68.5t-79 177.5q0 38 9 70z" />
    <glyph glyph-name="ebreve" unicode="&#x115;" horiz-adv-x="1117" 
d="M365 640h499q1 8 1 30q0 93 -56 156t-162 63q-104 0 -178.5 -69t-103.5 -180zM562 -22q-217 0 -337.5 129t-120.5 345q0 176 69 320t195.5 228t285.5 84q204 0 325 -122.5t121 -329.5q0 -93 -12 -158h-750q-1 -11 -1 -34q0 -121 63 -193t169 -72q91 0 156 42.5t95 116.5
h233q-42 -157 -176 -256.5t-315 -99.5zM423 1537h159q-6 -26 -6 -45q0 -64 40.5 -101t109.5 -37q82 0 143.5 49t80.5 134h162q-33 -149 -140.5 -234t-269.5 -85q-124 0 -206 70.5t-82 180.5q0 28 9 68z" />
    <glyph glyph-name="Edotaccent" unicode="&#x116;" horiz-adv-x="1158" 
d="M1041 223l-46 -223h-935l307 1443h935l-47 -223h-673l-84 -383h637l-44 -210h-636l-88 -404h674zM889 1608q-59 0 -100 41.5t-41 99.5q0 59 41 100.5t100 41.5q58 0 99 -41.5t41 -100.5q0 -58 -41 -99.5t-99 -41.5z" />
    <glyph glyph-name="edotaccent" unicode="&#x117;" horiz-adv-x="1117" 
d="M365 640h499q1 8 1 30q0 93 -56 156t-162 63q-104 0 -178.5 -69t-103.5 -180zM562 -22q-217 0 -337.5 129t-120.5 345q0 176 69 320t195.5 228t285.5 84q204 0 325 -122.5t121 -329.5q0 -93 -12 -158h-750q-1 -11 -1 -34q0 -121 63 -193t169 -72q91 0 156 42.5t95 116.5
h233q-42 -157 -176 -256.5t-315 -99.5zM724 1228q-58 0 -99.5 41t-41.5 100q0 58 41.5 99.5t99.5 41.5t99.5 -41.5t41.5 -99.5q0 -59 -41.5 -100t-99.5 -41z" />
    <glyph glyph-name="Eogonek" unicode="&#x118;" horiz-adv-x="1158" 
d="M60 0l307 1443h935l-47 -223h-673l-84 -383h637l-44 -210h-636l-89 -404h675l-44 -214l-29 -12q-108 -52 -167.5 -110t-59.5 -109q0 -35 26 -54t73 -19q46 0 73 12l-30 -145q-42 -22 -132 -22q-95 0 -153 46.5t-58 122.5q0 74 59.5 148t163.5 129v4h-703z" />
    <glyph glyph-name="eogonek" unicode="&#x119;" horiz-adv-x="1117" 
d="M598 -438q-95 0 -152.5 46.5t-57.5 121.5q0 144 182 243v5h-8q-217 0 -337.5 129t-120.5 345q0 176 69 320t195.5 228t285.5 84q204 0 325 -122.5t121 -329.5q0 -93 -12 -158h-750q-1 -11 -1 -34q0 -121 63 -193t169 -72q91 0 156 42.5t95 116.5h233
q-22 -81 -69.5 -151.5t-115.5 -112.5q-279 -166 -279 -276q0 -35 27 -56t71 -21q48 0 73 11l-30 -144q-37 -22 -132 -22zM365 640h499q1 8 1 30q0 93 -56 156t-162 63q-104 0 -178.5 -69t-103.5 -180z" />
    <glyph glyph-name="Ecaron" unicode="&#x11a;" horiz-adv-x="1158" 
d="M1041 223l-46 -223h-935l307 1443h935l-47 -223h-673l-84 -383h637l-44 -210h-636l-88 -404h674zM757 1552l-208 311h193l125 -192h7l205 192h210l-340 -311h-192z" />
    <glyph glyph-name="ecaron" unicode="&#x11b;" horiz-adv-x="1117" 
d="M365 640h499q1 8 1 30q0 93 -56 156t-162 63q-104 0 -178.5 -69t-103.5 -180zM562 -22q-217 0 -337.5 129t-120.5 345q0 176 69 320t195.5 228t285.5 84q204 0 325 -122.5t121 -329.5q0 -93 -12 -158h-750q-1 -11 -1 -34q0 -121 63 -193t169 -72q91 0 156 42.5t95 116.5
h233q-42 -157 -176 -256.5t-315 -99.5zM805 1225h-192l-200 312h190l117 -190h6l199 190h212z" />
    <glyph glyph-name="Gcircumflex" unicode="&#x11c;" horiz-adv-x="1481" 
d="M1488 755l-40 -198q-55 -277 -233.5 -429t-442.5 -152q-281 0 -446 172t-165 453q0 131 30.5 255.5t94.5 235.5t153 194.5t215 132t273 48.5q256 0 415.5 -138.5t164.5 -348.5q0 -3 -0.5 -10t-0.5 -10h-253q-9 128 -97.5 205t-232.5 77q-100 0 -183.5 -36t-141 -97
t-97.5 -142.5t-58.5 -171.5t-18.5 -184q0 -188 95 -299.5t269 -111.5q149 0 258 87.5t140 230.5l7 36h-346l42 201h599zM1103 1863l208 -311h-193l-124 192h-7l-206 -192h-209l340 311h191z" />
    <glyph glyph-name="gcircumflex" unicode="&#x11d;" horiz-adv-x="1194" 
d="M479 -401q-206 0 -334 90t-128 236h244q10 -64 70.5 -102t154.5 -38q238 0 297 242l35 152h-9q-48 -78 -135.5 -124t-188.5 -46q-173 0 -278 116.5t-105 310.5q0 100 23.5 195t69.5 176t109 142t147.5 96t179.5 35q120 0 208 -63t116 -163h9l43 208h240l-220 -1041
q-44 -205 -188 -313.5t-360 -108.5zM573 200q94 0 168.5 57.5t113.5 152t39 206.5t-65.5 183.5t-165.5 71.5q-138 0 -226 -119.5t-88 -296.5q0 -116 59 -185.5t165 -69.5zM942 1538l200 -312h-194l-117 188h-7l-198 -188h-209l334 312h191z" />
    <glyph glyph-name="Gbreve" unicode="&#x11e;" horiz-adv-x="1481" 
d="M1488 755l-40 -198q-55 -277 -233.5 -429t-442.5 -152q-281 0 -446 172t-165 453q0 131 30.5 255.5t94.5 235.5t153 194.5t215 132t273 48.5q256 0 415.5 -138.5t164.5 -348.5q0 -3 -0.5 -10t-0.5 -10h-253q-9 128 -97.5 205t-232.5 77q-100 0 -183.5 -36t-141 -97
t-97.5 -142.5t-58.5 -171.5t-18.5 -184q0 -188 95 -299.5t269 -111.5q149 0 258 87.5t140 230.5l7 36h-346l42 201h599zM670 1856h159q-7 -23 -7 -45q0 -64 40 -100t111 -36q82 0 143 49t80 132h163q-33 -145 -141 -230.5t-269 -85.5q-130 0 -209 68.5t-79 177.5q0 38 9 70z
" />
    <glyph glyph-name="gbreve" unicode="&#x11f;" horiz-adv-x="1194" 
d="M479 -401q-206 0 -334 90t-128 236h244q10 -64 70.5 -102t154.5 -38q238 0 297 242l35 152h-9q-48 -78 -135.5 -124t-188.5 -46q-173 0 -278 116.5t-105 310.5q0 100 23.5 195t69.5 176t109 142t147.5 96t179.5 35q120 0 208 -63t116 -163h9l43 208h240l-220 -1041
q-44 -205 -188 -313.5t-360 -108.5zM573 200q94 0 168.5 57.5t113.5 152t39 206.5t-65.5 183.5t-165.5 71.5q-138 0 -226 -119.5t-88 -296.5q0 -116 59 -185.5t165 -69.5zM500 1538h159q-6 -26 -6 -45q0 -64 40.5 -101t109.5 -37q82 0 143.5 49t80.5 134h162
q-33 -149 -140.5 -234t-269.5 -85q-124 0 -206 70.5t-82 180.5q0 28 9 68z" />
    <glyph glyph-name="Gdotaccent" unicode="&#x120;" horiz-adv-x="1481" 
d="M1488 755l-40 -198q-55 -277 -233.5 -429t-442.5 -152q-281 0 -446 172t-165 453q0 131 30.5 255.5t94.5 235.5t153 194.5t215 132t273 48.5q256 0 415.5 -138.5t164.5 -348.5q0 -3 -0.5 -10t-0.5 -10h-253q-9 128 -97.5 205t-232.5 77q-100 0 -183.5 -36t-141 -97
t-97.5 -142.5t-58.5 -171.5t-18.5 -184q0 -188 95 -299.5t269 -111.5q149 0 258 87.5t140 230.5l7 36h-346l42 201h599zM988 1608q-59 0 -100 41.5t-41 99.5q0 59 41 100.5t100 41.5q58 0 99 -41.5t41 -100.5q0 -58 -41 -99.5t-99 -41.5z" />
    <glyph glyph-name="gdotaccent" unicode="&#x121;" horiz-adv-x="1194" 
d="M479 -401q-206 0 -334 90t-128 236h244q10 -64 70.5 -102t154.5 -38q238 0 297 242l35 152h-9q-48 -78 -135.5 -124t-188.5 -46q-173 0 -278 116.5t-105 310.5q0 100 23.5 195t69.5 176t109 142t147.5 96t179.5 35q120 0 208 -63t116 -163h9l43 208h240l-220 -1041
q-44 -205 -188 -313.5t-360 -108.5zM573 200q94 0 168.5 57.5t113.5 152t39 206.5t-65.5 183.5t-165.5 71.5q-138 0 -226 -119.5t-88 -296.5q0 -116 59 -185.5t165 -69.5zM801 1229q-59 0 -100 41.5t-41 99.5t41.5 99.5t99.5 41.5t99.5 -41.5t41.5 -99.5t-41 -99.5
t-100 -41.5z" />
    <glyph glyph-name="Gcommaaccent" unicode="&#x122;" horiz-adv-x="1481" 
d="M1488 755l-40 -198q-55 -277 -233.5 -429t-442.5 -152q-281 0 -446 172t-165 453q0 131 30.5 255.5t94.5 235.5t153 194.5t215 132t273 48.5q256 0 415.5 -138.5t164.5 -348.5q0 -3 -0.5 -10t-0.5 -10h-253q-9 128 -97.5 205t-232.5 77q-100 0 -183.5 -36t-141 -97
t-97.5 -142.5t-58.5 -171.5t-18.5 -184q0 -188 95 -299.5t269 -111.5q149 0 258 87.5t140 230.5l7 36h-346l42 201h599zM620 -476h-189l194 346h226z" />
    <glyph glyph-name="gcommaaccent" unicode="&#x123;" horiz-adv-x="1194" 
d="M479 -401q-206 0 -334 90t-128 236h244q10 -64 70.5 -102t154.5 -38q238 0 297 242l35 152h-9q-48 -78 -135.5 -124t-188.5 -46q-173 0 -278 116.5t-105 310.5q0 100 23.5 195t69.5 176t109 142t147.5 96t179.5 35q120 0 208 -63t116 -163h9l43 208h240l-220 -1041
q-44 -205 -188 -313.5t-360 -108.5zM573 200q94 0 168.5 57.5t113.5 152t39 206.5t-65.5 183.5t-165.5 71.5q-138 0 -226 -119.5t-88 -296.5q0 -116 59 -185.5t165 -69.5zM1034 1539h189l-194 -346h-226z" />
    <glyph glyph-name="Hcircumflex" unicode="&#x124;" horiz-adv-x="1479" 
d="M1280 0h-264l134 624h-693l-133 -624h-264l307 1443h264l-128 -598h692l128 598h264zM1148 1863l208 -311h-193l-124 192h-7l-206 -192h-209l340 311h191z" />
    <glyph glyph-name="hcircumflex" unicode="&#x125;" horiz-adv-x="1171" 
d="M38 0l307 1443h245l-117 -544h6q52 82 140.5 132.5t202.5 50.5q149 0 241.5 -89.5t92.5 -220.5q0 -56 -14 -126l-140 -646h-244l131 605q11 53 11 90q0 81 -54.5 131t-146.5 50q-104 0 -181.5 -67.5t-100.5 -176.5l-134 -632h-245zM645 1863l208 -311h-193l-124 192h-7
l-206 -192h-209l340 311h191z" />
    <glyph glyph-name="Hbar" unicode="&#x126;" horiz-adv-x="1479" 
d="M1195 845l44 207h-692l-44 -207h692zM1650 1251l-42 -199h-104l-224 -1052h-264l134 624h-693l-133 -624h-264l224 1052h-107l41 199h108l41 192h264l-41 -192h692l41 192h264l-41 -192h104z" />
    <glyph glyph-name="hbar" unicode="&#x127;" horiz-adv-x="1171" 
d="M473 899h6q52 82 140.5 132.5t202.5 50.5q149 0 241.5 -89.5t92.5 -220.5q0 -56 -14 -126l-140 -646h-244l131 605q11 53 11 90q0 81 -54.5 131t-146.5 50q-104 0 -181.5 -67.5t-100.5 -176.5l-134 -632h-245l254 1192h-108l31 146h108l22 105h245l-23 -105h228l-31 -146
h-228z" />
    <glyph glyph-name="Itilde" unicode="&#x128;" horiz-adv-x="520" 
d="M321 0h-261l307 1443h261zM677 1546q-46 0 -84.5 22t-60 48t-48 48t-52.5 22q-34 0 -60.5 -33.5t-39.5 -93.5h-145q23 124 91 196t160 72q40 0 72.5 -14.5t54 -35.5t40 -41.5t38 -35t40.5 -14.5q32 0 58 33.5t40 96.5h146q-26 -123 -94 -196.5t-156 -73.5z" />
    <glyph glyph-name="itilde" unicode="&#x129;" horiz-adv-x="468" 
d="M41 0l226 1062h246l-226 -1062h-246zM578 1230q-46 0 -84.5 22t-60 48t-48 48t-52.5 22q-34 0 -60.5 -33.5t-39.5 -93.5h-145q23 124 91 196t160 72q40 0 72.5 -14.5t54 -35.5t40 -41.5t38 -35t40.5 -14.5q32 0 58 33.5t40 96.5h146q-26 -123 -94 -196.5t-156 -73.5z" />
    <glyph glyph-name="Imacron" unicode="&#x12a;" horiz-adv-x="520" 
d="M321 0h-261l307 1443h261zM902 1763l-29 -139h-671l30 139h670z" />
    <glyph glyph-name="imacron" unicode="&#x12b;" horiz-adv-x="468" 
d="M41 0l226 1062h246l-226 -1062h-246zM699 1418l-25 -138h-522l24 138h523z" />
    <glyph glyph-name="Ibreve" unicode="&#x12c;" horiz-adv-x="520" 
d="M321 0h-261l307 1443h261zM242 1856h159q-7 -23 -7 -45q0 -64 40 -100t111 -36q82 0 143 49t80 132h163q-33 -145 -141 -230.5t-269 -85.5q-130 0 -209 68.5t-79 177.5q0 38 9 70z" />
    <glyph glyph-name="ibreve" unicode="&#x12d;" horiz-adv-x="468" 
d="M41 0l226 1062h246l-226 -1062h-246zM152 1537h159q-6 -26 -6 -45q0 -64 40.5 -101t109.5 -37q82 0 143.5 49t80.5 134h162q-33 -149 -140.5 -234t-269.5 -85q-124 0 -206 70.5t-82 180.5q0 28 9 68z" />
    <glyph glyph-name="Iogonek" unicode="&#x12e;" horiz-adv-x="520" 
d="M120 -450q-95 0 -153 47t-58 123q0 125 169 267l-20 1l309 1455h261l-305 -1431l-25 -13q-188 -109 -188 -217q0 -37 26 -57t72 -20q52 0 74 12l-30 -145q-44 -22 -132 -22z" />
    <glyph glyph-name="iogonek" unicode="&#x12f;" horiz-adv-x="452" 
d="M205 -416q-42 -22 -132 -22q-95 0 -152.5 46.5t-57.5 121.5q0 130 167 255l228 1077h247l-224 -1055l-29 -13q-76 -37 -132.5 -96t-56.5 -108q0 -34 27 -53.5t71 -19.5q48 0 73 11zM439 1199q-58 0 -98 40t-40 98t40 98t98 40t98.5 -40t40.5 -98t-40.5 -98t-98.5 -40z
" />
    <glyph glyph-name="Idotaccent" unicode="&#x130;" horiz-adv-x="520" 
d="M321 0h-261l307 1443h261zM561 1608q-59 0 -100 41.5t-41 99.5q0 59 41 100.5t100 41.5q58 0 99 -41.5t41 -100.5q0 -58 -41 -99.5t-99 -41.5z" />
    <glyph glyph-name="dotlessi" unicode="&#x131;" horiz-adv-x="468" 
d="M41 0l226 1062h246l-226 -1062h-246z" />
    <glyph glyph-name="IJ" unicode="&#x132;" horiz-adv-x="1620" 
d="M321 0h-261l307 1443h261zM576 366q0 6 0.5 20.5t0.5 19.5h253v-8q0 -86 52.5 -136t142.5 -50q180 0 229 230l213 1001h261l-222 -1044q-43 -205 -169 -314t-325 -109q-192 0 -314 109.5t-122 280.5z" />
    <glyph glyph-name="ij" unicode="&#x133;" horiz-adv-x="924" 
d="M38 0l226 1062h246l-225 -1062h-247zM445 1199q-58 0 -98 40t-40 98t40 98t98 40t98.5 -40t40.5 -98t-40.5 -98t-98.5 -40zM913 1199q-58 0 -98.5 40t-40.5 98t40.5 98t98.5 40t98 -40t40 -98t-40 -98t-98 -40zM972 1062l-242 -1135q-32 -149 -128.5 -224.5t-250.5 -76.5
q-58 0 -109 8l43 196q32 -5 57 -5q64 0 98.5 30.5t49.5 100.5l237 1106h245z" />
    <glyph glyph-name="Jcircumflex" unicode="&#x134;" horiz-adv-x="1100" 
d="M56 366q0 6 0.5 20.5t0.5 19.5h253v-8q0 -86 52.5 -136t142.5 -50q180 0 229 230l213 1001h261l-222 -1044q-43 -205 -169 -314t-325 -109q-192 0 -314 109.5t-122 280.5zM1255 1863l208 -311h-193l-124 192h-7l-206 -192h-209l340 311h191z" />
    <glyph glyph-name="jcircumflex" unicode="&#x135;" horiz-adv-x="462" 
d="M510 1062l-242 -1135q-32 -149 -128.5 -224.5t-250.5 -76.5q-58 0 -109 8l43 196q32 -5 57 -5q64 0 98.5 30.5t49.5 100.5l237 1106h245zM594 1537l200 -312h-194l-117 188h-7l-198 -188h-209l334 312h191z" />
    <glyph glyph-name="Kcommaaccent" unicode="&#x136;" horiz-adv-x="1322" 
d="M321 0h-261l307 1443h261l-142 -662h5l708 662h315l-692 -657l416 -786h-291l-334 629l-196 -179zM462 -476h-189l194 346h226z" />
    <glyph glyph-name="kcommaaccent" unicode="&#x137;" horiz-adv-x="1051" 
d="M284 0h-246l308 1443h245l-172 -802h6l478 421h296l-510 -449l309 -613h-269l-237 474l-129 -107zM347 -476h-189l194 346h226z" />
    <glyph glyph-name="Lacute" unicode="&#x139;" horiz-adv-x="1102" 
d="M1027 226l-46 -226h-921l307 1443h261l-260 -1217h659zM630 1558h-213l287 300h254z" />
    <glyph glyph-name="lacute" unicode="&#x13a;" horiz-adv-x="472" 
d="M44 0l307 1443h246l-307 -1443h-246zM607 1558h-213l287 300h254z" />
    <glyph glyph-name="Lcommaaccent" unicode="&#x13b;" horiz-adv-x="1102" 
d="M1027 226l-46 -226h-921l307 1443h261l-260 -1217h659zM370 -476h-189l194 346h226z" />
    <glyph glyph-name="lcommaaccent" unicode="&#x13c;" horiz-adv-x="472" 
d="M44 0l307 1443h246l-307 -1443h-246zM12 -476h-189l194 346h226z" />
    <glyph glyph-name="Lcaron" unicode="&#x13d;" horiz-adv-x="1102" 
d="M926 1443h218l-155 -498h-169zM1027 226l-46 -226h-921l307 1443h261l-260 -1217h659z" />
    <glyph glyph-name="lcaron" unicode="&#x13e;" horiz-adv-x="719" 
d="M737 1443h218l-156 -498h-168zM44 0l307 1443h246l-307 -1443h-246z" />
    <glyph glyph-name="Lslash" unicode="&#x141;" horiz-adv-x="1102" 
d="M368 226h659l-46 -226h-921l109 512l-143 -67l46 220l144 68l151 710h261l-123 -574l314 147l-46 -221l-315 -148z" />
    <glyph glyph-name="lslash" unicode="&#x142;" horiz-adv-x="472" 
d="M601 952l-45 -213l-121 -58l-145 -681h-246l117 551l-116 -55l44 213l118 56l144 678h246l-117 -548z" />
    <glyph glyph-name="Nacute" unicode="&#x143;" horiz-adv-x="1458" 
d="M315 0h-255l307 1443h228l488 -1040h5l223 1040h254l-307 -1443h-227l-488 1040h-6zM1092 1558h-213l287 300h254z" />
    <glyph glyph-name="nacute" unicode="&#x144;" horiz-adv-x="1155" 
d="M33 0l225 1062h235l-34 -163h5q55 87 144.5 136t200.5 49q144 0 237.5 -86.5t93.5 -221.5q0 -58 -14 -130l-137 -646h-244l128 605q11 51 11 94q0 81 -54 129t-143 48q-100 0 -175.5 -66.5t-99.5 -177.5l-134 -632h-245zM877 1231h-209l283 308h244z" />
    <glyph glyph-name="Ncommaaccent" unicode="&#x145;" horiz-adv-x="1458" 
d="M315 0h-255l307 1443h228l488 -1040h5l223 1040h254l-307 -1443h-227l-488 1040h-6zM515 -476h-189l194 346h226z" />
    <glyph glyph-name="ncommaaccent" unicode="&#x146;" horiz-adv-x="1155" 
d="M33 0l225 1062h235l-34 -163h5q55 87 144.5 136t200.5 49q144 0 237.5 -86.5t93.5 -221.5q0 -58 -14 -130l-137 -646h-244l128 605q11 51 11 94q0 81 -54 129t-143 48q-100 0 -175.5 -66.5t-99.5 -177.5l-134 -632h-245zM356 -476h-189l194 346h226z" />
    <glyph glyph-name="Ncaron" unicode="&#x147;" horiz-adv-x="1458" 
d="M315 0h-255l307 1443h228l488 -1040h5l223 1040h254l-307 -1443h-227l-488 1040h-6zM890 1552l-208 311h193l125 -192h7l205 192h210l-340 -311h-192z" />
    <glyph glyph-name="ncaron" unicode="&#x148;" horiz-adv-x="1155" 
d="M33 0l225 1062h235l-34 -163h5q55 87 144.5 136t200.5 49q144 0 237.5 -86.5t93.5 -221.5q0 -58 -14 -130l-137 -646h-244l128 605q11 51 11 94q0 81 -54 129t-143 48q-100 0 -175.5 -66.5t-99.5 -177.5l-134 -632h-245zM863 1225h-192l-200 312h190l117 -190h6l199 190
h212z" />
    <glyph glyph-name="Omacron" unicode="&#x14c;" horiz-adv-x="1540" 
d="M924 1241q-142 0 -257.5 -84.5t-179 -228t-63.5 -315.5q0 -188 97.5 -299.5t261.5 -111.5q142 0 257.5 84.5t179.5 228t64 315.5q0 188 -98 299.5t-262 111.5zM779 -24q-281 0 -449.5 172.5t-168.5 451.5q0 243 99.5 441.5t275 312t391.5 113.5q283 0 451.5 -172.5
t168.5 -451.5q0 -182 -59 -343t-160.5 -276t-244 -181.5t-304.5 -66.5zM1348 1763l-29 -139h-671l30 139h670z" />
    <glyph glyph-name="omacron" unicode="&#x14d;" horiz-adv-x="1161" 
d="M576 184q137 0 228 121t91 300q0 124 -61 198.5t-164 74.5q-138 0 -228.5 -120t-90.5 -301q0 -124 61 -198.5t164 -74.5zM677 1084q211 0 339 -129.5t128 -342.5q0 -133 -43.5 -251t-119.5 -202t-182.5 -132.5t-228.5 -48.5q-211 0 -339 130t-128 343q0 133 43.5 250.5
t119.5 201.5t182.5 132.5t228.5 48.5zM1070 1418l-29 -138h-615l29 138h615z" />
    <glyph glyph-name="Obreve" unicode="&#x14e;" horiz-adv-x="1540" 
d="M924 1241q-142 0 -257.5 -84.5t-179 -228t-63.5 -315.5q0 -188 97.5 -299.5t261.5 -111.5q142 0 257.5 84.5t179.5 228t64 315.5q0 188 -98 299.5t-262 111.5zM779 -24q-281 0 -449.5 172.5t-168.5 451.5q0 243 99.5 441.5t275 312t391.5 113.5q283 0 451.5 -172.5
t168.5 -451.5q0 -182 -59 -343t-160.5 -276t-244 -181.5t-304.5 -66.5zM688 1856h159q-7 -23 -7 -45q0 -64 40 -100t111 -36q82 0 143 49t80 132h163q-33 -145 -141 -230.5t-269 -85.5q-130 0 -209 68.5t-79 177.5q0 38 9 70z" />
    <glyph glyph-name="obreve" unicode="&#x14f;" horiz-adv-x="1161" 
d="M576 184q137 0 228 121t91 300q0 124 -61 198.5t-164 74.5q-138 0 -228.5 -120t-90.5 -301q0 -124 61 -198.5t164 -74.5zM677 1084q211 0 339 -129.5t128 -342.5q0 -133 -43.5 -251t-119.5 -202t-182.5 -132.5t-228.5 -48.5q-211 0 -339 130t-128 343q0 133 43.5 250.5
t119.5 201.5t182.5 132.5t228.5 48.5zM441 1537h159q-6 -26 -6 -45q0 -64 40.5 -101t109.5 -37q82 0 143.5 49t80.5 134h162q-33 -149 -140.5 -234t-269.5 -85q-124 0 -206 70.5t-82 180.5q0 28 9 68z" />
    <glyph glyph-name="Ohungarumlaut" unicode="&#x150;" horiz-adv-x="1540" 
d="M924 1241q-142 0 -257.5 -84.5t-179 -228t-63.5 -315.5q0 -188 97.5 -299.5t261.5 -111.5q142 0 257.5 84.5t179.5 228t64 315.5q0 188 -98 299.5t-262 111.5zM779 -24q-281 0 -449.5 172.5t-168.5 451.5q0 243 99.5 441.5t275 312t391.5 113.5q283 0 451.5 -172.5
t168.5 -451.5q0 -182 -59 -343t-160.5 -276t-244 -181.5t-304.5 -66.5zM1267 1558h-207l287 300h248zM883 1558h-207l287 300h248z" />
    <glyph glyph-name="ohungarumlaut" unicode="&#x151;" horiz-adv-x="1161" 
d="M576 184q137 0 228 121t91 300q0 124 -61 198.5t-164 74.5q-138 0 -228.5 -120t-90.5 -301q0 -124 61 -198.5t164 -74.5zM677 1084q211 0 339 -129.5t128 -342.5q0 -133 -43.5 -251t-119.5 -202t-182.5 -132.5t-228.5 -48.5q-211 0 -339 130t-128 343q0 133 43.5 250.5
t119.5 201.5t182.5 132.5t228.5 48.5zM821 1232l257 307h229l-297 -307h-189zM468 1232l257 307h229l-297 -307h-189z" />
    <glyph glyph-name="OE" unicode="&#x152;" horiz-adv-x="2242" 
d="M1171 0l34 162h-5q-83 -90 -199 -138t-247 -48q-265 0 -427.5 172t-162.5 453q0 179 58 339t158.5 276t244 183.5t306.5 67.5q166 0 291 -71.5t197 -205.5h5l54 253h899l-47 -223h-674l-84 -383h638l-44 -210h-637l-88 -404h675l-45 -223h-900zM1287 830q0 188 -98 299.5
t-262 111.5q-142 0 -257.5 -85t-179 -228.5t-63.5 -314.5q0 -188 98 -299.5t262 -111.5q142 0 257.5 85t179 228.5t63.5 314.5z" />
    <glyph glyph-name="oe" unicode="&#x153;" horiz-adv-x="1895" 
d="M1342 -21q-123 0 -222.5 55t-143.5 146h-9q-63 -95 -168 -148t-229 -53q-213 0 -340 128.5t-127 343.5q0 176 74.5 321t205.5 228.5t291 83.5q133 0 226 -54t146 -146h9q60 89 165.5 144.5t222.5 55.5q198 0 317.5 -123.5t119.5 -328.5q0 -82 -13 -158h-748v-27
q0 -125 63.5 -199t171.5 -74q90 0 153.5 41.5t91.5 118.5h233q-41 -159 -176 -257t-314 -98zM1145 640h499q2 14 2 30q0 98 -57.5 158.5t-150.5 60.5q-107 0 -184.5 -67t-108.5 -182zM353 454q0 -125 59.5 -198.5t161.5 -73.5q135 0 226 123t91 303q0 126 -59 199.5
t-161 73.5q-135 0 -226.5 -124t-91.5 -303z" />
    <glyph glyph-name="Racute" unicode="&#x154;" horiz-adv-x="1309" 
d="M1260 1858l-328 -300h-213l287 300h254zM479 746h297q142 0 230.5 77t88.5 198q0 97 -60 152.5t-165 55.5h-287zM367 1443h551q208 0 325 -109t117 -289q0 -167 -100 -297.5t-273 -176.5l188 -571h-270l-173 541h-295l-116 -541h-261z" />
    <glyph glyph-name="racute" unicode="&#x155;" horiz-adv-x="760" 
d="M33 0l226 1062h236l-30 -145h5q100 161 284 161q76 0 130 -25l-49 -228q-60 28 -141 28q-120 0 -191 -66t-100 -198l-125 -589h-245zM700 1231h-209l283 308h244z" />
    <glyph glyph-name="Rcommaaccent" unicode="&#x156;" horiz-adv-x="1309" 
d="M267 -476l194 346h226l-231 -346h-189zM479 746h297q142 0 230.5 77t88.5 198q0 97 -60 152.5t-165 55.5h-287zM367 1443h551q208 0 325 -109t117 -289q0 -167 -100 -297.5t-273 -176.5l188 -571h-270l-173 541h-295l-116 -541h-261z" />
    <glyph glyph-name="rcommaaccent" unicode="&#x157;" horiz-adv-x="760" 
d="M33 0l226 1062h236l-30 -145h5q100 161 284 161q76 0 130 -25l-49 -228q-60 28 -141 28q-120 0 -191 -66t-100 -198l-125 -589h-245zM6 -476h-189l194 346h226z" />
    <glyph glyph-name="Rcaron" unicode="&#x158;" horiz-adv-x="1309" 
d="M922 1552h-192l-208 311h193l125 -192h7l205 192h210zM479 746h297q142 0 230.5 77t88.5 198q0 97 -60 152.5t-165 55.5h-287zM367 1443h551q208 0 325 -109t117 -289q0 -167 -100 -297.5t-273 -176.5l188 -571h-270l-173 541h-295l-116 -541h-261z" />
    <glyph glyph-name="rcaron" unicode="&#x159;" horiz-adv-x="760" 
d="M33 0l226 1062h236l-30 -145h5q100 161 284 161q76 0 130 -25l-49 -228q-60 28 -141 28q-120 0 -191 -66t-100 -198l-125 -589h-245zM686 1225h-192l-200 312h190l117 -190h6l199 190h212z" />
    <glyph glyph-name="Sacute" unicode="&#x15a;" horiz-adv-x="1277" 
d="M88 424h251q13 -103 103 -167.5t229 -64.5q127 0 207 54t80 148q0 77 -51 123.5t-175 84.5l-113 35q-183 57 -271.5 151.5t-88.5 239.5q0 196 148.5 317.5t383.5 121.5q241 0 388.5 -116t148.5 -316h-246q-5 97 -82 156.5t-207 59.5q-127 0 -199 -57t-72 -138
q0 -70 52.5 -116.5t169.5 -82.5l116 -36q187 -57 275.5 -148.5t88.5 -233.5q0 -96 -38 -180t-107.5 -147t-176 -99.5t-235.5 -36.5q-165 0 -294 52.5t-205.5 155t-79.5 240.5zM963 1558h-213l287 300h254z" />
    <glyph glyph-name="sacute" unicode="&#x15b;" horiz-adv-x="1014" 
d="M177 752q0 147 117 239t307 92q183 0 299.5 -93.5t119.5 -242.5h-226q-5 67 -60 110t-136 43q-84 0 -134.5 -35t-50.5 -90q0 -47 35 -76t127 -58l101 -32q146 -47 209 -113.5t63 -172.5q0 -152 -123.5 -248.5t-317.5 -96.5q-201 0 -325 96t-129 249h238q9 -72 69 -116
t156 -44q82 0 135 39t53 98q0 43 -32 68.5t-123 53.5l-93 30q-146 47 -212.5 118.5t-66.5 181.5zM761 1231h-209l283 308h244z" />
    <glyph glyph-name="Scircumflex" unicode="&#x15c;" horiz-adv-x="1277" 
d="M88 424h251q13 -103 103 -167.5t229 -64.5q127 0 207 54t80 148q0 77 -51 123.5t-175 84.5l-113 35q-183 57 -271.5 151.5t-88.5 239.5q0 196 148.5 317.5t383.5 121.5q241 0 388.5 -116t148.5 -316h-246q-5 97 -82 156.5t-207 59.5q-127 0 -199 -57t-72 -138
q0 -70 52.5 -116.5t169.5 -82.5l116 -36q187 -57 275.5 -148.5t88.5 -233.5q0 -96 -38 -180t-107.5 -147t-176 -99.5t-235.5 -36.5q-165 0 -294 52.5t-205.5 155t-79.5 240.5zM1007 1863l208 -311h-193l-124 192h-7l-206 -192h-209l340 311h191z" />
    <glyph glyph-name="scircumflex" unicode="&#x15d;" horiz-adv-x="1014" 
d="M177 752q0 147 117 239t307 92q183 0 299.5 -93.5t119.5 -242.5h-226q-5 67 -60 110t-136 43q-84 0 -134.5 -35t-50.5 -90q0 -47 35 -76t127 -58l101 -32q146 -47 209 -113.5t63 -172.5q0 -152 -123.5 -248.5t-317.5 -96.5q-201 0 -325 96t-129 249h238q9 -72 69 -116
t156 -44q82 0 135 39t53 98q0 43 -32 68.5t-123 53.5l-93 30q-146 47 -212.5 118.5t-66.5 181.5zM807 1537l200 -312h-194l-117 188h-7l-198 -188h-209l334 312h191z" />
    <glyph glyph-name="Scedilla" unicode="&#x15e;" horiz-adv-x="1277" 
d="M744 857l116 -36q187 -57 275.5 -148.5t88.5 -233.5q0 -188 -136 -318t-372 -144l-60 -95q83 -2 128 -40t45 -106q0 -94 -75.5 -152.5t-196.5 -58.5q-100 0 -165 24l27 130q58 -20 130 -20q121 0 121 61q0 29 -33 42.5t-108 13.5h-59l21 91l71 115q-210 25 -340 141.5
t-134 300.5h251q13 -103 103 -167.5t229 -64.5q127 0 207 54t80 148q0 77 -51 123.5t-175 84.5l-113 35q-183 57 -271.5 151.5t-88.5 239.5q0 196 148.5 317.5t383.5 121.5q241 0 388.5 -116t148.5 -316h-246q-5 97 -82 156.5t-207 59.5q-127 0 -199 -57t-72 -138
q0 -70 52.5 -116.5t169.5 -82.5z" />
    <glyph glyph-name="scedilla" unicode="&#x15f;" horiz-adv-x="1014" 
d="M575 641l101 -32q146 -47 209 -113.5t63 -172.5q0 -140 -105 -233.5t-276 -108.5l-62 -99q83 -2 128 -40t45 -106q0 -94 -75.5 -152.5t-196.5 -58.5q-100 0 -165 24l27 130q58 -20 130 -20q121 0 121 61q0 29 -33 42.5t-108 13.5h-59l21 91l72 117q-161 22 -257.5 114
t-101.5 225h238q9 -72 69 -116t156 -44q82 0 135 39t53 98q0 43 -32 68.5t-123 53.5l-93 30q-146 47 -212.5 118.5t-66.5 181.5q0 147 117 239t307 92q183 0 299.5 -93.5t119.5 -242.5h-226q-5 67 -60 110t-136 43q-84 0 -134.5 -35t-50.5 -90q0 -47 35 -76t127 -58z" />
    <glyph glyph-name="Scaron" unicode="&#x160;" horiz-adv-x="1277" 
d="M88 424h251q13 -103 103 -167.5t229 -64.5q127 0 207 54t80 148q0 77 -51 123.5t-175 84.5l-113 35q-183 57 -271.5 151.5t-88.5 239.5q0 196 148.5 317.5t383.5 121.5q241 0 388.5 -116t148.5 -316h-246q-5 97 -82 156.5t-207 59.5q-127 0 -199 -57t-72 -138
q0 -70 52.5 -116.5t169.5 -82.5l116 -36q187 -57 275.5 -148.5t88.5 -233.5q0 -96 -38 -180t-107.5 -147t-176 -99.5t-235.5 -36.5q-165 0 -294 52.5t-205.5 155t-79.5 240.5zM761 1552l-208 311h193l125 -192h7l205 192h210l-340 -311h-192z" />
    <glyph glyph-name="scaron" unicode="&#x161;" horiz-adv-x="1014" 
d="M177 752q0 147 117 239t307 92q183 0 299.5 -93.5t119.5 -242.5h-226q-5 67 -60 110t-136 43q-84 0 -134.5 -35t-50.5 -90q0 -47 35 -76t127 -58l101 -32q146 -47 209 -113.5t63 -172.5q0 -152 -123.5 -248.5t-317.5 -96.5q-201 0 -325 96t-129 249h238q9 -72 69 -116
t156 -44q82 0 135 39t53 98q0 43 -32 68.5t-123 53.5l-93 30q-146 47 -212.5 118.5t-66.5 181.5zM747 1225h-192l-200 312h190l117 -190h6l199 190h212z" />
    <glyph glyph-name="Tcedilla" unicode="&#x162;" horiz-adv-x="1241" 
d="M284 1443h1147l-46 -223h-443l-260 -1220l-74 -118q83 -2 128 -40t45 -106q0 -94 -75.5 -152.5t-196.5 -58.5q-100 0 -165 24l27 130q58 -20 130 -20q121 0 121 61q0 29 -33 42.5t-108 13.5h-59l21 91l82 133h-104l260 1220h-443z" />
    <glyph glyph-name="tcedilla" unicode="&#x163;" horiz-adv-x="698" 
d="M536 856l-106 -494q-10 -40 -10 -76q0 -101 133 -101q39 0 72 5l-41 -189q-53 -12 -117 -12l-67 -107q83 -2 128 -40t45 -106q0 -94 -75.5 -152.5t-196.5 -58.5q-100 0 -165 24l27 130q58 -20 130 -20q121 0 121 61q0 29 -33 42.5t-108 13.5h-59l21 91l87 141
q-75 24 -116.5 76t-41.5 130q0 47 10 101l117 541h-158l41 195h158l54 260h245l-55 -260h221l-41 -195h-220z" />
    <glyph glyph-name="Tcaron" unicode="&#x164;" horiz-adv-x="1241" 
d="M682 0h-261l260 1220h-443l46 223h1147l-46 -223h-443zM791 1552l-208 311h193l125 -192h7l205 192h210l-340 -311h-192z" />
    <glyph glyph-name="tcaron" unicode="&#x165;" horiz-adv-x="846" 
d="M865 1708h218l-156 -498h-168zM461 -11q-137 0 -217 57.5t-80 167.5q0 47 10 101l117 541h-158l41 195h158l54 260h245l-55 -260h221l-41 -195h-220l-106 -494q-10 -40 -10 -76q0 -101 133 -101q39 0 72 5l-41 -189q-57 -12 -123 -12z" />
    <glyph glyph-name="Tbar" unicode="&#x166;" horiz-adv-x="1241" 
d="M1385 1220h-443l-82 -386h345l-46 -222h-347l-130 -612h-261l130 612h-309l46 222h311l82 386h-443l46 223h1147z" />
    <glyph glyph-name="tbar" unicode="&#x167;" horiz-adv-x="698" 
d="M756 856h-220l-44 -207h231l-33 -154h-231l-29 -133q-10 -40 -10 -76q0 -101 133 -101q39 0 72 5l-41 -189q-57 -12 -123 -12q-137 0 -217 57.5t-80 167.5q0 47 10 101l39 180h-158l33 154h158l45 207h-158l41 195h158l54 260h245l-55 -260h221z" />
    <glyph glyph-name="Utilde" unicode="&#x168;" horiz-adv-x="1453" 
d="M708 -24q-251 0 -394 129.5t-144 332.5q-1 59 13 128l184 877h261l-183 -868q-14 -60 -12 -113q4 -119 82 -186t221 -67q140 0 237.5 81.5t128.5 226.5l197 926h261l-209 -981q-49 -231 -215.5 -358.5t-427.5 -127.5zM1129 1546q-46 0 -84.5 22t-60 48t-48 48t-52.5 22
q-34 0 -60.5 -33.5t-39.5 -93.5h-145q23 124 91 196t160 72q40 0 72.5 -14.5t54 -35.5t40 -41.5t38 -35t40.5 -14.5q32 0 58 33.5t40 96.5h146q-26 -123 -94 -196.5t-156 -73.5z" />
    <glyph glyph-name="utilde" unicode="&#x169;" horiz-adv-x="1155" 
d="M1208 1062l-225 -1062h-236l35 158h-6q-44 -76 -137.5 -128t-206.5 -52q-150 0 -239 85t-89 218q0 73 15 145l133 636h246l-127 -597q-11 -50 -11 -98q0 -176 188 -176q106 0 182 67t100 178l133 626h245zM913 1230q-46 0 -84.5 22t-60 48t-48 48t-52.5 22
q-34 0 -60.5 -33.5t-39.5 -93.5h-145q23 124 91 196t160 72q40 0 72.5 -14.5t54 -35.5t40 -41.5t38 -35t40.5 -14.5q32 0 58 33.5t40 96.5h146q-26 -123 -94 -196.5t-156 -73.5z" />
    <glyph glyph-name="Umacron" unicode="&#x16a;" horiz-adv-x="1453" 
d="M708 -24q-251 0 -394 129.5t-144 332.5q-1 59 13 128l184 877h261l-183 -868q-14 -60 -12 -113q4 -119 82 -186t221 -67q140 0 237.5 81.5t128.5 226.5l197 926h261l-209 -981q-49 -231 -215.5 -358.5t-427.5 -127.5zM1354 1763l-29 -139h-671l30 139h670z" />
    <glyph glyph-name="umacron" unicode="&#x16b;" horiz-adv-x="1155" 
d="M1208 1062l-225 -1062h-236l35 158h-6q-44 -76 -137.5 -128t-206.5 -52q-150 0 -239 85t-89 218q0 73 15 145l133 636h246l-127 -597q-11 -50 -11 -98q0 -176 188 -176q106 0 182 67t100 178l133 626h245zM1116 1418l-29 -138h-615l29 138h615z" />
    <glyph glyph-name="Ubreve" unicode="&#x16c;" horiz-adv-x="1453" 
d="M708 -24q-251 0 -394 129.5t-144 332.5q-1 59 13 128l184 877h261l-183 -868q-14 -60 -12 -113q4 -119 82 -186t221 -67q140 0 237.5 81.5t128.5 226.5l197 926h261l-209 -981q-49 -231 -215.5 -358.5t-427.5 -127.5zM694 1856h159q-7 -23 -7 -45q0 -64 40 -100t111 -36
q82 0 143 49t80 132h163q-33 -145 -141 -230.5t-269 -85.5q-130 0 -209 68.5t-79 177.5q0 38 9 70z" />
    <glyph glyph-name="ubreve" unicode="&#x16d;" horiz-adv-x="1155" 
d="M1208 1062l-225 -1062h-236l35 158h-6q-44 -76 -137.5 -128t-206.5 -52q-150 0 -239 85t-89 218q0 73 15 145l133 636h246l-127 -597q-11 -50 -11 -98q0 -176 188 -176q106 0 182 67t100 178l133 626h245zM487 1537h159q-6 -26 -6 -45q0 -64 40.5 -101t109.5 -37
q82 0 143.5 49t80.5 134h162q-33 -149 -140.5 -234t-269.5 -85q-124 0 -206 70.5t-82 180.5q0 28 9 68z" />
    <glyph glyph-name="Uring" unicode="&#x16e;" horiz-adv-x="1453" 
d="M708 -24q-251 0 -394 129.5t-144 332.5q-1 59 13 128l184 877h261l-183 -868q-14 -60 -12 -113q4 -119 82 -186t221 -67q140 0 237.5 81.5t128.5 226.5l197 926h261l-209 -981q-49 -231 -215.5 -358.5t-427.5 -127.5zM1018 1562q-85 0 -145 56.5t-60 144.5q0 91 61 151.5
t150 60.5q87 0 146.5 -56.5t58.5 -144.5q0 -91 -60.5 -151.5t-150.5 -60.5zM1018 1671q45 0 73 28t28 73q-1 42 -27.5 68.5t-67.5 26.5q-43 0 -71.5 -28.5t-28.5 -73.5q0 -41 27 -67.5t67 -26.5z" />
    <glyph glyph-name="uring" unicode="&#x16f;" horiz-adv-x="1155" 
d="M1208 1062l-225 -1062h-236l35 158h-6q-44 -76 -137.5 -128t-206.5 -52q-150 0 -239 85t-89 218q0 73 15 145l133 636h246l-127 -597q-11 -50 -11 -98q0 -176 188 -176q106 0 182 67t100 178l133 626h245zM793 1181q-85 0 -145 56.5t-60 144.5q0 91 61 151.5t150 60.5
q87 0 146.5 -56.5t58.5 -144.5q0 -91 -60.5 -151.5t-150.5 -60.5zM793 1290q45 0 73 28t28 73q-1 42 -27.5 68.5t-67.5 26.5q-43 0 -71.5 -28.5t-28.5 -73.5q0 -41 27 -67.5t67 -26.5z" />
    <glyph glyph-name="Uhungarumlaut" unicode="&#x170;" horiz-adv-x="1453" 
d="M708 -24q-251 0 -394 129.5t-144 332.5q-1 59 13 128l184 877h261l-183 -868q-14 -60 -12 -113q4 -119 82 -186t221 -67q140 0 237.5 81.5t128.5 226.5l197 926h261l-209 -981q-49 -231 -215.5 -358.5t-427.5 -127.5zM1273 1558h-207l287 300h248zM889 1558h-207l287 300
h248z" />
    <glyph glyph-name="uhungarumlaut" unicode="&#x171;" horiz-adv-x="1155" 
d="M1208 1062l-225 -1062h-236l35 158h-6q-44 -76 -137.5 -128t-206.5 -52q-150 0 -239 85t-89 218q0 73 15 145l133 636h246l-127 -597q-11 -50 -11 -98q0 -176 188 -176q106 0 182 67t100 178l133 626h245zM867 1232l257 307h229l-297 -307h-189zM514 1232l257 307h229
l-297 -307h-189z" />
    <glyph glyph-name="Uogonek" unicode="&#x172;" horiz-adv-x="1453" 
d="M923 -428q-42 -22 -132 -22q-94 0 -152.5 46.5t-58.5 123.5q0 142 190 254v5q-14 -3 -58 -3q-252 0 -396.5 129t-145.5 333q-1 58 13 127l184 878h261l-183 -869q-14 -60 -12 -113q4 -118 82 -185t221 -67q140 0 237 81t129 227l197 926h261l-209 -982
q-59 -280 -311 -416q-124 -68 -191.5 -137t-67.5 -129q0 -35 26 -54.5t73 -19.5q48 0 73 12z" />
    <glyph glyph-name="uogonek" unicode="&#x173;" horiz-adv-x="1154" 
d="M870 -416q-42 -22 -132 -22q-95 0 -152.5 46.5t-57.5 121.5q0 152 220 271l34 157h-6q-43 -75 -136 -127t-208 -52q-149 0 -238.5 84t-89.5 218q0 67 15 145l133 637h246l-127 -598q-11 -50 -11 -98q0 -176 188 -176q106 0 182 67.5t100 177.5l134 627h244l-226 -1065
l-17 -6q-104 -39 -170.5 -95t-66.5 -107q0 -34 27 -53.5t71 -19.5q45 0 73 11z" />
    <glyph glyph-name="Wcircumflex" unicode="&#x174;" horiz-adv-x="1934" 
d="M1113 1033l-510 -1033h-248l-80 1443h254l31 -1073h6l519 1073h220l76 -1072h6l479 1072h268l-686 -1443h-247l-83 1033h-5zM1372 1863l208 -311h-193l-124 192h-7l-206 -192h-209l340 311h191z" />
    <glyph glyph-name="wcircumflex" unicode="&#x175;" horiz-adv-x="1550" 
d="M1684 1062l-506 -1062h-261l-43 775h-5l-363 -775h-266l-62 1062h234l18 -807h5l369 807h241l34 -807h5l352 807h248zM1128 1537l200 -312h-194l-117 188h-7l-198 -188h-209l334 312h191z" />
    <glyph glyph-name="Ycircumflex" unicode="&#x176;" horiz-adv-x="1311" 
d="M718 0h-261l121 569l-320 874h270l223 -632h6l483 632h288l-693 -890zM1068 1863l208 -311h-193l-124 192h-7l-206 -192h-209l340 311h191z" />
    <glyph glyph-name="ycircumflex" unicode="&#x177;" horiz-adv-x="1049" 
d="M93 -388q-26 0 -71.5 3.5t-56.5 7.5l38 201q25 -10 98 -10q136 0 196 145q0 1 11.5 26t11.5 26l-151 1051h246l85 -834h5l421 834h265l-624 -1130q-96 -178 -206 -249t-268 -71zM872 1537l200 -312h-194l-117 188h-7l-198 -188h-209l334 312h191z" />
    <glyph glyph-name="Ydieresis" unicode="&#x178;" horiz-adv-x="1311" 
d="M718 0h-261l121 569l-320 874h270l223 -632h6l483 632h288l-693 -890zM753 1597q-51 0 -86.5 35.5t-35.5 85.5t35.5 85.5t86.5 35.5q52 0 87.5 -35.5t35.5 -85.5t-35.5 -85.5t-87.5 -35.5zM1140 1597q-51 0 -86.5 35.5t-35.5 85.5t35.5 85.5t86.5 35.5t86.5 -35.5
t35.5 -85.5t-35.5 -85.5t-86.5 -35.5z" />
    <glyph glyph-name="Zacute" unicode="&#x179;" horiz-adv-x="1269" 
d="M20 0l37 176l962 1039l1 5h-719l47 223h1049l-37 -176l-961 -1039l-1 -5h757l-46 -223h-1089zM997 1558h-213l287 300h254z" />
    <glyph glyph-name="zacute" unicode="&#x17a;" horiz-adv-x="1014" 
d="M7 0l32 154l697 703l1 5h-540l42 200h849l-36 -168l-678 -689l-1 -5h539l-42 -200h-863zM820 1231h-209l283 308h244z" />
    <glyph glyph-name="Zdotaccent" unicode="&#x17b;" horiz-adv-x="1269" 
d="M20 0l37 176l962 1039l1 5h-719l47 223h1049l-37 -176l-961 -1039l-1 -5h757l-46 -223h-1089zM927 1608q-59 0 -100 41.5t-41 99.5q0 59 41 100.5t100 41.5q58 0 99 -41.5t41 -100.5q0 -58 -41 -99.5t-99 -41.5z" />
    <glyph glyph-name="zdotaccent" unicode="&#x17c;" horiz-adv-x="1014" 
d="M7 0l32 154l697 703l1 5h-540l42 200h849l-36 -168l-678 -689l-1 -5h539l-42 -200h-863zM725 1228q-59 0 -100 41t-41 100q0 58 41.5 99.5t99.5 41.5t99.5 -41.5t41.5 -99.5q0 -59 -41 -100t-100 -41z" />
    <glyph glyph-name="Zcaron" unicode="&#x17d;" horiz-adv-x="1269" 
d="M20 0l37 176l962 1039l1 5h-719l47 223h1049l-37 -176l-961 -1039l-1 -5h757l-46 -223h-1089zM795 1552l-208 311h193l125 -192h7l205 192h210l-340 -311h-192z" />
    <glyph glyph-name="zcaron" unicode="&#x17e;" horiz-adv-x="1014" 
d="M7 0l32 154l697 703l1 5h-540l42 200h849l-36 -168l-678 -689l-1 -5h539l-42 -200h-863zM806 1225h-192l-200 312h190l117 -190h6l199 190h212z" />
    <glyph glyph-name="uni04D8" unicode="&#x18f;" horiz-adv-x="1505" 
d="M744 -24q-272 0 -429 157.5t-157 429.5q0 103 27 206h1049q6 40 6 68q8 187 -85 295.5t-261 108.5q-251 0 -367 -197h-271q77 196 252 309.5t401 113.5q275 0 432.5 -161t157.5 -441q0 -261 -95 -463.5t-266.5 -314t-393.5 -111.5zM757 202q158 0 277 100t163 270h-772
q-2 -10 -2 -41q0 -154 89 -241.5t245 -87.5z" />
    <glyph glyph-name="uni04D8" unicode="&#x4d8;" horiz-adv-x="1505" 
d="M744 -24q-272 0 -429 157.5t-157 429.5q0 103 27 206h1049q6 40 6 68q8 187 -85 295.5t-261 108.5q-251 0 -367 -197h-271q77 196 252 309.5t401 113.5q275 0 432.5 -161t157.5 -441q0 -261 -95 -463.5t-266.5 -314t-393.5 -111.5zM757 202q158 0 277 100t163 270h-772
q-2 -10 -2 -41q0 -154 89 -241.5t245 -87.5z" />
    <glyph glyph-name="florin" unicode="&#x192;" horiz-adv-x="1294" 
d="M227 -15q-131 0 -232 40l46 212q85 -36 187 -36q97 0 156 43.5t97 147.5l109 294h-330l40 190h357l88 239q63 173 191.5 260t312.5 87q127 0 221 -33l-46 -206q-77 25 -176 25q-98 0 -168 -54.5t-105 -150.5l-62 -167h351l-40 -190h-379l-130 -357q-61 -171 -179 -257.5
t-309 -86.5z" />
    <glyph glyph-name="Ohorn" unicode="&#x1a0;" horiz-adv-x="1540" 
d="M1284 830q0 188 -98 299.5t-262 111.5q-142 0 -257.5 -84.5t-179 -228t-63.5 -315.5q0 -188 97.5 -299.5t261.5 -111.5q142 0 257.5 84.5t179.5 228t64 315.5zM1547 843q0 -182 -59 -343t-160.5 -276t-244 -181.5t-304.5 -66.5q-281 0 -449.5 172.5t-168.5 451.5
q0 243 99.5 441.5t275 312t391.5 113.5q93 0 169.5 -18t117 -39t86.5 -39t85 -18q50 0 75.5 20.5t35.5 68.5l38 185h206l-54 -260q-17 -83 -72 -128.5t-128 -45.5q-25 0 -34 7l-2 -6q97 -148 97 -351z" />
    <glyph glyph-name="ohorn" unicode="&#x1a1;" horiz-adv-x="1212" 
d="M1142 610q0 -176 -74.5 -320.5t-206 -228t-291.5 -83.5q-213 0 -340 129t-127 344q0 176 75 321t206.5 228.5t291.5 83.5q79 0 185 -28t145 -28q53 0 79.5 19t36.5 66l30 143h206l-46 -217q-17 -79 -72 -126.5t-126 -47.5h-34v-5q62 -104 62 -250zM353 455
q0 -125 59.5 -198.5t161.5 -73.5q135 0 226 122.5t91 302.5q0 125 -59 199t-160 74q-136 0 -227.5 -123.5t-91.5 -302.5z" />
    <glyph glyph-name="Uhorn" unicode="&#x1af;" horiz-adv-x="1645" 
d="M709 -24q-251 0 -396 129t-146 333q-1 60 13 127l184 878h261l-183 -869q-12 -53 -12 -113q4 -117 82 -184.5t221 -67.5q140 0 237.5 81t128.5 227l197 926h269q83 0 101 80l36 175h205l-47 -224q-20 -97 -89.5 -151t-171.5 -54l-78 1l-173 -809q-49 -230 -213 -357.5
t-426 -127.5z" />
    <glyph glyph-name="uhorn" unicode="&#x1b0;" horiz-adv-x="1306" 
d="M776 158q-44 -76 -137.5 -128t-206.5 -52q-150 0 -239 85t-89 218q0 73 15 145l133 636h246l-127 -597q-11 -50 -11 -98q0 -176 188 -176q106 0 182 67t100 178l133 626h205q51 0 76 18t34 61l30 142h206l-47 -217q-17 -82 -74.5 -128t-138.5 -46h-81l-190 -892h-236
l35 158h-6z" />
    <glyph glyph-name="uni01C4" unicode="&#x1c4;" horiz-adv-x="2707" 
d="M367 1443h478q278 0 438.5 -152.5t160.5 -422.5q0 -253 -96.5 -450.5t-272.5 -307.5t-403 -110h-610zM583 1222l-215 -1000h275q235 0 385.5 170.5t150.5 442.5q0 187 -99.5 287t-288.5 100h-208zM1458 0l37 176l962 1039l1 5h-719l47 223h1049l-37 -176l-961 -1039
l-1 -5h757l-46 -223h-1089zM2233 1552l-208 311h193l125 -192h7l205 192h210l-340 -311h-192z" />
    <glyph glyph-name="uni01C5" unicode="&#x1c5;" horiz-adv-x="2452" 
d="M367 1443h478q278 0 438.5 -152.5t160.5 -422.5q0 -253 -96.5 -450.5t-272.5 -307.5t-403 -110h-610zM583 1222l-215 -1000h275q235 0 385.5 170.5t150.5 442.5q0 187 -99.5 287t-288.5 100h-208zM1445 0l32 154l697 703l1 5h-540l42 200h849l-36 -168l-678 -689l-1 -5
h539l-42 -200h-863zM2244 1225h-192l-200 312h190l117 -190h6l199 190h212z" />
    <glyph glyph-name="uni01C6" unicode="&#x1c6;" horiz-adv-x="2220" 
d="M482 -17q-175 0 -278 118.5t-103 319.5q0 186 69.5 337t191 236.5t270.5 85.5q121 0 211 -61.5t116 -157.5h6l126 582h244l-307 -1443h-242l34 162h-5q-53 -82 -141 -130.5t-192 -48.5zM572 188q137 0 230.5 123.5t93.5 304.5q0 113 -63.5 184t-168.5 71
q-133 0 -223.5 -120t-90.5 -301q0 -121 59.5 -191.5t162.5 -70.5zM1213 0l32 154l697 703l1 5h-540l42 200h849l-36 -168l-678 -689l-1 -5h539l-42 -200h-863zM2012 1225h-192l-200 312h190l117 -190h6l199 190h212z" />
    <glyph glyph-name="uni01C7" unicode="&#x1c7;" horiz-adv-x="2203" 
d="M1027 226l-46 -226h-921l307 1443h261l-260 -1217h659zM1158 366q0 6 0.5 20.5t0.5 19.5h253v-8q0 -86 52.5 -136t142.5 -50q180 0 229 230l213 1001h261l-222 -1044q-43 -205 -169 -314t-325 -109q-192 0 -314 109.5t-122 280.5z" />
    <glyph glyph-name="uni01C8" unicode="&#x1c8;" horiz-adv-x="1564" 
d="M1027 226l-46 -226h-921l307 1443h261l-260 -1217h659zM1553 1199q-58 0 -98.5 40t-40.5 98t40.5 98t98.5 40t98 -40t40 -98t-40 -98t-98 -40zM1612 1062l-242 -1135q-32 -149 -128.5 -224.5t-250.5 -76.5q-58 0 -109 8l43 196q32 -5 57 -5q64 0 98.5 30.5t49.5 100.5
l237 1106h245z" />
    <glyph glyph-name="uni01C9" unicode="&#x1c9;" horiz-adv-x="934" 
d="M44 0l307 1443h246l-307 -1443h-246zM923 1199q-58 0 -98.5 40t-40.5 98t40.5 98t98.5 40t98 -40t40 -98t-40 -98t-98 -40zM982 1062l-242 -1135q-32 -149 -128.5 -224.5t-250.5 -76.5q-58 0 -109 8l43 196q32 -5 57 -5q64 0 98.5 30.5t49.5 100.5l237 1106h245z" />
    <glyph glyph-name="uni01CA" unicode="&#x1ca;" horiz-adv-x="2558" 
d="M315 0h-255l307 1443h228l488 -1040h5l223 1040h254l-307 -1443h-227l-488 1040h-6zM1514 366q0 6 0.5 20.5t0.5 19.5h253v-8q0 -86 52.5 -136t142.5 -50q180 0 229 230l213 1001h261l-222 -1044q-43 -205 -169 -314t-325 -109q-192 0 -314 109.5t-122 280.5z" />
    <glyph glyph-name="uni01CB" unicode="&#x1cb;" horiz-adv-x="1920" 
d="M315 0h-255l307 1443h228l488 -1040h5l223 1040h254l-307 -1443h-227l-488 1040h-6zM1909 1199q-58 0 -98.5 40t-40.5 98t40.5 98t98.5 40t98 -40t40 -98t-40 -98t-98 -40zM1968 1062l-242 -1135q-32 -149 -128.5 -224.5t-250.5 -76.5q-58 0 -109 8l43 196q32 -5 57 -5
q64 0 98.5 30.5t49.5 100.5l237 1106h245z" />
    <glyph glyph-name="uni01CC" unicode="&#x1cc;" horiz-adv-x="1617" 
d="M33 0l225 1062h235l-34 -163h5q55 87 144.5 136t200.5 49q144 0 237.5 -86.5t93.5 -221.5q0 -58 -14 -130l-137 -646h-244l128 605q11 51 11 94q0 81 -54 129t-143 48q-100 0 -175.5 -66.5t-99.5 -177.5l-134 -632h-245zM1606 1199q-58 0 -98.5 40t-40.5 98t40.5 98
t98.5 40t98 -40t40 -98t-40 -98t-98 -40zM1665 1062l-242 -1135q-32 -149 -128.5 -224.5t-250.5 -76.5q-58 0 -109 8l43 196q32 -5 57 -5q64 0 98.5 30.5t49.5 100.5l237 1106h245z" />
    <glyph glyph-name="Acaron" unicode="&#x1cd;" horiz-adv-x="1356" 
d="M867 1177l-330 -604h410l-75 604h-5zM1011 0l-45 369h-534l-204 -369h-277l822 1443h293l200 -1443h-255zM847 1552l-208 311h193l125 -192h7l205 192h210l-340 -311h-192z" />
    <glyph glyph-name="acaron" unicode="&#x1ce;" horiz-adv-x="1070" 
d="M473 173q97 0 172.5 55.5t94.5 142.5l23 101l-248 -12q-101 -4 -158.5 -44.5t-57.5 -107.5q0 -61 48 -98t126 -37zM383 -17q-137 0 -231 83t-94 209q0 159 119 250t331 100l289 12l14 64q4 17 4 44q0 65 -48.5 102.5t-135.5 37.5q-88 0 -143.5 -37.5t-70.5 -102.5h-238
q26 153 153.5 246t317.5 93q182 0 294.5 -86.5t112.5 -224.5q0 -51 -8 -88l-145 -685h-236l27 128h-4q-51 -67 -131.5 -106t-176.5 -39zM803 1225h-192l-200 312h190l117 -190h6l199 190h212z" />
    <glyph glyph-name="Icaron" unicode="&#x1cf;" horiz-adv-x="520" 
d="M321 0h-261l307 1443h261zM429 1552l-208 311h193l125 -192h7l205 192h210l-340 -311h-192z" />
    <glyph glyph-name="icaron" unicode="&#x1d0;" horiz-adv-x="468" 
d="M41 0l226 1062h246l-226 -1062h-246zM534 1225h-192l-200 312h190l117 -190h6l199 190h212z" />
    <glyph glyph-name="Ocaron" unicode="&#x1d1;" horiz-adv-x="1540" 
d="M924 1241q-142 0 -257.5 -84.5t-179 -228t-63.5 -315.5q0 -188 97.5 -299.5t261.5 -111.5q142 0 257.5 84.5t179.5 228t64 315.5q0 188 -98 299.5t-262 111.5zM779 -24q-281 0 -449.5 172.5t-168.5 451.5q0 243 99.5 441.5t275 312t391.5 113.5q283 0 451.5 -172.5
t168.5 -451.5q0 -182 -59 -343t-160.5 -276t-244 -181.5t-304.5 -66.5zM875 1552l-208 311h193l125 -192h7l205 192h210l-340 -311h-192z" />
    <glyph glyph-name="ocaron" unicode="&#x1d2;" horiz-adv-x="1161" 
d="M576 184q137 0 228 121t91 300q0 124 -61 198.5t-164 74.5q-138 0 -228.5 -120t-90.5 -301q0 -124 61 -198.5t164 -74.5zM677 1084q211 0 339 -129.5t128 -342.5q0 -133 -43.5 -251t-119.5 -202t-182.5 -132.5t-228.5 -48.5q-211 0 -339 130t-128 343q0 133 43.5 250.5
t119.5 201.5t182.5 132.5t228.5 48.5zM823 1225h-192l-200 312h190l117 -190h6l199 190h212z" />
    <glyph glyph-name="Ucaron" unicode="&#x1d3;" horiz-adv-x="1453" 
d="M708 -24q-251 0 -394 129.5t-144 332.5q-1 59 13 128l184 877h261l-183 -868q-14 -60 -12 -113q4 -119 82 -186t221 -67q140 0 237.5 81.5t128.5 226.5l197 926h261l-209 -981q-49 -231 -215.5 -358.5t-427.5 -127.5zM881 1552l-208 311h193l125 -192h7l205 192h210
l-340 -311h-192z" />
    <glyph glyph-name="ucaron" unicode="&#x1d4;" horiz-adv-x="1155" 
d="M1208 1062l-225 -1062h-236l35 158h-6q-44 -76 -137.5 -128t-206.5 -52q-150 0 -239 85t-89 218q0 73 15 145l133 636h246l-127 -597q-11 -50 -11 -98q0 -176 188 -176q106 0 182 67t100 178l133 626h245zM869 1225h-192l-200 312h190l117 -190h6l199 190h212z" />
    <glyph glyph-name="Udieresismacron" unicode="&#x1d5;" horiz-adv-x="1453" 
d="M708 -24q-251 0 -394 129.5t-144 332.5q-1 59 13 128l184 877h261l-183 -868q-14 -60 -12 -113q4 -119 82 -186t221 -67q140 0 237.5 81.5t128.5 226.5l197 926h261l-209 -981q-49 -231 -215.5 -358.5t-427.5 -127.5zM807 1791q52 0 87 -35.5t35 -86.5t-35.5 -86
t-86.5 -35t-86 35.5t-35 85.5q0 51 35 86.5t86 35.5zM1416 2058l-29 -138h-670l29 138h670zM1190 1791q52 0 87 -35.5t35 -86.5t-35 -86t-87 -35q-51 0 -86 35.5t-35 85.5q0 51 35 86.5t86 35.5z" />
    <glyph glyph-name="udieresismacron" unicode="&#x1d6;" horiz-adv-x="1155" 
d="M1208 1062l-225 -1062h-236l35 158h-6q-44 -76 -137.5 -128t-206.5 -52q-150 0 -239 85t-89 218q0 73 15 145l133 636h246l-127 -597q-11 -50 -11 -98q0 -176 188 -176q106 0 182 67t100 178l133 626h245zM590 1216q-51 0 -87 35t-36 85t36 85.5t87 35.5t86.5 -35.5
t35.5 -85.5t-35.5 -85t-86.5 -35zM976 1216q-51 0 -86.5 35t-35.5 85t35.5 85.5t86.5 35.5q52 0 87.5 -35.5t35.5 -85.5t-35.5 -85t-87.5 -35zM1184 1746l-29 -138h-615l29 138h615z" />
    <glyph glyph-name="Udieresisacute" unicode="&#x1d7;" horiz-adv-x="1453" 
d="M708 -24q-251 0 -394 129.5t-144 332.5q-1 59 13 128l184 877h261l-183 -868q-14 -60 -12 -113q4 -119 82 -186t221 -67q140 0 237.5 81.5t128.5 226.5l197 926h261l-209 -981q-49 -231 -215.5 -358.5t-427.5 -127.5zM922 1863l229 239h229l-257 -239h-201zM813 1556
q-50 0 -84.5 34t-34.5 84t34.5 84t84.5 34q49 0 83.5 -34t34.5 -84t-34.5 -84t-83.5 -34zM1187 1556q-49 0 -83.5 34t-34.5 84t34.5 84t83.5 34q50 0 84.5 -34t34.5 -84t-34.5 -84t-84.5 -34z" />
    <glyph glyph-name="udieresisacute" unicode="&#x1d8;" horiz-adv-x="1155" 
d="M1208 1062l-225 -1062h-236l35 158h-6q-44 -76 -137.5 -128t-206.5 -52q-150 0 -239 85t-89 218q0 73 15 145l133 636h246l-127 -597q-11 -50 -11 -98q0 -176 188 -176q106 0 182 67t100 178l133 626h245zM721 1565l269 291h220l-296 -291h-193zM595 1215
q-51 0 -86.5 35.5t-35.5 85.5t35.5 85.5t86.5 35.5q52 0 87.5 -35.5t35.5 -85.5t-35.5 -85.5t-87.5 -35.5zM982 1215q-51 0 -86.5 35.5t-35.5 85.5t35.5 85.5t86.5 35.5t86.5 -35.5t35.5 -85.5t-35.5 -85.5t-86.5 -35.5z" />
    <glyph glyph-name="Udieresiscaron" unicode="&#x1d9;" horiz-adv-x="1453" 
d="M708 -24q-251 0 -394 129.5t-144 332.5q-1 59 13 128l184 877h261l-183 -868q-14 -60 -12 -113q4 -119 82 -186t221 -67q140 0 237.5 81.5t128.5 226.5l197 926h261l-209 -981q-49 -231 -215.5 -358.5t-427.5 -127.5zM941 1855l-204 257h191l116 -147h11l177 147h216
l-313 -257h-194zM807 1791q52 0 87 -35.5t35 -86.5t-35.5 -86t-86.5 -35t-86 35.5t-35 85.5q0 51 35 86.5t86 35.5zM1190 1791q52 0 87 -35.5t35 -86.5t-35 -86t-87 -35q-51 0 -86 35.5t-35 85.5q0 51 35 86.5t86 35.5z" />
    <glyph glyph-name="udieresiscaron" unicode="&#x1da;" horiz-adv-x="1155" 
d="M1208 1062l-225 -1062h-236l35 158h-6q-44 -76 -137.5 -128t-206.5 -52q-150 0 -239 85t-89 218q0 73 15 145l133 636h246l-127 -597q-11 -50 -11 -98q0 -176 188 -176q106 0 182 67t100 178l133 626h245zM590 1216q-51 0 -87 35t-36 85t36 85.5t87 35.5t86.5 -35.5
t35.5 -85.5t-35.5 -85t-86.5 -35zM976 1216q-51 0 -86.5 35t-35.5 85t35.5 85.5t86.5 35.5q52 0 87.5 -35.5t35.5 -85.5t-35.5 -85t-87.5 -35zM705 1537l-203 299h190l119 -178h7l196 178h214l-330 -299h-193z" />
    <glyph glyph-name="Udieresisgrave" unicode="&#x1db;" horiz-adv-x="1453" 
d="M708 -24q-251 0 -394 129.5t-144 332.5q-1 59 13 128l184 877h261l-183 -868q-14 -60 -12 -113q4 -119 82 -186t221 -67q140 0 237.5 81.5t128.5 226.5l197 926h261l-209 -981q-49 -231 -215.5 -358.5t-427.5 -127.5zM1145 1863h-177l-156 239h205zM813 1556
q-50 0 -84.5 34t-34.5 84t34.5 84t84.5 34q49 0 83.5 -34t34.5 -84t-34.5 -84t-83.5 -34zM1187 1556q-49 0 -83.5 34t-34.5 84t34.5 84t83.5 34q50 0 84.5 -34t34.5 -84t-34.5 -84t-84.5 -34z" />
    <glyph glyph-name="udieresisgrave" unicode="&#x1dc;" horiz-adv-x="1155" 
d="M1208 1062l-225 -1062h-236l35 158h-6q-44 -76 -137.5 -128t-206.5 -52q-150 0 -239 85t-89 218q0 73 15 145l133 636h246l-127 -597q-11 -50 -11 -98q0 -176 188 -176q106 0 182 67t100 178l133 626h245zM931 1563h-172l-169 293h206zM595 1215q-51 0 -86.5 35.5
t-35.5 85.5t35.5 85.5t86.5 35.5q52 0 87.5 -35.5t35.5 -85.5t-35.5 -85.5t-87.5 -35.5zM982 1215q-51 0 -86.5 35.5t-35.5 85.5t35.5 85.5t86.5 35.5t86.5 -35.5t35.5 -85.5t-35.5 -85.5t-86.5 -35.5z" />
    <glyph glyph-name="uni04D9" unicode="&#x1dd;" horiz-adv-x="1120" 
d="M386 728h-234q42 157 175.5 256.5t313.5 99.5q218 0 339.5 -129t121.5 -344q0 -176 -68.5 -320t-194.5 -228t-284 -84q-207 0 -328.5 121.5t-121.5 329.5q0 87 13 158h749q1 11 1 34q0 120 -62.5 192.5t-170.5 72.5q-89 0 -154.5 -43t-94.5 -116zM561 174
q102 0 176.5 68.5t103.5 179.5h-499q-2 -16 -2 -30q0 -94 56 -156t165 -62z" />
    <glyph glyph-name="uni04D9" unicode="&#x4d9;" horiz-adv-x="1120" 
d="M386 728h-234q42 157 175.5 256.5t313.5 99.5q218 0 339.5 -129t121.5 -344q0 -176 -68.5 -320t-194.5 -228t-284 -84q-207 0 -328.5 121.5t-121.5 329.5q0 87 13 158h749q1 11 1 34q0 120 -62.5 192.5t-170.5 72.5q-89 0 -154.5 -43t-94.5 -116zM561 174
q102 0 176.5 68.5t103.5 179.5h-499q-2 -16 -2 -30q0 -94 56 -156t165 -62z" />
    <glyph glyph-name="uni04D9" unicode="&#x259;" horiz-adv-x="1120" 
d="M386 728h-234q42 157 175.5 256.5t313.5 99.5q218 0 339.5 -129t121.5 -344q0 -176 -68.5 -320t-194.5 -228t-284 -84q-207 0 -328.5 121.5t-121.5 329.5q0 87 13 158h749q1 11 1 34q0 120 -62.5 192.5t-170.5 72.5q-89 0 -154.5 -43t-94.5 -116zM561 174
q102 0 176.5 68.5t103.5 179.5h-499q-2 -16 -2 -30q0 -94 56 -156t165 -62z" />
    <glyph glyph-name="Adieresismacron" unicode="&#x1de;" horiz-adv-x="1356" 
d="M867 1177l-330 -604h410l-75 604h-5zM1011 0l-45 369h-534l-204 -369h-277l822 1443h293l200 -1443h-255zM773 1791q52 0 87 -35.5t35 -86.5t-35.5 -86t-86.5 -35t-86 35.5t-35 85.5q0 51 35 86.5t86 35.5zM1382 2058l-29 -138h-670l29 138h670zM1156 1791q52 0 87 -35.5
t35 -86.5t-35 -86t-87 -35q-51 0 -86 35.5t-35 85.5q0 51 35 86.5t86 35.5z" />
    <glyph glyph-name="adieresismacron" unicode="&#x1df;" horiz-adv-x="1070" 
d="M473 173q97 0 172.5 55.5t94.5 142.5l23 101l-248 -12q-101 -4 -158.5 -44.5t-57.5 -107.5q0 -61 48 -98t126 -37zM383 -17q-137 0 -231 83t-94 209q0 159 119 250t331 100l289 12l14 64q4 17 4 44q0 65 -48.5 102.5t-135.5 37.5q-88 0 -143.5 -37.5t-70.5 -102.5h-238
q26 153 153.5 246t317.5 93q182 0 294.5 -86.5t112.5 -224.5q0 -51 -8 -88l-145 -685h-236l27 128h-4q-51 -67 -131.5 -106t-176.5 -39zM525 1216q-51 0 -87 35t-36 85t36 85.5t87 35.5t86.5 -35.5t35.5 -85.5t-35.5 -85t-86.5 -35zM911 1216q-51 0 -86.5 35t-35.5 85
t35.5 85.5t86.5 35.5q52 0 87.5 -35.5t35.5 -85.5t-35.5 -85t-87.5 -35zM1119 1746l-29 -138h-615l29 138h615z" />
    <glyph glyph-name="Adotmacron" unicode="&#x1e0;" horiz-adv-x="1356" 
d="M867 1177l-330 -604h410l-75 604h-5zM1011 0l-45 369h-534l-204 -369h-277l822 1443h293l200 -1443h-255zM969 1563q-55 0 -93.5 38t-38.5 92q0 53 38.5 91t93.5 38t93 -37.5t38 -91.5t-38 -92t-93 -38zM1382 2058l-30 -138h-670l30 138h670z" />
    <glyph glyph-name="adotmacron" unicode="&#x1e1;" horiz-adv-x="1070" 
d="M473 173q97 0 172.5 55.5t94.5 142.5l23 101l-248 -12q-101 -4 -158.5 -44.5t-57.5 -107.5q0 -61 48 -98t126 -37zM383 -17q-137 0 -231 83t-94 209q0 159 119 250t331 100l289 12l14 64q4 17 4 44q0 65 -48.5 102.5t-135.5 37.5q-88 0 -143.5 -37.5t-70.5 -102.5h-238
q26 153 153.5 246t317.5 93q182 0 294.5 -86.5t112.5 -224.5q0 -51 -8 -88l-145 -685h-236l27 128h-4q-51 -67 -131.5 -106t-176.5 -39zM720 1204q-58 0 -98 40.5t-40 97.5q0 58 40 98t98 40t97.5 -40t39.5 -98q0 -57 -40 -97.5t-97 -40.5zM1119 1746l-29 -138h-615l29 138
h615z" />
    <glyph glyph-name="AEmacron" unicode="&#x1e2;" horiz-adv-x="1938" 
d="M1139 1235h-135l-406 -632h405zM875 0l86 398h-485l-258 -398h-268l923 1443h1204l-46 -223h-651l-84 -389h614l-44 -211h-613l-87 -397h650l-46 -223h-895zM1787 1763l-29 -139h-671l30 139h670z" />
    <glyph glyph-name="aemacron" unicode="&#x1e3;" horiz-adv-x="1781" 
d="M1228 -22q-127 0 -224.5 58t-140.5 156h-9q-70 -104 -182 -159t-251 -55q-154 0 -256 85.5t-102 211.5q0 159 118.5 251t335.5 99l288 12l13 64q4 16 4 44q0 63 -50 101.5t-136 38.5q-88 0 -143.5 -38t-69.5 -102h-238q26 151 151 245t310 94q107 0 197 -41t135 -111h9
q136 152 346 152q195 0 314 -124.5t119 -327.5q0 -83 -12 -158h-749v-27q0 -125 63.5 -199t172.5 -74q89 0 152.5 41.5t92.5 118.5h233q-41 -159 -176.5 -257.5t-314.5 -98.5zM1032 640h499q2 14 2 30q0 98 -57.5 158.5t-149.5 60.5q-109 0 -186 -67t-108 -182zM477 170
q101 0 177 56.5t95 142.5l23 100l-254 -11q-98 -5 -156 -46.5t-58 -106.5q0 -59 47.5 -97t125.5 -38zM1411 1418l-29 -138h-615l29 138h615z" />
    <glyph glyph-name="Gcaron" unicode="&#x1e6;" horiz-adv-x="1481" 
d="M1488 755l-40 -198q-55 -277 -233.5 -429t-442.5 -152q-281 0 -446 172t-165 453q0 131 30.5 255.5t94.5 235.5t153 194.5t215 132t273 48.5q256 0 415.5 -138.5t164.5 -348.5q0 -3 -0.5 -10t-0.5 -10h-253q-9 128 -97.5 205t-232.5 77q-100 0 -183.5 -36t-141 -97
t-97.5 -142.5t-58.5 -171.5t-18.5 -184q0 -188 95 -299.5t269 -111.5q149 0 258 87.5t140 230.5l7 36h-346l42 201h599zM857 1552l-208 311h193l125 -192h7l205 192h210l-340 -311h-192z" />
    <glyph glyph-name="gcaron" unicode="&#x1e7;" horiz-adv-x="1194" 
d="M479 -401q-206 0 -334 90t-128 236h244q10 -64 70.5 -102t154.5 -38q238 0 297 242l35 152h-9q-48 -78 -135.5 -124t-188.5 -46q-173 0 -278 116.5t-105 310.5q0 100 23.5 195t69.5 176t109 142t147.5 96t179.5 35q120 0 208 -63t116 -163h9l43 208h240l-220 -1041
q-44 -205 -188 -313.5t-360 -108.5zM573 200q94 0 168.5 57.5t113.5 152t39 206.5t-65.5 183.5t-165.5 71.5q-138 0 -226 -119.5t-88 -296.5q0 -116 59 -185.5t165 -69.5zM882 1226h-192l-200 312h190l117 -190h6l199 190h212z" />
    <glyph glyph-name="Kcaron" unicode="&#x1e8;" horiz-adv-x="1322" 
d="M321 0h-261l307 1443h261l-142 -662h5l708 662h315l-692 -657l416 -786h-291l-334 629l-196 -179zM810 1552l-208 311h193l125 -192h7l205 192h210l-340 -311h-192z" />
    <glyph glyph-name="kcaron" unicode="&#x1e9;" horiz-adv-x="1051" 
d="M284 0h-246l308 1443h245l-172 -802h6l478 421h296l-510 -449l309 -613h-269l-237 474l-129 -107zM399 1552l-208 311h193l125 -192h7l205 192h210l-340 -311h-192z" />
    <glyph glyph-name="Oogonek" unicode="&#x1ea;" horiz-adv-x="1540" 
d="M975 -428q-42 -22 -132 -22q-94 0 -152.5 46.5t-58.5 123.5q0 142 189 253v5q-28 -2 -42 -2q-281 0 -449.5 172.5t-168.5 451.5q0 243 99.5 441.5t275 312t391.5 113.5q283 0 451.5 -172.5t168.5 -451.5q0 -262 -124.5 -467.5t-329.5 -327.5q-51 -32 -89.5 -59.5
t-81 -64.5t-66 -74t-23.5 -71q0 -35 26 -54.5t73 -19.5q48 0 73 12zM1284 830q0 188 -98 299.5t-262 111.5q-142 0 -257.5 -84.5t-179 -228t-63.5 -315.5q0 -188 97.5 -299.5t261.5 -111.5q142 0 257.5 84.5t179.5 228t64 315.5z" />
    <glyph glyph-name="oogonek" unicode="&#x1eb;" horiz-adv-x="1159" 
d="M729 -416q-39 -22 -132 -22q-95 0 -152.5 46.5t-57.5 121.5q0 147 188 245v3h-5q-213 0 -340 129t-127 344q0 176 75 321t206.5 228.5t291.5 83.5q213 0 339.5 -129t126.5 -345q0 -184 -86.5 -331t-230.5 -236q-121 -75 -179.5 -135t-58.5 -114q0 -34 27.5 -55.5
t71.5 -21.5q46 0 73 11zM353 455q0 -125 59.5 -198.5t161.5 -73.5q135 0 226 122.5t91 302.5q0 125 -59 199t-160 74q-136 0 -227.5 -123.5t-91.5 -302.5z" />
    <glyph glyph-name="Oogonekmacron" unicode="&#x1ec;" horiz-adv-x="1540" 
d="M975 -428q-42 -22 -132 -22q-94 0 -152.5 46.5t-58.5 123.5q0 142 189 253v5q-28 -2 -42 -2q-281 0 -449.5 172.5t-168.5 451.5q0 243 99.5 441.5t275 312t391.5 113.5q283 0 451.5 -172.5t168.5 -451.5q0 -262 -124.5 -467.5t-329.5 -327.5q-51 -32 -89.5 -59.5
t-81 -64.5t-66 -74t-23.5 -71q0 -35 26 -54.5t73 -19.5q48 0 73 12zM1284 830q0 188 -98 299.5t-262 111.5q-142 0 -257.5 -84.5t-179 -228t-63.5 -315.5q0 -188 97.5 -299.5t261.5 -111.5q142 0 257.5 84.5t179.5 228t64 315.5zM1348 1763l-29 -139h-671l30 139h670z" />
    <glyph glyph-name="oogonekmacron" unicode="&#x1ed;" horiz-adv-x="1159" 
d="M729 -416q-39 -22 -132 -22q-95 0 -152.5 46.5t-57.5 121.5q0 147 188 245v3h-5q-213 0 -340 129t-127 344q0 176 75 321t206.5 228.5t291.5 83.5q213 0 339.5 -129t126.5 -345q0 -184 -86.5 -331t-230.5 -236q-121 -75 -179.5 -135t-58.5 -114q0 -34 27.5 -55.5
t71.5 -21.5q46 0 73 11zM353 455q0 -125 59.5 -198.5t161.5 -73.5q135 0 226 122.5t91 302.5q0 125 -59 199t-160 74q-136 0 -227.5 -123.5t-91.5 -302.5zM1084 1418l-29 -138h-615l29 138h615z" />
    <glyph glyph-name="uni01F1" unicode="&#x1f1;" horiz-adv-x="2707" 
d="M367 1443h478q278 0 438.5 -152.5t160.5 -422.5q0 -253 -96.5 -450.5t-272.5 -307.5t-403 -110h-610zM583 1222l-215 -1000h275q235 0 385.5 170.5t150.5 442.5q0 187 -99.5 287t-288.5 100h-208zM1458 0l37 176l962 1039l1 5h-719l47 223h1049l-37 -176l-961 -1039
l-1 -5h757l-46 -223h-1089z" />
    <glyph glyph-name="uni01F2" unicode="&#x1f2;" horiz-adv-x="2453" 
d="M367 1443h478q278 0 438.5 -152.5t160.5 -422.5q0 -253 -96.5 -450.5t-272.5 -307.5t-403 -110h-610zM583 1222l-215 -1000h275q235 0 385.5 170.5t150.5 442.5q0 187 -99.5 287t-288.5 100h-208zM1445 0l32 154l697 703l1 5h-540l42 200h849l-36 -168l-678 -689l-1 -5
h539l-42 -200h-863z" />
    <glyph glyph-name="uni01F3" unicode="&#x1f3;" horiz-adv-x="2220" 
d="M482 -17q-175 0 -278 118.5t-103 319.5q0 186 69.5 337t191 236.5t270.5 85.5q121 0 211 -61.5t116 -157.5h6l126 582h244l-307 -1443h-242l34 162h-5q-53 -82 -141 -130.5t-192 -48.5zM572 188q137 0 230.5 123.5t93.5 304.5q0 113 -63.5 184t-168.5 71
q-133 0 -223.5 -120t-90.5 -301q0 -121 59.5 -191.5t162.5 -70.5zM1213 0l32 154l697 703l1 5h-540l42 200h849l-36 -168l-678 -689l-1 -5h539l-42 -200h-863z" />
    <glyph glyph-name="Gacute" unicode="&#x1f4;" horiz-adv-x="1481" 
d="M1488 755l-40 -198q-55 -277 -233.5 -429t-442.5 -152q-281 0 -446 172t-165 453q0 131 30.5 255.5t94.5 235.5t153 194.5t215 132t273 48.5q256 0 415.5 -138.5t164.5 -348.5q0 -3 -0.5 -10t-0.5 -10h-253q-9 128 -97.5 205t-232.5 77q-100 0 -183.5 -36t-141 -97
t-97.5 -142.5t-58.5 -171.5t-18.5 -184q0 -188 95 -299.5t269 -111.5q149 0 258 87.5t140 230.5l7 36h-346l42 201h599zM1059 1558h-213l287 300h254z" />
    <glyph glyph-name="gacute" unicode="&#x1f5;" horiz-adv-x="1194" 
d="M479 -401q-206 0 -334 90t-128 236h244q10 -64 70.5 -102t154.5 -38q238 0 297 242l35 152h-9q-48 -78 -135.5 -124t-188.5 -46q-173 0 -278 116.5t-105 310.5q0 100 23.5 195t69.5 176t109 142t147.5 96t179.5 35q120 0 208 -63t116 -163h9l43 208h240l-220 -1041
q-44 -205 -188 -313.5t-360 -108.5zM573 200q94 0 168.5 57.5t113.5 152t39 206.5t-65.5 183.5t-165.5 71.5q-138 0 -226 -119.5t-88 -296.5q0 -116 59 -185.5t165 -69.5zM896 1232h-209l283 308h244z" />
    <glyph glyph-name="Ngrave" unicode="&#x1f8;" horiz-adv-x="1458" 
d="M315 0h-255l307 1443h228l488 -1040h5l223 1040h254l-307 -1443h-227l-488 1040h-6zM880 1558l-201 300h229l161 -300h-189z" />
    <glyph glyph-name="ngrave" unicode="&#x1f9;" horiz-adv-x="1155" 
d="M33 0l225 1062h235l-34 -163h5q55 87 144.5 136t200.5 49q144 0 237.5 -86.5t93.5 -221.5q0 -58 -14 -130l-137 -646h-244l128 605q11 51 11 94q0 81 -54 129t-143 48q-100 0 -175.5 -66.5t-99.5 -177.5l-134 -632h-245zM853 1231h-195l-187 308h231z" />
    <glyph glyph-name="Aringacute" unicode="&#x1fa;" horiz-adv-x="1356" 
d="M867 1177l-330 -604h410l-75 604h-5zM1011 0l-45 369h-534l-204 -369h-277l822 1443h293l200 -1443h-255zM967 1511q-82 0 -137.5 50.5t-55.5 132.5q0 86 56.5 141t141.5 55q83 0 138.5 -51t54.5 -133q-1 -85 -57 -140t-141 -55zM967 1614q41 0 66 24.5t25 65.5
q-1 37 -24.5 60t-61.5 23q-40 0 -65 -25t-25 -66q0 -36 24 -59t61 -23zM1085 2136h214l-179 -182h-187z" />
    <glyph glyph-name="aringacute" unicode="&#x1fb;" horiz-adv-x="1070" 
d="M473 173q97 0 172.5 55.5t94.5 142.5l23 101l-248 -12q-101 -4 -158.5 -44.5t-57.5 -107.5q0 -61 48 -98t126 -37zM383 -17q-137 0 -231 83t-94 209q0 159 119 250t331 100l289 12l14 64q4 17 4 44q0 65 -48.5 102.5t-135.5 37.5q-88 0 -143.5 -37.5t-70.5 -102.5h-238
q26 153 153.5 246t317.5 93q182 0 294.5 -86.5t112.5 -224.5q0 -51 -8 -88l-145 -685h-236l27 128h-4q-51 -67 -131.5 -106t-176.5 -39zM697 1672l173 208h212l-200 -208h-185zM725 1187q-87 0 -145 55t-58 144q0 91 59 150t149 59q89 0 147 -54.5t57 -143.5
q-1 -92 -59.5 -151t-149.5 -59zM634 1387q0 -41 25.5 -66t65.5 -25q44 0 71 27t26 72q-1 42 -26 67t-66 25q-42 0 -69 -27.5t-27 -72.5z" />
    <glyph glyph-name="AEacute" unicode="&#x1fc;" horiz-adv-x="1938" 
d="M1139 1235h-135l-406 -632h405zM875 0l86 398h-485l-258 -398h-268l923 1443h1204l-46 -223h-651l-84 -389h614l-44 -211h-613l-87 -397h650l-46 -223h-895zM1516 1558h-213l287 300h254z" />
    <glyph glyph-name="aeacute" unicode="&#x1fd;" horiz-adv-x="1781" 
d="M1228 -22q-127 0 -224.5 58t-140.5 156h-9q-70 -104 -182 -159t-251 -55q-154 0 -256 85.5t-102 211.5q0 159 118.5 251t335.5 99l288 12l13 64q4 16 4 44q0 63 -50 101.5t-136 38.5q-88 0 -143.5 -38t-69.5 -102h-238q26 151 151 245t310 94q107 0 197 -41t135 -111h9
q136 152 346 152q195 0 314 -124.5t119 -327.5q0 -83 -12 -158h-749v-27q0 -125 63.5 -199t172.5 -74q89 0 152.5 41.5t92.5 118.5h233q-41 -159 -176.5 -257.5t-314.5 -98.5zM1032 640h499q2 14 2 30q0 98 -57.5 158.5t-149.5 60.5q-109 0 -186 -67t-108 -182zM477 170
q101 0 177 56.5t95 142.5l23 100l-254 -11q-98 -5 -156 -46.5t-58 -106.5q0 -59 47.5 -97t125.5 -38zM1178 1231h-209l283 308h244z" />
    <glyph glyph-name="Oslashacute" unicode="&#x1fe;" horiz-adv-x="1540" 
d="M1405 1858l-328 -300h-213l287 300h254zM1257 1004l-714 -714q96 -88 240 -88q142 0 257.5 84.5t179.5 228t64 315.5q0 98 -27 174zM451 439l713 713q-95 89 -240 89q-142 0 -257.5 -84.5t-179 -228t-63.5 -315.5q0 -97 27 -174zM1609 1356l-156 -156q94 -151 94 -357
q0 -182 -59 -343t-160.5 -276t-244 -181.5t-304.5 -66.5q-249 0 -412 138l-149 -149l-119 122l156 156q-94 153 -94 357q0 243 99.5 441.5t275 312t391.5 113.5q251 0 414 -138l149 149z" />
    <glyph glyph-name="oslashacute" unicode="&#x1ff;" horiz-adv-x="1161" 
d="M1155 1539l-318 -308h-209l283 308h244zM891 697l-464 -465q59 -56 148 -56q140 0 232.5 123.5t92.5 308.5q0 48 -9 89zM355 365l465 465q-60 57 -149 57q-141 0 -233 -123.5t-92 -309.5q0 -48 9 -89zM1189 996l-115 -115q70 -115 70 -269q0 -133 -43.5 -251t-119.5 -202
t-182.5 -132.5t-228.5 -48.5q-180 0 -301 96l-109 -110l-102 103l115 115q-70 115 -70 269q0 133 43.5 250.5t119.5 201.5t182.5 132.5t228.5 48.5q180 0 301 -95l109 109z" />
    <glyph glyph-name="Adblgrave" unicode="&#x200;" horiz-adv-x="1356" 
d="M867 1177l-330 -604h410l-75 604h-5zM1011 0l-45 369h-534l-204 -369h-277l822 1443h293l200 -1443h-255zM669 1558l-201 300h229l161 -300h-189zM1037 1558l-202 300h230l161 -300h-189z" />
    <glyph glyph-name="adblgrave" unicode="&#x201;" horiz-adv-x="1070" 
d="M473 173q97 0 172.5 55.5t94.5 142.5l23 101l-248 -12q-101 -4 -158.5 -44.5t-57.5 -107.5q0 -61 48 -98t126 -37zM383 -17q-137 0 -231 83t-94 209q0 159 119 250t331 100l289 12l14 64q4 17 4 44q0 65 -48.5 102.5t-135.5 37.5q-88 0 -143.5 -37.5t-70.5 -102.5h-238
q26 153 153.5 246t317.5 93q182 0 294.5 -86.5t112.5 -224.5q0 -51 -8 -88l-145 -685h-236l27 128h-4q-51 -67 -131.5 -106t-176.5 -39zM632 1232h-176l-189 307h217zM982 1232h-175l-189 307h216z" />
    <glyph glyph-name="Ainvertedbreve" unicode="&#x202;" horiz-adv-x="1356" 
d="M867 1177l-330 -604h410l-75 604h-5zM1011 0l-45 369h-534l-204 -369h-277l822 1443h293l200 -1443h-255zM1281 1540h-159q6 20 6 42q0 64 -40 101t-110 37q-83 0 -143.5 -49t-79.5 -131h-163q33 144 140.5 230t268.5 86q129 0 208.5 -70t79.5 -179q0 -38 -8 -67z" />
    <glyph glyph-name="ainvertedbreve" unicode="&#x203;" horiz-adv-x="1070" 
d="M473 173q97 0 172.5 55.5t94.5 142.5l23 101l-248 -12q-101 -4 -158.5 -44.5t-57.5 -107.5q0 -61 48 -98t126 -37zM383 -17q-137 0 -231 83t-94 209q0 159 119 250t331 100l289 12l14 64q4 17 4 44q0 65 -48.5 102.5t-135.5 37.5q-88 0 -143.5 -37.5t-70.5 -102.5h-238
q26 153 153.5 246t317.5 93q182 0 294.5 -86.5t112.5 -224.5q0 -51 -8 -88l-145 -685h-236l27 128h-4q-51 -67 -131.5 -106t-176.5 -39zM1035 1211h-160q7 30 7 45q0 64 -40.5 101t-110.5 37q-81 0 -142.5 -49.5t-80.5 -133.5h-162q33 149 140.5 234t268.5 85
q124 0 206 -70.5t82 -180.5q0 -33 -8 -68z" />
    <glyph glyph-name="Edblgrave" unicode="&#x204;" horiz-adv-x="1158" 
d="M1041 223l-46 -223h-935l307 1443h935l-47 -223h-673l-84 -383h637l-44 -210h-636l-88 -404h674zM579 1558l-201 300h229l161 -300h-189zM947 1558l-202 300h230l161 -300h-189z" />
    <glyph glyph-name="edblgrave" unicode="&#x205;" horiz-adv-x="1117" 
d="M365 640h499q1 8 1 30q0 93 -56 156t-162 63q-104 0 -178.5 -69t-103.5 -180zM562 -22q-217 0 -337.5 129t-120.5 345q0 176 69 320t195.5 228t285.5 84q204 0 325 -122.5t121 -329.5q0 -93 -12 -158h-750q-1 -11 -1 -34q0 -121 63 -193t169 -72q91 0 156 42.5t95 116.5
h233q-42 -157 -176 -256.5t-315 -99.5zM634 1232h-176l-189 307h217zM984 1232h-175l-189 307h216z" />
    <glyph glyph-name="Einvertedbreve" unicode="&#x206;" horiz-adv-x="1158" 
d="M1041 223l-46 -223h-935l307 1443h935l-47 -223h-673l-84 -383h637l-44 -210h-636l-88 -404h674zM1191 1540h-159q6 20 6 42q0 64 -40 101t-110 37q-83 0 -143.5 -49t-79.5 -131h-163q33 144 140.5 230t268.5 86q129 0 208.5 -70t79.5 -179q0 -38 -8 -67z" />
    <glyph glyph-name="einvertedbreve" unicode="&#x207;" horiz-adv-x="1117" 
d="M365 640h499q1 8 1 30q0 93 -56 156t-162 63q-104 0 -178.5 -69t-103.5 -180zM562 -22q-217 0 -337.5 129t-120.5 345q0 176 69 320t195.5 228t285.5 84q204 0 325 -122.5t121 -329.5q0 -93 -12 -158h-750q-1 -11 -1 -34q0 -121 63 -193t169 -72q91 0 156 42.5t95 116.5
h233q-42 -157 -176 -256.5t-315 -99.5zM1037 1211h-160q7 30 7 45q0 64 -40.5 101t-110.5 37q-81 0 -142.5 -49.5t-80.5 -133.5h-162q33 149 140.5 234t268.5 85q124 0 206 -70.5t82 -180.5q0 -33 -8 -68z" />
    <glyph glyph-name="Idblgrave" unicode="&#x208;" horiz-adv-x="520" 
d="M321 0h-261l307 1443h261zM251 1558l-201 300h229l161 -300h-189zM619 1558l-202 300h230l161 -300h-189z" />
    <glyph glyph-name="idblgrave" unicode="&#x209;" horiz-adv-x="468" 
d="M41 0l226 1062h246l-226 -1062h-246zM363 1232h-176l-189 307h217zM713 1232h-175l-189 307h216z" />
    <glyph glyph-name="Iinvertedbreve" unicode="&#x20a;" horiz-adv-x="520" 
d="M321 0h-261l307 1443h261zM863 1540h-159q6 20 6 42q0 64 -40 101t-110 37q-83 0 -143.5 -49t-79.5 -131h-163q33 144 140.5 230t268.5 86q129 0 208.5 -70t79.5 -179q0 -38 -8 -67z" />
    <glyph glyph-name="iinvertedbreve" unicode="&#x20b;" horiz-adv-x="468" 
d="M41 0l226 1062h246l-226 -1062h-246zM765 1211h-160q7 30 7 45q0 64 -40.5 101t-110.5 37q-81 0 -142.5 -49.5t-80.5 -133.5h-162q33 149 140.5 234t268.5 85q124 0 206 -70.5t82 -180.5q0 -33 -8 -68z" />
    <glyph glyph-name="Odblgrave" unicode="&#x20c;" horiz-adv-x="1540" 
d="M924 1241q-142 0 -257.5 -84.5t-179 -228t-63.5 -315.5q0 -188 97.5 -299.5t261.5 -111.5q142 0 257.5 84.5t179.5 228t64 315.5q0 188 -98 299.5t-262 111.5zM779 -24q-281 0 -449.5 172.5t-168.5 451.5q0 243 99.5 441.5t275 312t391.5 113.5q283 0 451.5 -172.5
t168.5 -451.5q0 -182 -59 -343t-160.5 -276t-244 -181.5t-304.5 -66.5zM697 1558l-201 300h229l161 -300h-189zM1065 1558l-202 300h230l161 -300h-189z" />
    <glyph glyph-name="odblgrave" unicode="&#x20d;" horiz-adv-x="1161" 
d="M576 184q137 0 228 121t91 300q0 124 -61 198.5t-164 74.5q-138 0 -228.5 -120t-90.5 -301q0 -124 61 -198.5t164 -74.5zM677 1084q211 0 339 -129.5t128 -342.5q0 -133 -43.5 -251t-119.5 -202t-182.5 -132.5t-228.5 -48.5q-211 0 -339 130t-128 343q0 133 43.5 250.5
t119.5 201.5t182.5 132.5t228.5 48.5zM652 1232h-176l-189 307h217zM1002 1232h-175l-189 307h216z" />
    <glyph glyph-name="Oinvertedbreve" unicode="&#x20e;" horiz-adv-x="1540" 
d="M924 1241q-142 0 -257.5 -84.5t-179 -228t-63.5 -315.5q0 -188 97.5 -299.5t261.5 -111.5q142 0 257.5 84.5t179.5 228t64 315.5q0 188 -98 299.5t-262 111.5zM779 -24q-281 0 -449.5 172.5t-168.5 451.5q0 243 99.5 441.5t275 312t391.5 113.5q283 0 451.5 -172.5
t168.5 -451.5q0 -182 -59 -343t-160.5 -276t-244 -181.5t-304.5 -66.5zM1309 1540h-159q6 20 6 42q0 64 -40 101t-110 37q-83 0 -143.5 -49t-79.5 -131h-163q33 144 140.5 230t268.5 86q129 0 208.5 -70t79.5 -179q0 -38 -8 -67z" />
    <glyph glyph-name="oinvertedbreve" unicode="&#x20f;" horiz-adv-x="1161" 
d="M576 184q137 0 228 121t91 300q0 124 -61 198.5t-164 74.5q-138 0 -228.5 -120t-90.5 -301q0 -124 61 -198.5t164 -74.5zM677 1084q211 0 339 -129.5t128 -342.5q0 -133 -43.5 -251t-119.5 -202t-182.5 -132.5t-228.5 -48.5q-211 0 -339 130t-128 343q0 133 43.5 250.5
t119.5 201.5t182.5 132.5t228.5 48.5zM1055 1211h-160q7 30 7 45q0 64 -40.5 101t-110.5 37q-81 0 -142.5 -49.5t-80.5 -133.5h-162q33 149 140.5 234t268.5 85q124 0 206 -70.5t82 -180.5q0 -33 -8 -68z" />
    <glyph glyph-name="Rdblgrave" unicode="&#x210;" horiz-adv-x="1309" 
d="M1109 1558h-189l-202 300h230zM741 1558h-189l-201 300h229zM479 746h297q142 0 230.5 77t88.5 198q0 97 -60 152.5t-165 55.5h-287zM367 1443h551q208 0 325 -109t117 -289q0 -167 -100 -297.5t-273 -176.5l188 -571h-270l-173 541h-295l-116 -541h-261z" />
    <glyph glyph-name="rdblgrave" unicode="&#x211;" horiz-adv-x="760" 
d="M33 0l226 1062h236l-30 -145h5q100 161 284 161q76 0 130 -25l-49 -228q-60 28 -141 28q-120 0 -191 -66t-100 -198l-125 -589h-245zM515 1232h-176l-189 307h217zM865 1232h-175l-189 307h216z" />
    <glyph glyph-name="Rinvertedbreve" unicode="&#x212;" horiz-adv-x="1309" 
d="M1164 1540h-159q6 20 6 42q0 64 -40 101t-110 37q-83 0 -143.5 -49t-79.5 -131h-163q33 144 140.5 230t268.5 86q129 0 208.5 -70t79.5 -179q0 -38 -8 -67zM479 746h297q142 0 230.5 77t88.5 198q0 97 -60 152.5t-165 55.5h-287zM367 1443h551q208 0 325 -109t117 -289
q0 -167 -100 -297.5t-273 -176.5l188 -571h-270l-173 541h-295l-116 -541h-261z" />
    <glyph glyph-name="rinvertedbreve" unicode="&#x213;" horiz-adv-x="760" 
d="M33 0l226 1062h236l-30 -145h5q100 161 284 161q76 0 130 -25l-49 -228q-60 28 -141 28q-120 0 -191 -66t-100 -198l-125 -589h-245zM917 1211h-160q7 30 7 45q0 64 -40.5 101t-110.5 37q-81 0 -142.5 -49.5t-80.5 -133.5h-162q33 149 140.5 234t268.5 85
q124 0 206 -70.5t82 -180.5q0 -33 -8 -68z" />
    <glyph glyph-name="Udblgrave" unicode="&#x214;" horiz-adv-x="1453" 
d="M708 -24q-251 0 -394 129.5t-144 332.5q-1 59 13 128l184 877h261l-183 -868q-14 -60 -12 -113q4 -119 82 -186t221 -67q140 0 237.5 81.5t128.5 226.5l197 926h261l-209 -981q-49 -231 -215.5 -358.5t-427.5 -127.5zM703 1558l-201 300h229l161 -300h-189zM1071 1558
l-202 300h230l161 -300h-189z" />
    <glyph glyph-name="udblgrave" unicode="&#x215;" horiz-adv-x="1155" 
d="M1208 1062l-225 -1062h-236l35 158h-6q-44 -76 -137.5 -128t-206.5 -52q-150 0 -239 85t-89 218q0 73 15 145l133 636h246l-127 -597q-11 -50 -11 -98q0 -176 188 -176q106 0 182 67t100 178l133 626h245zM698 1232h-176l-189 307h217zM1048 1232h-175l-189 307h216z" />
    <glyph glyph-name="Uinvertedbreve" unicode="&#x216;" horiz-adv-x="1453" 
d="M708 -24q-251 0 -394 129.5t-144 332.5q-1 59 13 128l184 877h261l-183 -868q-14 -60 -12 -113q4 -119 82 -186t221 -67q140 0 237.5 81.5t128.5 226.5l197 926h261l-209 -981q-49 -231 -215.5 -358.5t-427.5 -127.5zM1315 1540h-159q6 20 6 42q0 64 -40 101t-110 37
q-83 0 -143.5 -49t-79.5 -131h-163q33 144 140.5 230t268.5 86q129 0 208.5 -70t79.5 -179q0 -38 -8 -67z" />
    <glyph glyph-name="uinvertedbreve" unicode="&#x217;" horiz-adv-x="1155" 
d="M1208 1062l-225 -1062h-236l35 158h-6q-44 -76 -137.5 -128t-206.5 -52q-150 0 -239 85t-89 218q0 73 15 145l133 636h246l-127 -597q-11 -50 -11 -98q0 -176 188 -176q106 0 182 67t100 178l133 626h245zM1100 1211h-160q7 30 7 45q0 64 -40.5 101t-110.5 37
q-81 0 -142.5 -49.5t-80.5 -133.5h-162q33 149 140.5 234t268.5 85q124 0 206 -70.5t82 -180.5q0 -33 -8 -68z" />
    <glyph glyph-name="Scommaaccent" unicode="&#x218;" horiz-adv-x="1277" 
d="M88 424h251q13 -103 103 -167.5t229 -64.5q127 0 207 54t80 148q0 77 -51 123.5t-175 84.5l-113 35q-183 57 -271.5 151.5t-88.5 239.5q0 196 148.5 317.5t383.5 121.5q241 0 388.5 -116t148.5 -316h-246q-5 97 -82 156.5t-207 59.5q-127 0 -199 -57t-72 -138
q0 -70 52.5 -116.5t169.5 -82.5l116 -36q187 -57 275.5 -148.5t88.5 -233.5q0 -96 -38 -180t-107.5 -147t-176 -99.5t-235.5 -36.5q-165 0 -294 52.5t-205.5 155t-79.5 240.5zM497 -476h-189l194 346h226z" />
    <glyph glyph-name="scommaaccent" unicode="&#x219;" horiz-adv-x="1014" 
d="M177 752q0 147 117 239t307 92q183 0 299.5 -93.5t119.5 -242.5h-226q-5 67 -60 110t-136 43q-84 0 -134.5 -35t-50.5 -90q0 -47 35 -76t127 -58l101 -32q146 -47 209 -113.5t63 -172.5q0 -152 -123.5 -248.5t-317.5 -96.5q-201 0 -325 96t-129 249h238q9 -72 69 -116
t156 -44q82 0 135 39t53 98q0 43 -32 68.5t-123 53.5l-93 30q-146 47 -212.5 118.5t-66.5 181.5zM346 -476h-189l194 346h226z" />
    <glyph glyph-name="Tcommaaccent" unicode="&#x21a;" horiz-adv-x="1241" 
d="M682 0h-261l260 1220h-443l46 223h1147l-46 -223h-443zM399 -476h-189l194 346h226z" />
    <glyph glyph-name="tcommaaccent" unicode="&#x21b;" horiz-adv-x="698" 
d="M461 -11q-137 0 -217 57.5t-80 167.5q0 47 10 101l117 541h-158l41 195h158l54 260h245l-55 -260h221l-41 -195h-220l-106 -494q-10 -40 -10 -76q0 -101 133 -101q39 0 72 5l-41 -189q-57 -12 -123 -12zM241 -476h-189l194 346h226z" />
    <glyph glyph-name="Hcaron" unicode="&#x21e;" horiz-adv-x="1479" 
d="M1280 0h-264l134 624h-693l-133 -624h-264l307 1443h264l-128 -598h692l128 598h264zM902 1552l-208 311h193l125 -192h7l205 192h210l-340 -311h-192z" />
    <glyph glyph-name="hcaron" unicode="&#x21f;" horiz-adv-x="1171" 
d="M38 0l307 1443h245l-117 -544h6q52 82 140.5 132.5t202.5 50.5q149 0 241.5 -89.5t92.5 -220.5q0 -56 -14 -126l-140 -646h-244l131 605q11 53 11 90q0 81 -54.5 131t-146.5 50q-104 0 -181.5 -67.5t-100.5 -176.5l-134 -632h-245zM399 1552l-208 311h193l125 -192h7
l205 192h210l-340 -311h-192z" />
    <glyph glyph-name="Adotaccent" unicode="&#x226;" horiz-adv-x="1356" 
d="M867 1177l-330 -604h410l-75 604h-5zM1011 0l-45 369h-534l-204 -369h-277l822 1443h293l200 -1443h-255zM979 1608q-59 0 -100 41.5t-41 99.5q0 59 41 100.5t100 41.5q58 0 99 -41.5t41 -100.5q0 -58 -41 -99.5t-99 -41.5z" />
    <glyph glyph-name="adotaccent" unicode="&#x227;" horiz-adv-x="1070" 
d="M473 173q97 0 172.5 55.5t94.5 142.5l23 101l-248 -12q-101 -4 -158.5 -44.5t-57.5 -107.5q0 -61 48 -98t126 -37zM383 -17q-137 0 -231 83t-94 209q0 159 119 250t331 100l289 12l14 64q4 17 4 44q0 65 -48.5 102.5t-135.5 37.5q-88 0 -143.5 -37.5t-70.5 -102.5h-238
q26 153 153.5 246t317.5 93q182 0 294.5 -86.5t112.5 -224.5q0 -51 -8 -88l-145 -685h-236l27 128h-4q-51 -67 -131.5 -106t-176.5 -39zM722 1228q-58 0 -99.5 41t-41.5 100q0 58 41.5 99.5t99.5 41.5t99.5 -41.5t41.5 -99.5q0 -59 -41.5 -100t-99.5 -41z" />
    <glyph glyph-name="Ecedilla" unicode="&#x228;" horiz-adv-x="1158" 
d="M1255 1220h-673l-84 -383h637l-44 -210h-636l-88 -404h674l-46 -223h-368l-74 -118q83 -2 128 -40t45 -106q0 -94 -75.5 -152.5t-196.5 -58.5q-100 0 -165 24l27 130q58 -20 130 -20q121 0 121 61q0 29 -33 42.5t-108 13.5h-59l21 91l82 133h-410l307 1443h935z" />
    <glyph glyph-name="ecedilla" unicode="&#x229;" horiz-adv-x="1117" 
d="M365 640h499q1 8 1 30q0 93 -56 156t-162 63q-104 0 -178.5 -69t-103.5 -180zM1088 474h-750q-1 -11 -1 -34q0 -121 63 -193t169 -72q91 0 156 42.5t95 116.5h233q-38 -142 -152.5 -238t-271.5 -114l-63 -100q83 -2 128 -40t45 -106q0 -94 -75.5 -152.5t-196.5 -58.5
q-100 0 -165 24l27 130q58 -20 130 -20q121 0 121 61q0 29 -33 42.5t-108 13.5h-59l21 91l72 117q-176 26 -272.5 151t-96.5 317q0 176 69 320t195.5 228t285.5 84q204 0 325 -122.5t121 -329.5q0 -93 -12 -158z" />
    <glyph glyph-name="Odieresismacron" unicode="&#x22a;" horiz-adv-x="1540" 
d="M924 1241q-142 0 -257.5 -84.5t-179 -228t-63.5 -315.5q0 -188 97.5 -299.5t261.5 -111.5q142 0 257.5 84.5t179.5 228t64 315.5q0 188 -98 299.5t-262 111.5zM779 -24q-281 0 -449.5 172.5t-168.5 451.5q0 243 99.5 441.5t275 312t391.5 113.5q283 0 451.5 -172.5
t168.5 -451.5q0 -182 -59 -343t-160.5 -276t-244 -181.5t-304.5 -66.5zM801 1791q52 0 87 -35.5t35 -86.5t-35.5 -86t-86.5 -35t-86 35.5t-35 85.5q0 51 35 86.5t86 35.5zM1410 2058l-29 -138h-670l29 138h670zM1184 1791q52 0 87 -35.5t35 -86.5t-35 -86t-87 -35
q-51 0 -86 35.5t-35 85.5q0 51 35 86.5t86 35.5z" />
    <glyph glyph-name="odieresismacron" unicode="&#x22b;" horiz-adv-x="1161" 
d="M576 184q137 0 228 121t91 300q0 124 -61 198.5t-164 74.5q-138 0 -228.5 -120t-90.5 -301q0 -124 61 -198.5t164 -74.5zM677 1084q211 0 339 -129.5t128 -342.5q0 -133 -43.5 -251t-119.5 -202t-182.5 -132.5t-228.5 -48.5q-211 0 -339 130t-128 343q0 133 43.5 250.5
t119.5 201.5t182.5 132.5t228.5 48.5zM545 1216q-51 0 -87 35t-36 85t36 85.5t87 35.5t86.5 -35.5t35.5 -85.5t-35.5 -85t-86.5 -35zM931 1216q-51 0 -86.5 35t-35.5 85t35.5 85.5t86.5 35.5q52 0 87.5 -35.5t35.5 -85.5t-35.5 -85t-87.5 -35zM1139 1746l-29 -138h-615
l29 138h615z" />
    <glyph glyph-name="Otildemacron" unicode="&#x22c;" horiz-adv-x="1540" 
d="M924 1241q-142 0 -257.5 -84.5t-179 -228t-63.5 -315.5q0 -188 97.5 -299.5t261.5 -111.5q142 0 257.5 84.5t179.5 228t64 315.5q0 188 -98 299.5t-262 111.5zM779 -24q-281 0 -449.5 172.5t-168.5 451.5q0 243 99.5 441.5t275 312t391.5 113.5q283 0 451.5 -172.5
t168.5 -451.5q0 -182 -59 -343t-160.5 -276t-244 -181.5t-304.5 -66.5zM1410 2058l-30 -138h-670l30 138h670zM1112 1539q-38 0 -70.5 14.5t-54.5 35t-41 40.5t-39 34.5t-40 14.5q-34 0 -60.5 -32t-36.5 -87h-143q23 121 90.5 189.5t160.5 68.5q37 0 69 -14.5t54 -35
t41 -40.5t39 -34.5t41 -14.5q32 0 58 32t39 90h143q-23 -119 -91.5 -190t-158.5 -71z" />
    <glyph glyph-name="otildemacron" unicode="&#x22d;" horiz-adv-x="1161" 
d="M576 184q137 0 228 121t91 300q0 124 -61 198.5t-164 74.5q-138 0 -228.5 -120t-90.5 -301q0 -124 61 -198.5t164 -74.5zM677 1084q211 0 339 -129.5t128 -342.5q0 -133 -43.5 -251t-119.5 -202t-182.5 -132.5t-228.5 -48.5q-211 0 -339 130t-128 343q0 133 43.5 250.5
t119.5 201.5t182.5 132.5t228.5 48.5zM864 1190q-46 0 -84.5 22t-60 48t-48 48t-52.5 22q-34 0 -60.5 -33.5t-39.5 -93.5h-145q23 124 91 196t160 72q40 0 72.5 -14.5t54 -35.5t40 -41.5t38 -35t40.5 -14.5q32 0 58 33.5t40 96.5h146q-26 -123 -94 -196.5t-156 -73.5z
M1139 1746l-29 -138h-615l29 138h615z" />
    <glyph glyph-name="Odotaccent" unicode="&#x22e;" horiz-adv-x="1540" 
d="M924 1241q-142 0 -257.5 -84.5t-179 -228t-63.5 -315.5q0 -188 97.5 -299.5t261.5 -111.5q142 0 257.5 84.5t179.5 228t64 315.5q0 188 -98 299.5t-262 111.5zM779 -24q-281 0 -449.5 172.5t-168.5 451.5q0 243 99.5 441.5t275 312t391.5 113.5q283 0 451.5 -172.5
t168.5 -451.5q0 -182 -59 -343t-160.5 -276t-244 -181.5t-304.5 -66.5zM1006 1608q-59 0 -100 41.5t-41 99.5q0 59 41 100.5t100 41.5q58 0 99 -41.5t41 -100.5q0 -58 -41 -99.5t-99 -41.5z" />
    <glyph glyph-name="odotaccent" unicode="&#x22f;" horiz-adv-x="1161" 
d="M576 184q137 0 228 121t91 300q0 124 -61 198.5t-164 74.5q-138 0 -228.5 -120t-90.5 -301q0 -124 61 -198.5t164 -74.5zM677 1084q211 0 339 -129.5t128 -342.5q0 -133 -43.5 -251t-119.5 -202t-182.5 -132.5t-228.5 -48.5q-211 0 -339 130t-128 343q0 133 43.5 250.5
t119.5 201.5t182.5 132.5t228.5 48.5zM742 1228q-58 0 -99.5 41t-41.5 100q0 58 41.5 99.5t99.5 41.5t99.5 -41.5t41.5 -99.5q0 -59 -41.5 -100t-99.5 -41z" />
    <glyph glyph-name="Odotaccentmacron" unicode="&#x230;" horiz-adv-x="1540" 
d="M924 1241q-142 0 -257.5 -84.5t-179 -228t-63.5 -315.5q0 -188 97.5 -299.5t261.5 -111.5q142 0 257.5 84.5t179.5 228t64 315.5q0 188 -98 299.5t-262 111.5zM779 -24q-281 0 -449.5 172.5t-168.5 451.5q0 243 99.5 441.5t275 312t391.5 113.5q283 0 451.5 -172.5
t168.5 -451.5q0 -182 -59 -343t-160.5 -276t-244 -181.5t-304.5 -66.5zM997 1563q-55 0 -93.5 38t-38.5 92q0 53 38.5 91t93.5 38t93 -37.5t38 -91.5t-38 -92t-93 -38zM1410 2058l-30 -138h-670l30 138h670z" />
    <glyph glyph-name="odotaccentmacron" unicode="&#x231;" horiz-adv-x="1161" 
d="M576 184q137 0 228 121t91 300q0 124 -61 198.5t-164 74.5q-138 0 -228.5 -120t-90.5 -301q0 -124 61 -198.5t164 -74.5zM677 1084q211 0 339 -129.5t128 -342.5q0 -133 -43.5 -251t-119.5 -202t-182.5 -132.5t-228.5 -48.5q-211 0 -339 130t-128 343q0 133 43.5 250.5
t119.5 201.5t182.5 132.5t228.5 48.5zM740 1204q-58 0 -98 40.5t-40 97.5q0 58 40 98t98 40t97.5 -40t39.5 -98q0 -57 -40 -97.5t-97 -40.5zM1139 1746l-29 -138h-615l29 138h615z" />
    <glyph glyph-name="Ymacron" unicode="&#x232;" horiz-adv-x="1311" 
d="M718 0h-261l121 569l-320 874h270l223 -632h6l483 632h288l-693 -890zM1295 1763l-29 -139h-671l30 139h670z" />
    <glyph glyph-name="ymacron" unicode="&#x233;" horiz-adv-x="1049" 
d="M93 -388q-26 0 -71.5 3.5t-56.5 7.5l38 201q25 -10 98 -10q136 0 196 145q0 1 11.5 26t11.5 26l-151 1051h246l85 -834h5l421 834h265l-624 -1130q-96 -178 -206 -249t-268 -71zM1059 1418l-29 -138h-615l29 138h615z" />
    <glyph glyph-name="dotlessj" unicode="&#x237;" horiz-adv-x="462" 
d="M510 1062l-242 -1135q-32 -149 -128.5 -224.5t-250.5 -76.5q-58 0 -109 8l43 196q32 -5 57 -5q64 0 98.5 30.5t49.5 100.5l237 1106h245z" />
    <glyph glyph-name="quoteright" unicode="&#x2bc;" horiz-adv-x="573" 
d="M437 896h-192l198 547h244z" />
    <glyph glyph-name="quoteright" unicode="&#x2019;" horiz-adv-x="573" 
d="M437 896h-192l198 547h244z" />
    <glyph glyph-name="circumflex" unicode="&#x2c6;" horiz-adv-x="1079" 
d="M892 1537l200 -312h-194l-117 188h-7l-198 -188h-209l334 312h191z" />
    <glyph glyph-name="caron" unicode="&#x2c7;" horiz-adv-x="1079" 
d="M825 1225h-192l-200 312h190l117 -190h6l199 190h212z" />
    <glyph glyph-name="breve" unicode="&#x2d8;" horiz-adv-x="1080" 
d="M452 1537h159q-6 -26 -6 -45q0 -64 40.5 -101t109.5 -37q82 0 143.5 49t80.5 134h162q-33 -149 -140.5 -234t-269.5 -85q-124 0 -206 70.5t-82 180.5q0 28 9 68z" />
    <glyph glyph-name="dotaccent" unicode="&#x2d9;" horiz-adv-x="1079" 
d="M760 1228q-58 0 -99.5 41t-41.5 100q0 58 41.5 99.5t99.5 41.5t99.5 -41.5t41.5 -99.5q0 -59 -41.5 -100t-99.5 -41z" />
    <glyph glyph-name="ring" unicode="&#x2da;" horiz-adv-x="1080" 
d="M761 1181q-85 0 -145 56.5t-60 144.5q0 91 61 151.5t150 60.5q87 0 146.5 -56.5t58.5 -144.5q0 -91 -60.5 -151.5t-150.5 -60.5zM761 1290q45 0 73 28t28 73q-1 42 -27.5 68.5t-67.5 26.5q-43 0 -71.5 -28.5t-28.5 -73.5q0 -41 27 -67.5t67 -26.5z" />
    <glyph glyph-name="ogonek" unicode="&#x2db;" horiz-adv-x="1079" 
d="M606 -288l-31 -148q-37 -11 -93 -11q-114 0 -180 54t-66 146q0 84 64.5 161.5t174.5 127.5l149 -28q-189 -94 -189 -210q0 -95 127 -95q30 0 44 3z" />
    <glyph glyph-name="tilde" unicode="&#x2dc;" horiz-adv-x="1079" 
d="M881 1231q-46 0 -84.5 22t-60 48t-48 48t-52.5 22q-34 0 -60.5 -33.5t-39.5 -93.5h-145q23 124 91 196t160 72q40 0 72.5 -14.5t54 -35t40 -41.5t38 -35.5t40.5 -14.5q32 0 58 33.5t40 96.5h146q-26 -123 -94 -196.5t-156 -73.5z" />
    <glyph glyph-name="hungarumlaut" unicode="&#x2dd;" horiz-adv-x="1079" 
d="M697 1232l257 307h229l-297 -307h-189zM344 1232l257 307h229l-297 -307h-189z" />
    <glyph glyph-name="gravecmb" unicode="&#x300;" 
d="M289 1231h-195l-187 308h231z" />
    <glyph glyph-name="acutecmb" unicode="&#x301;" 
d="M313 1231h-209l283 308h244z" />
    <glyph glyph-name="circumflexcmb" unicode="&#x302;" 
d="M359 1537l200 -312h-194l-117 188h-7l-198 -188h-209l334 312h191z" />
    <glyph glyph-name="tildecmb" unicode="&#x303;" 
d="M343 1231q-46 0 -84.5 22t-60 48t-48 48t-52.5 22q-34 0 -60.5 -33.5t-39.5 -93.5h-145q23 124 91 196t160 72q40 0 72.5 -14.5t54 -35t40 -41.5t38 -35.5t40.5 -14.5q32 0 58 33.5t40 96.5h146q-26 -123 -94 -196.5t-156 -73.5z" />
    <glyph glyph-name="macroncmb" unicode="&#x304;" 
d="M546 1418l-29 -138h-615l29 138h615z" />
    <glyph glyph-name="brevecmb" unicode="&#x306;" 
d="M-83 1537h159q-6 -26 -6 -45q0 -64 40.5 -101t109.5 -37q82 0 143.5 49t80.5 134h162q-33 -149 -140.5 -234t-269.5 -85q-124 0 -206 70.5t-82 180.5q0 28 9 68z" />
    <glyph glyph-name="dotaccentcmb" unicode="&#x307;" 
d="M218 1228q-58 0 -99.5 41t-41.5 100q0 58 41.5 99.5t99.5 41.5t99.5 -41.5t41.5 -99.5q0 -59 -41.5 -100t-99.5 -41z" />
    <glyph glyph-name="dieresiscmb" unicode="&#x308;" 
d="M26 1229q-51 0 -86.5 35.5t-35.5 85.5t35.5 85.5t86.5 35.5q52 0 87.5 -35.5t35.5 -85.5t-35.5 -85.5t-87.5 -35.5zM413 1229q-51 0 -86.5 35.5t-35.5 85.5t35.5 85.5t86.5 35.5t86.5 -35.5t35.5 -85.5t-35.5 -85.5t-86.5 -35.5z" />
    <glyph glyph-name="hookabovecmb" unicode="&#x309;" 
d="M75 1468l28 128q51 23 129 23q83 0 137 -46t54 -116q0 -85 -60.5 -155t-161.5 -102l-56 105q115 39 115 117q0 29 -23.5 47.5t-59.5 18.5q-57 0 -102 -20z" />
    <glyph glyph-name="ringcmb" unicode="&#x30a;" 
d="M223 1181q-85 0 -145 56.5t-60 144.5q0 91 61 151.5t150 60.5q87 0 146.5 -56.5t58.5 -144.5q0 -91 -60.5 -151.5t-150.5 -60.5zM223 1290q45 0 73 28t28 73q-1 42 -27.5 68.5t-67.5 26.5q-43 0 -71.5 -28.5t-28.5 -73.5q0 -41 27 -67.5t67 -26.5z" />
    <glyph glyph-name="hungarumlautcmb" unicode="&#x30b;" 
d="M297 1232l257 307h229l-297 -307h-189zM-56 1232l257 307h229l-297 -307h-189z" />
    <glyph glyph-name="caroncmb" unicode="&#x30c;" 
d="M299 1225h-192l-200 312h190l117 -190h6l199 190h212z" />
    <glyph glyph-name="dblgravecmb" unicode="&#x30f;" 
d="M128 1232h-176l-189 307h217zM478 1232h-175l-189 307h216z" />
    <glyph glyph-name="invertedbrevecmb" unicode="&#x311;" 
d="M532 1218h-160q7 30 7 45q0 64 -40.5 101t-110.5 37q-81 0 -142.5 -49.5t-80.5 -133.5h-162q33 149 140.5 234t268.5 85q124 0 206 -70.5t82 -180.5q0 -33 -8 -68z" />
    <glyph glyph-name="horncmb" unicode="&#x31b;" 
d="M-67 926l39 183q27 -29 78 -29t80 29t44 100l36 171h204l-48 -224q-28 -130 -106.5 -196.5t-194.5 -66.5q-89 0 -132 33z" />
    <glyph glyph-name="dotbelowcmb" unicode="&#x323;" 
d="M-137 -450q-59 0 -100 41.5t-41 99.5q0 59 41 100.5t100 41.5q58 0 99 -41.5t41 -100.5q0 -58 -41 -99.5t-99 -41.5z" />
    <glyph glyph-name="dieresisbelowcmb" unicode="&#x324;" 
d="M-329 -430q-51 0 -86.5 35.5t-35.5 85.5t35.5 85.5t86.5 35.5t87 -35.5t36 -85.5t-36 -85.5t-87 -35.5zM58 -430q-51 0 -87 35.5t-36 85.5t36 85.5t87 35.5t86.5 -35.5t35.5 -85.5t-35.5 -85.5t-86.5 -35.5z" />
    <glyph glyph-name="ringbelowcmb" unicode="&#x325;" 
d="M-137 -516q-85 0 -145 56.5t-60 144.5q0 91 61 151.5t150 60.5q87 0 146.5 -56.5t58.5 -144.5q0 -91 -60.5 -151.5t-150.5 -60.5zM-137 -407q45 0 73 28t28 73q-1 42 -27.5 68.5t-67.5 26.5q-43 0 -71.5 -28.5t-28.5 -73.5q0 -41 27 -67.5t67 -26.5z" />
    <glyph glyph-name="commabelowcmb" unicode="&#x326;" 
d="M-225 -476h-189l194 346h226z" />
    <glyph glyph-name="cedillacmb" unicode="&#x327;" 
d="M-252 -224l21 91l89 144h151l-1 -11l-74 -118q83 -2 128 -40t45 -106q0 -94 -75.5 -152.5t-196.5 -58.5q-100 0 -165 24l27 130q58 -20 130 -20q121 0 121 61q0 29 -33 42.5t-108 13.5h-59z" />
    <glyph glyph-name="ogonekcmb" unicode="&#x328;" 
d="M50 -288l-31 -148q-37 -11 -93 -11q-114 0 -180 54t-66 146q0 84 64.5 161.5t174.5 127.5l149 -28q-189 -94 -189 -210q0 -95 127 -95q30 0 44 3z" />
    <glyph glyph-name="circumflexbelowcmb" unicode="&#x32d;" 
d="M-17 -165l208 -311h-193l-124 192h-7l-206 -192h-209l340 311h191z" />
    <glyph glyph-name="brevebelowcmb" unicode="&#x32e;" 
d="M-446 -151h159q-6 -26 -6 -45q0 -64 40 -100t110 -36q83 0 143.5 49t79.5 132h163q-33 -145 -141 -230.5t-269 -85.5q-129 0 -208.5 69t-79.5 177q0 32 9 70z" />
    <glyph glyph-name="tildebelowcmb" unicode="&#x330;" 
d="M-8 -450q-46 0 -84.5 22t-60 48t-48 48t-52.5 22q-34 0 -60.5 -33.5t-39.5 -93.5h-145q23 124 91 196t160 72q40 0 72.5 -14.5t54 -35.5t40 -41.5t38 -35t40.5 -14.5q32 0 58 33.5t40 96.5h146q-26 -123 -94 -196.5t-156 -73.5z" />
    <glyph glyph-name="macronbelowcmb" unicode="&#x331;" 
d="M216 -239l-29 -139h-671l30 139h670z" />
    <glyph glyph-name="macronbelowcmb" unicode="&#x332;" 
d="M216 -239l-29 -139h-671l30 139h670z" />
    <glyph glyph-name="greekquestionmark" unicode="&#x37e;" horiz-adv-x="553" 
d="M390 713q-60 0 -102 43t-42 104q0 62 41.5 104.5t102.5 42.5q60 0 101.5 -42.5t41.5 -104.5q0 -61 -41.5 -104t-101.5 -43zM163 -307h-192l199 547h243z" />
    <glyph glyph-name="tonosgreek" unicode="&#x384;" horiz-adv-x="840" 
d="M448 1220l144 314h275l-221 -314h-198z" />
    <glyph glyph-name="dieresistonosgreek" unicode="&#x385;" horiz-adv-x="1414" 
d="M927 1227h-171l96 320h262zM1228 1227q-53 0 -90 37t-37 88q0 52 36.5 88.5t89.5 36.5q54 0 90.5 -36.5t37.5 -88.5q0 -52 -36.5 -88.5t-90.5 -36.5zM590 1227q-52 0 -89 37t-37 88q-1 52 36 88.5t90 36.5t89.5 -36.5t37.5 -88.5q0 -52 -36.5 -88.5t-90.5 -36.5z" />
    <glyph glyph-name="Alphatonosgreek" unicode="&#x386;" horiz-adv-x="1356" 
d="M867 1177l-330 -604h410l-75 604h-5zM1011 0l-45 369h-534l-204 -369h-277l822 1443h293l200 -1443h-255zM203 1129l144 314h276l-221 -314h-199z" />
    <glyph glyph-name="anoteleia" unicode="&#x387;" horiz-adv-x="553" 
d="M344 515q-60 0 -102 43t-42 104t42 103.5t102 42.5t102 -42.5t42 -103.5t-42 -104t-102 -43z" />
    <glyph glyph-name="Epsilontonosgreek" unicode="&#x388;" horiz-adv-x="1494" 
d="M170 1129l144 314h276l-221 -314h-199zM1378 223l-46 -223h-935l307 1443h935l-47 -223h-673l-84 -383h637l-44 -210h-636l-88 -404h674z" />
    <glyph glyph-name="Etatonosgreek" unicode="&#x389;" horiz-adv-x="1816" 
d="M170 1129l144 314h276l-221 -314h-199zM1617 0h-264l134 624h-693l-133 -624h-264l307 1443h264l-128 -598h692l128 598h264z" />
    <glyph glyph-name="Iotatonosgreek" unicode="&#x38a;" horiz-adv-x="856" 
d="M170 1129l144 314h276l-221 -314h-199zM658 0h-261l307 1443h261z" />
    <glyph glyph-name="Omicrontonosgreek" unicode="&#x38c;" horiz-adv-x="1765" 
d="M170 1129l144 314h276l-221 -314h-199zM1150 1241q-142 0 -257.5 -84.5t-179 -228t-63.5 -315.5q0 -188 97.5 -299.5t261.5 -111.5q142 0 257.5 84.5t179.5 228t64 315.5q0 188 -98 299.5t-262 111.5zM1005 -24q-281 0 -449.5 172.5t-168.5 451.5q0 243 99.5 441.5
t275 312t391.5 113.5q283 0 451.5 -172.5t168.5 -451.5q0 -182 -59 -343t-160.5 -276t-244 -181.5t-304.5 -66.5z" />
    <glyph glyph-name="Upsilontonosgreek" unicode="&#x38e;" horiz-adv-x="1806" 
d="M272 1129l144 314h276l-221 -314h-199zM1213 0h-261l121 569l-320 874h270l223 -632h6l483 632h288l-693 -890z" />
    <glyph glyph-name="Omegatonosgreek" unicode="&#x38f;" horiz-adv-x="1827" 
d="M170 1129l144 314h276l-221 -314h-199zM1130 0l54 262q192 99 294.5 253t102.5 349q0 170 -104 274t-279 104q-224 0 -361 -153.5t-137 -403.5q0 -275 240 -423l-54 -262h-561l44 216h299v7q-110 80 -169 199t-59 264q0 233 101 411.5t279.5 274.5t406.5 96
q279 0 445 -157.5t166 -415.5q0 -206 -106.5 -387.5t-288.5 -283.5l-1 -8h304l-45 -216h-571z" />
    <glyph glyph-name="iotadieresistonosgreek" unicode="&#x390;" horiz-adv-x="588" 
d="M491 1062l-149 -700q-10 -47 -10 -76q0 -101 133 -101q44 0 72 5l-40 -189q-59 -12 -123 -12q-140 0 -219 59t-79 166q0 46 11 101l160 747h244zM487 1219h-171l96 320h262zM788 1219q-53 0 -90 37t-37 88q0 52 36.5 88.5t89.5 36.5q54 0 90.5 -36.5t37.5 -88.5
q0 -52 -36.5 -88.5t-90.5 -36.5zM150 1219q-52 0 -89 37t-37 88q-1 52 36 88.5t90 36.5t89.5 -36.5t37.5 -88.5q0 -52 -36.5 -88.5t-90.5 -36.5z" />
    <glyph glyph-name="Alphagreek" unicode="&#x391;" horiz-adv-x="1356" 
d="M867 1177l-330 -604h410l-75 604h-5zM1011 0l-45 369h-534l-204 -369h-277l822 1443h293l200 -1443h-255z" />
    <glyph glyph-name="Betagreek" unicode="&#x392;" horiz-adv-x="1328" 
d="M721 0h-661l307 1443h562q185 0 295.5 -86.5t110.5 -227.5q0 -137 -90 -238.5t-232 -135.5l-1 -6q117 -21 185.5 -100.5t68.5 -189.5q0 -202 -152 -330.5t-393 -128.5zM583 1248l-86 -404h259q141 0 229 65.5t88 168.5q0 83 -61 126.5t-178 43.5h-251zM360 205h322
q142 0 231 71t89 182q0 95 -65.5 144t-193.5 49h-287z" />
    <glyph glyph-name="Gammagreek" unicode="&#x393;" horiz-adv-x="1091" 
d="M327 0h-267l307 1443h901l-47 -223h-634z" />
    <glyph glyph-name="Deltagreek" unicode="&#x394;" horiz-adv-x="1377" 
d="M1243 0h-1246l33 158l754 1285h293l199 -1286zM876 1188l-544 -960l-1 -5h687l1 4l-138 961h-5z" />
    <glyph glyph-name="Deltagreek" unicode="&#x2206;" horiz-adv-x="1377" 
d="M1243 0h-1246l33 158l754 1285h293l199 -1286zM876 1188l-544 -960l-1 -5h687l1 4l-138 961h-5z" />
    <glyph glyph-name="Epsilongreek" unicode="&#x395;" horiz-adv-x="1158" 
d="M1041 223l-46 -223h-935l307 1443h935l-47 -223h-673l-84 -383h637l-44 -210h-636l-88 -404h674z" />
    <glyph glyph-name="Zetagreek" unicode="&#x396;" horiz-adv-x="1269" 
d="M20 0l37 176l962 1039l1 5h-719l47 223h1049l-37 -176l-961 -1039l-1 -5h757l-46 -223h-1089z" />
    <glyph glyph-name="Etagreek" unicode="&#x397;" horiz-adv-x="1479" 
d="M1280 0h-264l134 624h-693l-133 -624h-264l307 1443h264l-128 -598h692l128 598h264z" />
    <glyph glyph-name="Thetagreek" unicode="&#x398;" horiz-adv-x="1573" 
d="M1120 609h-547l45 216h546zM789 -24q-285 0 -456.5 171.5t-171.5 458.5q0 180 59 339t162.5 273.5t251 181t317.5 66.5q286 0 457.5 -171t171.5 -458q0 -180 -59.5 -339t-163 -274t-251 -181.5t-317.5 -66.5zM1320 830q0 191 -102.5 303t-276.5 112q-149 0 -268.5 -85
t-185.5 -229.5t-66 -318.5q0 -190 102 -301.5t276 -111.5q149 0 269 84.5t186 228.5t66 318z" />
    <glyph glyph-name="Iotagreek" unicode="&#x399;" horiz-adv-x="520" 
d="M321 0h-261l307 1443h261z" />
    <glyph glyph-name="Kappagreek" unicode="&#x39a;" horiz-adv-x="1322" 
d="M321 0h-261l307 1443h261l-142 -662h5l708 662h315l-692 -657l416 -786h-291l-334 629l-196 -179z" />
    <glyph glyph-name="Lambdagreek" unicode="&#x39b;" horiz-adv-x="1335" 
d="M857 1177l-619 -1177h-277l802 1443h293l180 -1443h-255l-119 1177h-5z" />
    <glyph glyph-name="Mugreek" unicode="&#x39c;" horiz-adv-x="1752" 
d="M295 0h-234l306 1443h293l203 -1107h6l669 1107h321l-307 -1443h-235l225 1048h-8l-637 -1041h-182l-190 1041h-7z" />
    <glyph glyph-name="Nugreek" unicode="&#x39d;" horiz-adv-x="1458" 
d="M315 0h-255l307 1443h228l488 -1040h5l223 1040h254l-307 -1443h-227l-488 1040h-6z" />
    <glyph glyph-name="Xigreek" unicode="&#x39e;" horiz-adv-x="1265" 
d="M331 1443h1077l-47 -230h-1077zM1147 622h-903l46 217h903zM72 230h1077l-47 -230h-1077z" />
    <glyph glyph-name="Omicrongreek" unicode="&#x39f;" horiz-adv-x="1540" 
d="M924 1241q-142 0 -257.5 -84.5t-179 -228t-63.5 -315.5q0 -188 97.5 -299.5t261.5 -111.5q142 0 257.5 84.5t179.5 228t64 315.5q0 188 -98 299.5t-262 111.5zM779 -24q-281 0 -449.5 172.5t-168.5 451.5q0 243 99.5 441.5t275 312t391.5 113.5q283 0 451.5 -172.5
t168.5 -451.5q0 -182 -59 -343t-160.5 -276t-244 -181.5t-304.5 -66.5z" />
    <glyph glyph-name="Pigreek" unicode="&#x3a0;" horiz-adv-x="1459" 
d="M1260 0h-264l262 1220h-674l-261 -1220h-263l307 1443h1200z" />
    <glyph glyph-name="Rhogreek" unicode="&#x3a1;" horiz-adv-x="1266" 
d="M367 1443h520q201 0 326.5 -112.5t125.5 -298.5q0 -256 -170.5 -407.5t-442.5 -151.5h-303l-101 -473h-261zM583 1227l-116 -540h252q163 0 259.5 86.5t96.5 235.5q0 105 -68 161.5t-188 56.5h-236z" />
    <glyph glyph-name="Sigmagreek" unicode="&#x3a3;" horiz-adv-x="1275" 
d="M394 228l-1 -5h769l-46 -223h-1096l34 167l502 573l-241 517l38 186h1049l-46 -223h-727l-1 -5l208 -465l-5 -18z" />
    <glyph glyph-name="Taugreek" unicode="&#x3a4;" horiz-adv-x="1241" 
d="M682 0h-261l260 1220h-443l46 223h1147l-46 -223h-443z" />
    <glyph glyph-name="Upsilongreek" unicode="&#x3a5;" horiz-adv-x="1311" 
d="M718 0h-261l121 569l-320 874h270l223 -632h6l483 632h288l-693 -890z" />
    <glyph glyph-name="Phigreek" unicode="&#x3a6;" horiz-adv-x="1747" 
d="M662 -91l31 147q-260 29 -402 177.5t-142 382.5q0 158 58.5 294.5t164.5 236.5t261 160.5t340 67.5l31 149h245l-32 -152q259 -29 402 -176.5t143 -386.5q0 -157 -59 -293t-165.5 -236t-261 -160t-338.5 -67l-31 -144h-245zM739 272l188 887q-235 -11 -378.5 -155
t-143.5 -376q0 -155 87 -247.5t247 -108.5zM983 269q238 12 380 156t142 376q0 155 -87.5 247t-245.5 107z" />
    <glyph glyph-name="Chigreek" unicode="&#x3a7;" horiz-adv-x="1359" 
d="M-34 0l638 732l-323 711h284l233 -522h8l441 522h314l-639 -730l324 -713h-285l-234 525h-8l-443 -525h-310z" />
    <glyph glyph-name="Psigreek" unicode="&#x3a8;" horiz-adv-x="1667" 
d="M890 0h-251l68 318q-485 44 -485 433q0 62 13 127l119 565h250l-114 -545q-17 -76 -17 -130q0 -111 69 -166t210 -63l194 904h251l-195 -909q183 6 281 91.5t133 251.5l120 566h252l-124 -587q-38 -177 -119 -291t-225.5 -178t-363.5 -74z" />
    <glyph glyph-name="Omegagreek" unicode="&#x3a9;" horiz-adv-x="1554" 
d="M857 0l54 262q192 99 294.5 253t102.5 349q0 170 -104 274t-279 104q-224 0 -361 -153.5t-137 -403.5q0 -275 240 -423l-54 -262h-561l44 216h299v7q-110 80 -169 199t-59 264q0 233 101 411.5t279.5 274.5t406.5 96q279 0 445 -157.5t166 -415.5q0 -206 -106.5 -387.5
t-288.5 -283.5l-1 -8h304l-45 -216h-571z" />
    <glyph glyph-name="Omegagreek" unicode="&#x2126;" horiz-adv-x="1554" 
d="M857 0l54 262q192 99 294.5 253t102.5 349q0 170 -104 274t-279 104q-224 0 -361 -153.5t-137 -403.5q0 -275 240 -423l-54 -262h-561l44 216h299v7q-110 80 -169 199t-59 264q0 233 101 411.5t279.5 274.5t406.5 96q279 0 445 -157.5t166 -415.5q0 -206 -106.5 -387.5
t-288.5 -283.5l-1 -8h304l-45 -216h-571z" />
    <glyph glyph-name="Iotadieresisgreek" unicode="&#x3aa;" horiz-adv-x="520" 
d="M321 0h-261l307 1443h261zM360 1597q-51 0 -86.5 35.5t-35.5 85.5t35.5 85.5t86.5 35.5q52 0 87.5 -35.5t35.5 -85.5t-35.5 -85.5t-87.5 -35.5zM747 1597q-51 0 -86.5 35.5t-35.5 85.5t35.5 85.5t86.5 35.5t86.5 -35.5t35.5 -85.5t-35.5 -85.5t-86.5 -35.5z" />
    <glyph glyph-name="Upsilondieresisgreek" unicode="&#x3ab;" horiz-adv-x="1311" 
d="M718 0h-261l121 569l-320 874h270l223 -632h6l483 632h288l-693 -890zM753 1597q-51 0 -86.5 35.5t-35.5 85.5t35.5 85.5t86.5 35.5q52 0 87.5 -35.5t35.5 -85.5t-35.5 -85.5t-87.5 -35.5zM1140 1597q-51 0 -86.5 35.5t-35.5 85.5t35.5 85.5t86.5 35.5t86.5 -35.5
t35.5 -85.5t-35.5 -85.5t-86.5 -35.5z" />
    <glyph glyph-name="alphatonosgreek" unicode="&#x3ac;" horiz-adv-x="1244" 
d="M449 -17q-167 0 -267 116.5t-100 317.5q0 141 40 264t109.5 210.5t166.5 138t208 50.5q127 0 209.5 -63t111.5 -161h7l44 206h237l-156 -732q-11 -51 -11 -75q0 -34 18.5 -49t61.5 -15q24 0 50 6l-39 -187q-50 -15 -113 -15q-119 0 -172.5 42t-53.5 142v6h-5
q-56 -93 -148 -147.5t-198 -54.5zM542 187q130 0 223.5 125.5t93.5 303.5q0 118 -62 186.5t-160 68.5q-133 0 -219.5 -120t-86.5 -305q0 -119 59 -189t152 -70zM609 1220l144 314h275l-221 -314h-198z" />
    <glyph glyph-name="epsilontonosgreek" unicode="&#x3ad;" horiz-adv-x="1105" 
d="M502 -16q-202 0 -316.5 73t-114.5 213q0 100 65.5 172t173.5 100l1 8q-67 27 -103 78t-36 116q0 154 132 244.5t345 90.5q239 0 352 -98.5t119 -264.5h-241q-10 80 -61 121.5t-176 41.5q-103 0 -162.5 -38t-59.5 -101q0 -111 180 -111h153l-39 -188h-177
q-100 0 -153.5 -36.5t-53.5 -98.5q0 -59 54 -91t153 -32q109 0 188 45t109 124h252q-41 -168 -197.5 -268t-386.5 -100zM627 1220l144 314h275l-221 -314h-198z" />
    <glyph glyph-name="etatonosgreek" unicode="&#x3ae;" horiz-adv-x="1279" 
d="M790 -350l205 955q10 40 10 82q0 84 -55 133.5t-143 49.5q-106 0 -182.5 -66.5t-102.5 -183.5l-130 -620h-245l159 746q7 34 7 57q0 37 -19 54t-62 17q-26 0 -54 -7l40 188q47 15 120 15q105 0 157 -40.5t61 -127.5v-2t0.5 -4.5t1 -6t1 -5.5t0.5 -4v-1h6q55 96 150 147.5
t212 51.5q145 0 239.5 -87t94.5 -231q0 -49 -15 -126l-211 -984h-245zM737 1220l144 314h275l-221 -314h-198z" />
    <glyph glyph-name="iotatonosgreek" unicode="&#x3af;" horiz-adv-x="588" 
d="M491 1062l-149 -700q-10 -47 -10 -76q0 -101 133 -101q44 0 72 5l-40 -189q-59 -12 -123 -12q-140 0 -219 59t-79 166q0 46 11 101l160 747h244zM311 1220l144 314h275l-221 -314h-198z" />
    <glyph glyph-name="upsilondieresistonosgreek" unicode="&#x3b0;" horiz-adv-x="1093" 
d="M855 1062h235q15 -77 15 -179q0 -417 -169.5 -661t-462.5 -244q-177 0 -277 89t-100 242q0 65 21 174l123 579h236l-112 -529q-27 -125 -27 -185q2 -157 168 -157q108 0 190 88t126.5 248.5t44.5 370.5q0 67 -11 164zM764 1219h-171l96 320h262zM1065 1219q-53 0 -90 37
t-37 88q0 52 36.5 88.5t89.5 36.5q54 0 90.5 -36.5t37.5 -88.5q0 -52 -37 -88.5t-90 -36.5zM427 1219q-52 0 -89 37t-37 88q-1 52 36 88.5t90 36.5t89.5 -36.5t37.5 -88.5q0 -52 -37 -88.5t-90 -36.5z" />
    <glyph glyph-name="alphagreek" unicode="&#x3b1;" horiz-adv-x="1244" 
d="M449 -17q-167 0 -267 116.5t-100 317.5q0 141 40 264t109.5 210.5t166.5 138t208 50.5q127 0 209.5 -63t111.5 -161h7l44 206h237l-156 -732q-11 -51 -11 -75q0 -34 18.5 -49t61.5 -15q24 0 50 6l-39 -187q-50 -15 -113 -15q-119 0 -172.5 42t-53.5 142v6h-5
q-56 -93 -148 -147.5t-198 -54.5zM542 187q130 0 223.5 125.5t93.5 303.5q0 118 -62 186.5t-160 68.5q-133 0 -219.5 -120t-86.5 -305q0 -119 59 -189t152 -70z" />
    <glyph glyph-name="betagreek" unicode="&#x3b2;" horiz-adv-x="1201" 
d="M240 992q51 245 175 359t343 114q187 0 301 -93.5t114 -249.5q0 -123 -63.5 -212t-186.5 -129l-1 -4q251 -65 251 -322q0 -129 -56.5 -235t-172 -171.5t-271.5 -65.5q-124 0 -219.5 61.5t-131.5 165.5h-6l-119 -560h-243zM556 671l41 195h90q116 0 185.5 60t69.5 164
q0 78 -53 124.5t-148 46.5q-93 0 -161 -63.5t-95 -192.5l-102 -475q-14 -64 -14 -100q0 -108 77.5 -173.5t200.5 -65.5q115 0 198 74t83 184q0 106 -70.5 164t-198.5 58h-103z" />
    <glyph glyph-name="gammagreek" unicode="&#x3b3;" horiz-adv-x="1092" 
d="M924 1063h237q-7 -82 -26 -166q-46 -223 -176 -431t-411 -500l-66 -309h-240l63 296l-138 1110h245l85 -860q178 198 271.5 358.5t130.5 333.5q17 79 25 168z" />
    <glyph glyph-name="deltagreek" unicode="&#x3b4;" horiz-adv-x="1129" 
d="M538 -22q-207 0 -335 119t-128 315q0 213 122 354t338 173v1l1 3q-153 86 -153 228q0 134 109 211t299 77q116 0 219 -26.5t160 -70.5l-47 -188q-156 92 -332 92q-76 0 -116 -27t-40 -77q0 -35 28.5 -63.5t112.5 -76.5q188 -115 264.5 -222.5t76.5 -251.5
q0 -115 -39 -217.5t-110.5 -181.5t-182.5 -125t-247 -46zM554 169q135 0 222 106t87 276q0 114 -61 180t-164 66q-135 0 -224.5 -102t-89.5 -274q0 -114 64 -183t166 -69z" />
    <glyph glyph-name="epsilongreek" unicode="&#x3b5;" horiz-adv-x="1105" 
d="M502 -16q-202 0 -316.5 73t-114.5 213q0 100 65.5 172t173.5 100l1 8q-67 27 -103 78t-36 116q0 154 132 244.5t345 90.5q239 0 352 -98.5t119 -264.5h-241q-10 80 -61 121.5t-176 41.5q-103 0 -162.5 -38t-59.5 -101q0 -111 180 -111h153l-39 -188h-177
q-100 0 -153.5 -36.5t-53.5 -98.5q0 -59 54 -91t153 -32q109 0 188 45t109 124h252q-41 -168 -197.5 -268t-386.5 -100z" />
    <glyph glyph-name="zetagreek" unicode="&#x3b6;" horiz-adv-x="912" 
d="M708 -380l-172 66q60 70 81 107.5t21 84.5q0 46 -31 72.5t-123 67.5q-217 95 -305.5 197t-88.5 258q0 216 159 401.5t476 358.5l1 6h-433l43 205h763l11 -179q-375 -190 -571.5 -376t-196.5 -375q0 -100 50 -156t194 -120q175 -78 234 -139t59 -160q0 -83 -42 -158.5
t-129 -160.5z" />
    <glyph glyph-name="etagreek" unicode="&#x3b7;" horiz-adv-x="1279" 
d="M790 -350l205 955q10 40 10 82q0 84 -55 133.5t-143 49.5q-106 0 -182.5 -66.5t-102.5 -183.5l-130 -620h-245l159 746q7 34 7 57q0 37 -19 54t-62 17q-26 0 -54 -7l40 188q47 15 120 15q105 0 157 -40.5t61 -127.5v-2t0.5 -4.5t1 -6t1 -5.5t0.5 -4v-1h6q55 96 150 147.5
t212 51.5q145 0 239.5 -87t94.5 -231q0 -49 -15 -126l-211 -984h-245z" />
    <glyph glyph-name="thetagreek" unicode="&#x3b8;" horiz-adv-x="1184" 
d="M549 -22q-213 0 -324.5 132.5t-111.5 380.5q0 124 23 253q63 353 224 536.5t406 183.5q212 0 323 -130.5t111 -377.5q0 -103 -24 -250q-62 -356 -223 -542t-404 -186zM559 171q132 0 218.5 113t136.5 352h-546q-15 -97 -15 -174q0 -134 51 -212.5t155 -78.5zM401 827h545
q11 80 11 144q0 148 -53 224.5t-157 76.5q-252 0 -346 -445z" />
    <glyph glyph-name="iotagreek" unicode="&#x3b9;" horiz-adv-x="588" 
d="M491 1062l-149 -700q-10 -47 -10 -76q0 -101 133 -101q44 0 72 5l-40 -189q-59 -12 -123 -12q-140 0 -219 59t-79 166q0 46 11 101l160 747h244z" />
    <glyph glyph-name="kappagreek" unicode="&#x3ba;" horiz-adv-x="1118" 
d="M1060 1069q77 0 116 -14l-40 -188q-33 7 -58 7q-37 0 -68 -18.5t-79 -66.5l-180 -175l268 -614h-241l-200 471l-261 -247l-47 -224h-241l225 1063h242l-109 -507h4l354 347q102 102 163 134t152 32z" />
    <glyph glyph-name="lambdagreek" unicode="&#x3bb;" horiz-adv-x="1080" 
d="M1037 191q23 0 51 6l-40 -187q-45 -15 -119 -15q-114 0 -167 52t-70 179l-59 441h-4l-399 -667h-266l629 995l-9 53q-15 91 -38.5 138.5t-53.5 62t-80 14.5q-23 0 -56 -7l40 188q47 15 107 15q95 0 152 -32.5t94 -117t59 -241.5l107 -763q9 -64 36 -89t86 -25z" />
    <glyph glyph-name="nugreek" unicode="&#x3bd;" horiz-adv-x="1092" 
d="M1161 1063q-7 -79 -26 -166q-47 -226 -173 -425t-383 -472h-279l-133 1063h245l85 -860h5q169 185 263.5 347t133.5 346q17 80 25 167h237z" />
    <glyph glyph-name="xigreek" unicode="&#x3be;" horiz-adv-x="932" 
d="M712 -380l-172 66q58 70 78.5 109t20.5 80q0 46 -30 73t-126 67q-224 97 -314.5 185t-90.5 212q0 128 88.5 207.5t257.5 105.5l1 2q-83 32 -129 96.5t-46 144.5q0 97 60 163t185 106v2h-201l42 204h737l11 -186l-150 -14q-439 -38 -439 -220q0 -83 81 -128.5t230 -45.5
h126l-42 -198h-157q-396 0 -396 -191q0 -65 54.5 -114.5t197.5 -112.5q174 -78 232.5 -135.5t58.5 -158.5q0 -164 -168 -319z" />
    <glyph glyph-name="omicrongreek" unicode="&#x3bf;" horiz-adv-x="1161" 
d="M576 184q137 0 228 121t91 300q0 124 -61 198.5t-164 74.5q-138 0 -228.5 -120t-90.5 -301q0 -124 61 -198.5t164 -74.5zM677 1084q211 0 339 -129.5t128 -342.5q0 -133 -43.5 -251t-119.5 -202t-182.5 -132.5t-228.5 -48.5q-211 0 -339 130t-128 343q0 133 43.5 250.5
t119.5 201.5t182.5 132.5t228.5 48.5z" />
    <glyph glyph-name="pigreek" unicode="&#x3c0;" horiz-adv-x="1318" 
d="M814 294l122 567h-367l-183 -861h-234l184 861h-194l42 201h1245l-43 -201h-216l-116 -540q-10 -48 -10 -63q0 -38 20.5 -54.5t70.5 -16.5q29 0 55 7l-39 -188q-50 -15 -113 -15q-116 0 -177.5 51.5t-61.5 143.5q0 37 15 108z" />
    <glyph glyph-name="rhogreek" unicode="&#x3c1;" horiz-adv-x="1143" 
d="M592 191q129 0 220.5 115t91.5 311q0 126 -63.5 195t-170.5 69q-137 0 -223 -122.5t-86 -312.5q0 -121 63 -188t168 -67zM685 1084q219 0 342.5 -123.5t123.5 -331.5q0 -179 -69 -327t-190 -233.5t-269 -85.5q-131 0 -214.5 66t-108.5 161h-6l-120 -560h-242l188 883
q60 284 201.5 417.5t363.5 133.5z" />
    <glyph glyph-name="sigmafinalgreek" unicode="&#x3c2;" horiz-adv-x="1038" 
d="M881 -59q0 -84 -41 -158.5t-129 -162.5l-172 66q57 68 79 106.5t22 82.5q0 47 -29 74.5t-123 67.5q-206 90 -300.5 210.5t-94.5 289.5q0 118 38 220.5t107.5 180t177 122t239.5 44.5q99 0 183.5 -32.5t141.5 -88t88.5 -128t31.5 -151.5h-234q-9 89 -68 143.5t-159 54.5
q-92 0 -159.5 -48.5t-99.5 -124.5t-32 -167q0 -102 59 -175.5t183 -128.5q175 -78 233 -139t58 -158z" />
    <glyph glyph-name="sigmagreek" unicode="&#x3c3;" horiz-adv-x="1192" 
d="M533 -22q-207 0 -329.5 128t-122.5 334q0 177 71 317t208 222.5t318 82.5h643l-43 -205h-277l-1 -3q99 -90 99 -253q0 -127 -42 -241t-115.5 -198.5t-180 -134t-228.5 -49.5zM538 179q142 0 228.5 118.5t86.5 296.5q0 127 -55 193t-155 66q-133 0 -224.5 -115.5
t-91.5 -295.5q0 -125 55 -194t156 -69z" />
    <glyph glyph-name="taugreek" unicode="&#x3c4;" horiz-adv-x="984" 
d="M782 190l-41 -189q-46 -12 -131 -12q-146 0 -229 57.5t-83 167.5q0 48 11 102l117 545h-323l41 201h953l-42 -201h-384l-107 -498q-10 -47 -10 -77q0 -54 37 -77.5t117 -23.5q42 0 74 5z" />
    <glyph glyph-name="upsilongreek" unicode="&#x3c5;" horiz-adv-x="1093" 
d="M855 1062h235q15 -77 15 -179q0 -417 -169.5 -661t-462.5 -244q-177 0 -277 89t-100 242q0 65 21 174l123 579h236l-112 -529q-27 -125 -27 -185q2 -157 168 -157q108 0 190 88t126.5 248.5t44.5 370.5q0 67 -11 164z" />
    <glyph glyph-name="phigreek" unicode="&#x3c6;" horiz-adv-x="1464" 
d="M476 -350l71 334q-215 20 -340.5 142.5t-125.5 310.5q0 189 88.5 335t247 226.5t361.5 81.5l50 231h229l-50 -234q211 -19 337 -142.5t126 -311.5q0 -186 -89 -332.5t-247.5 -227.5t-359.5 -81l-70 -332h-228zM590 179l152 706q-191 -5 -307 -120t-116 -304
q0 -120 70.5 -192.5t200.5 -89.5zM810 177q193 9 306.5 122.5t113.5 301.5q0 118 -70 191.5t-197 90.5z" />
    <glyph glyph-name="chigreek" unicode="&#x3c7;" horiz-adv-x="1122" 
d="M854 -346q-95 0 -148 38.5t-81 126.5l-99 318h-13l-348 -478h-247l539 710l-127 388q-23 68 -49 92.5t-78 24.5q-30 0 -56 -7l39 189q53 14 117 14q95 0 149 -40.5t83 -135.5l101 -323h12l358 492h248l-545 -722l117 -369q23 -71 52.5 -96.5t85.5 -25.5q22 0 54 6
l-40 -188q-51 -14 -124 -14z" />
    <glyph glyph-name="psigreek" unicode="&#x3c8;" horiz-adv-x="1441" 
d="M692 -350h-235l71 334q-432 11 -432 333q0 58 21 163l123 582h236l-122 -569q-17 -83 -17 -129q0 -83 54 -123t181 -45l238 1115h235l-238 -1113q88 0 157.5 35.5t117 98.5t78.5 152t45 192t14 224q0 27 -11 162h234q16 -80 16 -177q0 -104 -10 -198t-33.5 -186
t-59.5 -168t-91 -142t-126 -111t-166 -70.5t-209 -25.5z" />
    <glyph glyph-name="omegagreek" unicode="&#x3c9;" horiz-adv-x="1539" 
d="M1508 626q0 -181 -63.5 -329.5t-175 -233.5t-247.5 -85q-118 0 -191 58t-88 178h-4q-110 -236 -318 -236q-162 0 -249 103t-87 291q0 193 80.5 379.5t219.5 310.5h251q-151 -145 -231 -319.5t-80 -357.5q0 -87 38 -141t102 -54q75 0 127.5 54t72.5 150l78 365h227
l-66 -317q-12 -55 -12 -93q0 -77 34.5 -118t99.5 -41q108 0 174.5 122.5t66.5 322.5q0 221 -80 427h248q73 -190 73 -436z" />
    <glyph glyph-name="iotadieresisgreek" unicode="&#x3ca;" horiz-adv-x="588" 
d="M491 1062l-149 -700q-10 -47 -10 -76q0 -101 133 -101q44 0 72 5l-40 -189q-59 -12 -123 -12q-140 0 -219 59t-79 166q0 46 11 101l160 747h244zM254 1229q-51 0 -86.5 35.5t-35.5 85.5t35.5 85.5t86.5 35.5q52 0 87.5 -35.5t35.5 -85.5t-35.5 -85.5t-87.5 -35.5z
M641 1229q-51 0 -86.5 35.5t-35.5 85.5t35.5 85.5t86.5 35.5t86.5 -35.5t35.5 -85.5t-35.5 -85.5t-86.5 -35.5z" />
    <glyph glyph-name="upsilondieresisgreek" unicode="&#x3cb;" horiz-adv-x="1093" 
d="M855 1062h235q15 -77 15 -179q0 -417 -169.5 -661t-462.5 -244q-177 0 -277 89t-100 242q0 65 21 174l123 579h236l-112 -529q-27 -125 -27 -185q2 -157 168 -157q108 0 190 88t126.5 248.5t44.5 370.5q0 67 -11 164zM531 1229q-51 0 -86.5 35.5t-35.5 85.5t35.5 85.5
t86.5 35.5q52 0 87.5 -35.5t35.5 -85.5t-35.5 -85.5t-87.5 -35.5zM918 1229q-51 0 -86.5 35.5t-35.5 85.5t35.5 85.5t86.5 35.5t86.5 -35.5t35.5 -85.5t-35.5 -85.5t-86.5 -35.5z" />
    <glyph glyph-name="omicrontonosgreek" unicode="&#x3cc;" horiz-adv-x="1161" 
d="M576 184q137 0 228 121t91 300q0 124 -61 198.5t-164 74.5q-138 0 -228.5 -120t-90.5 -301q0 -124 61 -198.5t164 -74.5zM677 1084q211 0 339 -129.5t128 -342.5q0 -133 -43.5 -251t-119.5 -202t-182.5 -132.5t-228.5 -48.5q-211 0 -339 130t-128 343q0 133 43.5 250.5
t119.5 201.5t182.5 132.5t228.5 48.5zM608 1220l144 314h275l-221 -314h-198z" />
    <glyph glyph-name="upsilontonosgreek" unicode="&#x3cd;" horiz-adv-x="1093" 
d="M855 1062h235q15 -77 15 -179q0 -417 -169.5 -661t-462.5 -244q-177 0 -277 89t-100 242q0 65 21 174l123 579h236l-112 -529q-27 -125 -27 -185q2 -157 168 -157q108 0 190 88t126.5 248.5t44.5 370.5q0 67 -11 164zM589 1220l144 314h275l-221 -314h-198z" />
    <glyph glyph-name="omegatonosgreek" unicode="&#x3ce;" horiz-adv-x="1539" 
d="M1508 626q0 -181 -63.5 -329.5t-175 -233.5t-247.5 -85q-118 0 -191 58t-88 178h-4q-110 -236 -318 -236q-162 0 -249 103t-87 291q0 193 80.5 379.5t219.5 310.5h251q-151 -145 -231 -319.5t-80 -357.5q0 -87 38 -141t102 -54q75 0 127.5 54t72.5 150l78 365h227
l-66 -317q-12 -55 -12 -93q0 -77 34.5 -118t99.5 -41q108 0 174.5 122.5t66.5 322.5q0 221 -80 427h248q73 -190 73 -436zM852 1220l144 314h275l-221 -314h-198z" />
    <glyph glyph-name="uni0400" unicode="&#x400;" horiz-adv-x="1168" 
d="M1046 223l-46 -223h-935l307 1443h935l-47 -223h-673l-84 -383h637l-44 -210h-636l-88 -404h674zM752 1558l-201 300h229l161 -300h-189z" />
    <glyph glyph-name="Iocyrillic" unicode="&#x401;" horiz-adv-x="1168" 
d="M1046 223l-46 -223h-935l307 1443h935l-47 -223h-673l-84 -383h637l-44 -210h-636l-88 -404h674zM693 1597q-51 0 -86.5 35.5t-35.5 85.5t35.5 85.5t86.5 35.5q52 0 87.5 -35.5t35.5 -85.5t-35.5 -85.5t-87.5 -35.5zM1080 1597q-51 0 -86.5 35.5t-35.5 85.5t35.5 85.5
t86.5 35.5t86.5 -35.5t35.5 -85.5t-35.5 -85.5t-86.5 -35.5z" />
    <glyph glyph-name="Djecyrillic" unicode="&#x402;" horiz-adv-x="1709" 
d="M426 0l260 1220h-436l46 223h1134l-46 -223h-437l-95 -442h14q59 59 147.5 94t186.5 35q209 0 326.5 -115.5t117.5 -308.5q0 -236 -154.5 -385.5t-407.5 -149.5q-133 0 -174 18l45 214q35 -14 129 -14q129 0 212.5 78.5t83.5 200.5q0 110 -64 171.5t-179 61.5
q-97 0 -192.5 -50t-148.5 -127l-107 -501h-261z" />
    <glyph glyph-name="Gjecyrillic" unicode="&#x403;" horiz-adv-x="1107" 
d="M325 0h-260l307 1443h911l-47 -223h-650zM941 1558h-213l287 300h254z" />
    <glyph glyph-name="Ecyrillic" unicode="&#x404;" horiz-adv-x="1447" 
d="M1391 451q-64 -225 -240 -356t-417 -131q-301 0 -453 206t-95 568q29 218 128.5 385t263 261.5t369.5 94.5q150 0 275 -61t200.5 -173t77.5 -253v-21h-256q-7 127 -94.5 202t-222.5 75q-164 0 -289.5 -111.5t-175.5 -296.5h602l-44 -213h-589q-18 -202 71 -317.5
t259 -115.5q131 0 229.5 71t144.5 186h256z" />
    <glyph glyph-name="Dzecyrillic" unicode="&#x405;" horiz-adv-x="1287" 
d="M93 424h251q13 -103 103 -167.5t229 -64.5q127 0 207 54t80 148q0 77 -51 123.5t-175 84.5l-113 35q-183 57 -271.5 151.5t-88.5 239.5q0 196 148.5 317.5t383.5 121.5q241 0 388.5 -116t148.5 -316h-246q-5 97 -82 156.5t-207 59.5q-127 0 -199 -57t-72 -138
q0 -70 52.5 -116.5t169.5 -82.5l116 -36q187 -57 275.5 -148.5t88.5 -233.5q0 -96 -38 -180t-107.5 -147t-176 -99.5t-235.5 -36.5q-165 0 -294 52.5t-205.5 155t-79.5 240.5z" />
    <glyph glyph-name="Icyrillic" unicode="&#x406;" horiz-adv-x="530" 
d="M326 0h-261l307 1443h261z" />
    <glyph glyph-name="Yicyrillic" unicode="&#x407;" horiz-adv-x="530" 
d="M326 0h-261l307 1443h261zM365 1597q-51 0 -86.5 35.5t-35.5 85.5t35.5 85.5t86.5 35.5q52 0 87.5 -35.5t35.5 -85.5t-35.5 -85.5t-87.5 -35.5zM752 1597q-51 0 -86.5 35.5t-35.5 85.5t35.5 85.5t86.5 35.5t86.5 -35.5t35.5 -85.5t-35.5 -85.5t-86.5 -35.5z" />
    <glyph glyph-name="Jecyrillic" unicode="&#x408;" horiz-adv-x="1110" 
d="M61 366q0 6 0.5 20.5t0.5 19.5h253v-8q0 -86 52.5 -136t142.5 -50q180 0 229 230l213 1001h261l-222 -1044q-43 -205 -169 -314t-325 -109q-192 0 -314 109.5t-122 280.5z" />
    <glyph glyph-name="Ljecyrillic" unicode="&#x409;" horiz-adv-x="2138" 
d="M559 561q-39 -145 -81.5 -244t-104 -176.5t-146.5 -114.5t-198 -37q-58 0 -92 12l48 231q30 -7 61 -7q103 0 166 90.5t109 261.5l231 866h948l-103 -480h233q219 0 350 -114.5t131 -311.5q0 -109 -43 -207t-118.5 -171t-186.5 -116t-241 -43h-589l261 1220h-455z
M1577 747h-224l-115 -533h272q145 0 242 84.5t97 209.5q0 118 -73 178.5t-199 60.5z" />
    <glyph glyph-name="Njecyrillic" unicode="&#x40a;" horiz-adv-x="2141" 
d="M957 0l135 633h-628l-136 -633h-259l307 1443h260l-127 -590h629l126 590h261l-127 -591h256q209 0 334 -101t125 -271q0 -131 -68 -239.5t-198.5 -174.5t-300.5 -66h-589zM1262 214h275q142 0 227.5 67t85.5 172q0 92 -66 139.5t-179 47.5h-251z" />
    <glyph glyph-name="Tshecyrillic" unicode="&#x40b;" horiz-adv-x="1714" 
d="M1136 678q-101 0 -193 -50t-149 -127l-107 -501h-261l260 1220h-436l46 223h1134l-46 -223h-437l-95 -441h13q156 128 349 128q234 0 341.5 -143.5t55.5 -386.5l-81 -377h-260l81 381q30 140 -26 218.5t-189 78.5z" />
    <glyph glyph-name="Kjecyrillic" unicode="&#x40c;" horiz-adv-x="1336" 
d="M1334 1858l-328 -300h-213l287 300h254zM1525 1443l-796 -723l513 -720h-300l-467 645h-11l-138 -645h-261l307 1443h261l-135 -635h10l698 635h319z" />
    <glyph glyph-name="uni040D" unicode="&#x40d;" horiz-adv-x="1490" 
d="M1030 0l220 1022h-18l-914 -1022h-253l307 1443h256l-221 -1025h18l915 1025h252l-307 -1443h-255zM902 1558l-201 300h229l161 -300h-189z" />
    <glyph glyph-name="Ushortcyrillic" unicode="&#x40e;" horiz-adv-x="1313" 
d="M258 -12q-78 0 -102 14l46 221q32 -9 82 -9q143 0 239 119l-245 1110h270l158 -838h17l506 838h285l-679 -1057q-66 -103 -122.5 -171t-125.5 -122.5t-149.5 -79.5t-179.5 -25zM610 1853h179q-16 -75 23.5 -120t116.5 -45q79 0 137.5 44.5t75.5 120.5h179
q-30 -143 -136 -224.5t-266 -81.5q-165 0 -251 82t-58 224z" />
    <glyph glyph-name="Dzhecyrillic" unicode="&#x40f;" horiz-adv-x="1469" 
d="M1265 0h-460l-61 -285h-224l61 285h-516l307 1443h258l-260 -1219h682l260 1219h260z" />
    <glyph glyph-name="Acyrillic" unicode="&#x410;" horiz-adv-x="1366" 
d="M872 1177l-330 -604h410l-75 604h-5zM1016 0l-45 369h-534l-204 -369h-277l822 1443h293l200 -1443h-255z" />
    <glyph glyph-name="Becyrillic" unicode="&#x411;" horiz-adv-x="1284" 
d="M654 0h-589l307 1443h925l-47 -223h-663l-72 -329h247q220 0 350.5 -103.5t130.5 -282.5q0 -103 -42.5 -195t-118 -160.5t-187 -109t-241.5 -40.5zM370 214h273q144 0 241 75.5t97 186.5q0 102 -71 154t-195 52h-243z" />
    <glyph glyph-name="Vecyrillic" unicode="&#x412;" horiz-adv-x="1338" 
d="M726 0h-661l307 1443h562q185 0 295.5 -86.5t110.5 -227.5q0 -137 -90 -238.5t-232 -135.5l-1 -6q117 -21 185.5 -100.5t68.5 -189.5q0 -202 -152 -330.5t-393 -128.5zM588 1248l-86 -404h259q141 0 229 65.5t88 168.5q0 83 -61 126.5t-178 43.5h-251zM365 205h322
q142 0 231 71t89 182q0 95 -65.5 144t-193.5 49h-287z" />
    <glyph glyph-name="Gecyrillic" unicode="&#x413;" horiz-adv-x="1107" 
d="M325 0h-260l307 1443h911l-47 -223h-650z" />
    <glyph glyph-name="Decyrillic" unicode="&#x414;" horiz-adv-x="1491" 
d="M543 583q-36 -130 -73.5 -210t-94.5 -134l-3 -16h629l214 997h-493zM165 0l-61 -285h-234l107 508h103q83 47 134 135.5t93 241.5l232 843h983l-261 -1220h180l-107 -508h-235l61 285h-995z" />
    <glyph glyph-name="Iecyrillic" unicode="&#x415;" horiz-adv-x="1168" 
d="M1046 223l-46 -223h-935l307 1443h935l-47 -223h-673l-84 -383h637l-44 -210h-636l-88 -404h674z" />
    <glyph glyph-name="Zhecyrillic" unicode="&#x416;" horiz-adv-x="2050" 
d="M972 647l-694 -647h-323l807 761l-425 682h274l394 -635h12l136 635h254l-136 -636h12l666 636h297l-756 -729l456 -714h-278l-417 645h-12l-139 -645h-254l138 647h-12z" />
    <glyph glyph-name="Zecyrillic" unicode="&#x417;" horiz-adv-x="1240" 
d="M471 637l42 208h194q138 0 222 59t84 156q0 87 -68.5 141t-178.5 54q-106 0 -184 -55t-93 -141h-240q24 182 173.5 295t365.5 113q208 0 342.5 -105.5t134.5 -269.5q0 -135 -95.5 -236.5t-241.5 -120.5l-1 -5q119 -29 185.5 -110t66.5 -196q0 -195 -161.5 -321.5
t-409.5 -126.5q-165 0 -291 57.5t-189 160t-49 230.5h242q-2 -105 79.5 -169.5t217.5 -64.5q132 0 218.5 67t86.5 170q0 99 -72 154.5t-200 55.5h-180z" />
    <glyph glyph-name="Iicyrillic" unicode="&#x418;" horiz-adv-x="1490" 
d="M1030 0l220 1022h-18l-914 -1022h-253l307 1443h256l-221 -1025h18l915 1025h252l-307 -1443h-255z" />
    <glyph glyph-name="Iishortcyrillic" unicode="&#x419;" horiz-adv-x="1490" 
d="M1030 0l220 1022h-18l-914 -1022h-253l307 1443h256l-221 -1025h18l915 1025h252l-307 -1443h-255zM708 1853h179q-16 -75 23.5 -120t116.5 -45q79 0 137.5 44.5t75.5 120.5h179q-30 -143 -136 -224.5t-266 -81.5q-165 0 -251 82t-58 224z" />
    <glyph glyph-name="Kacyrillic" unicode="&#x41a;" horiz-adv-x="1336" 
d="M1525 1443l-796 -723l513 -720h-300l-467 645h-11l-138 -645h-261l307 1443h261l-135 -635h10l698 635h319z" />
    <glyph glyph-name="Elcyrillic" unicode="&#x41b;" horiz-adv-x="1404" 
d="M1200 0h-260l260 1220h-461l-180 -659q-31 -114 -63 -198t-77 -157.5t-99.5 -119.5t-127.5 -71.5t-163 -25.5q-58 0 -92 12l48 231q30 -7 61 -7q102 0 165.5 90.5t109.5 261.5l231 866h955z" />
    <glyph glyph-name="Emcyrillic" unicode="&#x41c;" horiz-adv-x="1762" 
d="M300 0h-234l306 1443h293l203 -1107h6l669 1107h321l-307 -1443h-235l225 1048h-8l-637 -1041h-182l-190 1041h-7z" />
    <glyph glyph-name="Encyrillic" unicode="&#x41d;" horiz-adv-x="1489" 
d="M1285 0h-264l134 624h-693l-133 -624h-264l307 1443h264l-128 -598h692l128 598h264z" />
    <glyph glyph-name="Ocyrillic" unicode="&#x41e;" horiz-adv-x="1550" 
d="M929 1241q-142 0 -257.5 -84.5t-179 -228t-63.5 -315.5q0 -188 97.5 -299.5t261.5 -111.5q142 0 257.5 84.5t179.5 228t64 315.5q0 188 -98 299.5t-262 111.5zM784 -24q-281 0 -449.5 172.5t-168.5 451.5q0 243 99.5 441.5t275 312t391.5 113.5q283 0 451.5 -172.5
t168.5 -451.5q0 -182 -59 -343t-160.5 -276t-244 -181.5t-304.5 -66.5z" />
    <glyph glyph-name="Pecyrillic" unicode="&#x41f;" horiz-adv-x="1469" 
d="M1265 0h-258l260 1219h-682l-260 -1219h-260l307 1443h1200z" />
    <glyph glyph-name="Ercyrillic" unicode="&#x420;" horiz-adv-x="1276" 
d="M372 1443h520q201 0 326.5 -112.5t125.5 -298.5q0 -256 -170.5 -407.5t-442.5 -151.5h-303l-101 -473h-261zM588 1227l-116 -540h252q163 0 259.5 86.5t96.5 235.5q0 105 -68 161.5t-188 56.5h-236z" />
    <glyph glyph-name="Escyrillic" unicode="&#x421;" horiz-adv-x="1456" 
d="M1253 937q0 2 -0.5 11.5t-0.5 18.5q-10 124 -101 198.5t-227 74.5q-144 0 -256.5 -81t-174.5 -225t-62 -325q0 -188 95 -296.5t259 -108.5q132 0 233 70t146 192h254q-52 -222 -228 -356t-416 -134q-278 0 -443 168t-165 452q0 188 57 349.5t158 276.5t245 180t313 65
q244 0 402 -135t168 -355q0 -29 -1 -40h-255z" />
    <glyph glyph-name="Tecyrillic" unicode="&#x422;" horiz-adv-x="1251" 
d="M687 0h-261l260 1220h-443l46 223h1147l-46 -223h-443z" />
    <glyph glyph-name="Ucyrillic" unicode="&#x423;" horiz-adv-x="1313" 
d="M258 -12q-78 0 -102 14l46 221q32 -9 82 -9q143 0 239 119l-245 1110h270l158 -838h17l506 838h285l-679 -1057q-66 -103 -122.5 -171t-125.5 -122.5t-149.5 -79.5t-179.5 -25z" />
    <glyph glyph-name="Efcyrillic" unicode="&#x424;" horiz-adv-x="1725" 
d="M914 -27h-255l33 153q-250 10 -395 146t-145 359q0 195 100 350.5t281 245t413 96.5l31 147h255l-31 -147q250 -10 395 -146t145 -360q0 -194 -100 -349t-281 -245t-413 -97zM415 640q0 -133 85.5 -211t237.5 -85l164 761q-211 -10 -349 -141t-138 -324zM1478 806
q0 135 -85.5 214t-237.5 85l-164 -761q212 10 349.5 140.5t137.5 321.5z" />
    <glyph glyph-name="Xacyrillic" unicode="&#x425;" horiz-adv-x="1369" 
d="M-29 0l638 732l-323 711h284l233 -522h8l441 522h314l-639 -730l324 -713h-285l-234 525h-8l-443 -525h-310z" />
    <glyph glyph-name="Tsecyrillic" unicode="&#x426;" horiz-adv-x="1569" 
d="M1388 -285h-234l61 285h-1146l308 1443h260l-260 -1219h677l260 1219h262l-261 -1220h180z" />
    <glyph glyph-name="Checyrillic" unicode="&#x427;" horiz-adv-x="1389" 
d="M1185 0h-260l130 611h-13q-151 -102 -363 -102q-163 0 -272.5 73.5t-148.5 201t-5 289.5l79 370h260l-79 -373q-33 -150 29 -239.5t218 -89.5q109 0 200 31t145 79l127 592h260z" />
    <glyph glyph-name="Shacyrillic" unicode="&#x428;" horiz-adv-x="1947" 
d="M65 0l307 1443h261l-262 -1220h448l262 1220h260l-261 -1220h448l261 1220h260l-307 -1443h-1677z" />
    <glyph glyph-name="Shchacyrillic" unicode="&#x429;" horiz-adv-x="2019" 
d="M1861 -285h-234l61 285h-1623l307 1443h261l-262 -1220h448l262 1220h260l-261 -1220h448l261 1220h260l-261 -1220h180z" />
    <glyph glyph-name="Hardsigncyrillic" unicode="&#x42a;" horiz-adv-x="1492" 
d="M878 0h-588l261 1220h-333l46 223h593l-106 -493h233q220 0 350.5 -113t130.5 -310q0 -156 -76 -276.5t-209 -185.5t-302 -65zM931 734h-224l-113 -520h273q145 0 240.5 82.5t95.5 211.5q0 111 -73 168.5t-199 57.5z" />
    <glyph glyph-name="Yericyrillic" unicode="&#x42b;" horiz-adv-x="1788" 
d="M706 734h-223l-113 -520h273q145 0 240 82.5t95 211.5q0 111 -72.5 168.5t-199.5 57.5zM65 0l307 1443h261l-106 -493h233q220 0 350.5 -113t130.5 -310q0 -235 -165.5 -381t-421.5 -146h-589zM1589 0h-261l307 1443h261z" />
    <glyph glyph-name="Softsigncyrillic" unicode="&#x42c;" horiz-adv-x="1268" 
d="M706 734h-223l-113 -520h273q145 0 240 82.5t95 211.5q0 111 -72.5 168.5t-199.5 57.5zM65 0l307 1443h261l-106 -493h233q220 0 350.5 -113t130.5 -310q0 -235 -165.5 -381t-421.5 -146h-589z" />
    <glyph glyph-name="Ereversedcyrillic" unicode="&#x42d;" horiz-adv-x="1431" 
d="M680 -24q-234 0 -390 135t-165 345h257q20 -117 104.5 -183t213.5 -66q167 0 286 111.5t166 310.5h-592l44 208h575q5 185 -82.5 292t-243.5 107q-124 0 -223.5 -71.5t-152.5 -198.5h-255q61 235 235.5 368t419.5 133q295 0 444.5 -209.5t99.5 -551.5
q-44 -337 -242.5 -533.5t-498.5 -196.5z" />
    <glyph glyph-name="IUcyrillic" unicode="&#x42e;" horiz-adv-x="2076" 
d="M1321 202q141 0 254.5 84.5t176.5 228t63 315.5q0 188 -96 299.5t-258 111.5q-140 0 -254 -84.5t-176.5 -228t-62.5 -315.5q0 -188 96 -299.5t257 -111.5zM505 846h231q67 278 265 449.5t464 171.5q280 0 446.5 -172.5t166.5 -451.5q0 -182 -58.5 -343t-159 -276
t-242 -181.5t-301.5 -66.5q-278 0 -443.5 172.5t-165.5 451.5v23h-250l-133 -623h-260l307 1443h261z" />
    <glyph glyph-name="IAcyrillic" unicode="&#x42f;" horiz-adv-x="1326" 
d="M781 723h236l109 503h-278q-147 0 -243 -78t-96 -195q0 -113 73 -171.5t199 -58.5zM766 517l-468 -517h-315l508 563q-115 46 -181 143.5t-66 228.5q0 103 42.5 195.5t118 162t187 110t241.5 40.5h596l-307 -1443h-261l111 517h-206z" />
    <glyph glyph-name="acyrillic" unicode="&#x430;" horiz-adv-x="1070" 
d="M473 173q97 0 172.5 55.5t94.5 142.5l23 101l-248 -12q-101 -4 -158.5 -44.5t-57.5 -107.5q0 -61 48 -98t126 -37zM383 -17q-137 0 -231 83t-94 209q0 159 119 250t331 100l289 12l14 64q4 17 4 44q0 65 -48.5 102.5t-135.5 37.5q-88 0 -143.5 -37.5t-70.5 -102.5h-238
q26 153 153.5 246t317.5 93q182 0 294.5 -86.5t112.5 -224.5q0 -51 -8 -88l-145 -685h-236l27 128h-4q-51 -67 -131.5 -106t-176.5 -39z" />
    <glyph glyph-name="becyrillic" unicode="&#x431;" horiz-adv-x="1170" 
d="M746 1043q182 0 290.5 -121.5t106.5 -319.5q-3 -282 -156.5 -452t-407.5 -170q-217 0 -342.5 147.5t-122.5 399.5q3 186 56 352q86 270 244 400.5t419 146.5q5 0 39 2t66 4l31 1q206 12 294 49l-46 -212q-73 -36 -278 -47l-31 -1q-32 -2 -66.5 -4t-41.5 -2
q-164 -8 -263.5 -93.5t-158.5 -267.5h16q70 96 155.5 142t196.5 46zM594 185q123 0 211 111.5t90 267.5q1 132 -57.5 206.5t-164.5 74.5q-139 0 -226.5 -108.5t-89.5 -279.5q-1 -121 64.5 -196.5t172.5 -75.5z" />
    <glyph glyph-name="vecyrillic" unicode="&#x432;" horiz-adv-x="1078" 
d="M38 0l225 1062h472q150 0 234.5 -64t84.5 -178q0 -94 -67 -164.5t-173 -87.5l-3 -15q91 -11 144.5 -65.5t53.5 -137.5q0 -158 -124 -254t-327 -96h-520zM582 467h-201l-63 -293h223q98 0 156 46t58 121q0 64 -42 95t-131 31zM665 891h-194l-56 -262h186q92 0 148 42.5
t56 112.5q0 107 -140 107z" />
    <glyph glyph-name="gecyrillic" unicode="&#x433;" horiz-adv-x="877" 
d="M935 868h-459l-186 -868h-246l226 1062h705z" />
    <glyph glyph-name="decyrillic" unicode="&#x434;" horiz-adv-x="1228" 
d="M785 195l145 673h-352q-1 -3 -60 -210l-47 -163q-54 -190 -138 -283l-3 -17h455zM1213 1062l-184 -867h162l-100 -472h-224l59 277h-762l-60 -277h-223l100 472h84q55 31 104.5 113t81.5 200q-1 -3 38.5 137l79 280t39.5 137h805z" />
    <glyph glyph-name="iecyrillic" unicode="&#x435;" horiz-adv-x="1127" 
d="M370 640h499q1 8 1 30q0 93 -56 156t-162 63q-104 0 -178.5 -69t-103.5 -180zM567 -22q-217 0 -337.5 129t-120.5 345q0 176 69 320t195.5 228t285.5 84q204 0 325 -122.5t121 -329.5q0 -93 -12 -158h-750q-1 -11 -1 -34q0 -121 63 -193t169 -72q91 0 156 42.5t95 116.5
h233q-42 -157 -176 -256.5t-315 -99.5z" />
    <glyph glyph-name="zhecyrillic" unicode="&#x436;" horiz-adv-x="1583" 
d="M1727 1062l-529 -515l318 -547h-263l-286 476h-11l-101 -476h-243l102 476h-10l-474 -476h-302l570 583l-291 479h261l266 -443h9l94 443h243l-95 -443h10l451 443h281z" />
    <glyph glyph-name="zecyrillic" unicode="&#x437;" horiz-adv-x="1045" 
d="M969 332q-2 -153 -134.5 -252.5t-336.5 -99.5q-191 0 -308.5 103t-118.5 268h233q2 -73 60 -121.5t146 -48.5q92 0 152.5 45.5t60.5 112.5q1 56 -42.5 86t-125.5 30h-146l36 172h144q79 0 130.5 37t52.5 95q2 54 -44.5 89t-122.5 35q-86 0 -144.5 -44t-75.5 -118h-233
q32 170 157.5 265.5t317.5 95.5q174 0 284 -80t109 -203q-2 -87 -60.5 -156t-145.5 -85l-2 -9q75 -23 116.5 -80t40.5 -137z" />
    <glyph glyph-name="iicyrillic" unicode="&#x438;" horiz-adv-x="1176" 
d="M282 0h-244l225 1062h243l-150 -698h12l614 698h243l-226 -1062h-243l151 705h-12z" />
    <glyph glyph-name="iishortcyrillic" unicode="&#x439;" horiz-adv-x="1176" 
d="M282 0h-244l225 1062h243l-150 -698h12l614 698h243l-226 -1062h-243l151 705h-12zM495 1553h175q-16 -82 20 -137.5t116 -55.5q82 0 140.5 55t77.5 138h179q-29 -151 -139.5 -243t-280.5 -92q-156 0 -236.5 94.5t-51.5 240.5z" />
    <glyph glyph-name="kacyrillic" unicode="&#x43a;" horiz-adv-x="1046" 
d="M1180 1062l-550 -515l341 -547h-282l-297 474h-7l-101 -474h-246l225 1062h246l-94 -441h7l464 441h294z" />
    <glyph glyph-name="elcyrillic" unicode="&#x43b;" horiz-adv-x="1119" 
d="M467 487q-77 -278 -175.5 -388t-270.5 -110q-52 0 -86 12l45 216q22 -7 57 -7q66 0 117 71t93 222q2 6 40.5 145t76.5 276t38 138h761l-225 -1062h-243l185 868h-305q-1 -5 -53.5 -190t-54.5 -191z" />
    <glyph glyph-name="emcyrillic" unicode="&#x43c;" horiz-adv-x="1474" 
d="M274 0h-236l225 1062h311l151 -727h10l475 727h313l-226 -1062h-235l152 717h-12l-443 -667h-168l-153 667h-12z" />
    <glyph glyph-name="encyrillic" unicode="&#x43d;" horiz-adv-x="1156" 
d="M38 0l225 1062h247l-89 -418h447l90 418h246l-225 -1062h-246l95 450h-447l-96 -450h-247z" />
    <glyph glyph-name="ocyrillic" unicode="&#x43e;" horiz-adv-x="1171" 
d="M581 184q137 0 228 121t91 300q0 124 -61 198.5t-164 74.5q-138 0 -228.5 -120t-90.5 -301q0 -124 61 -198.5t164 -74.5zM682 1084q211 0 339 -129.5t128 -342.5q0 -133 -43.5 -251t-119.5 -202t-182.5 -132.5t-228.5 -48.5q-211 0 -339 130t-128 343q0 133 43.5 250.5
t119.5 201.5t182.5 132.5t228.5 48.5z" />
    <glyph glyph-name="pecyrillic" unicode="&#x43f;" horiz-adv-x="1147" 
d="M723 0l186 868h-440l-185 -868h-246l225 1062h932l-225 -1062h-247z" />
    <glyph glyph-name="ercyrillic" unicode="&#x440;" horiz-adv-x="1204" 
d="M622 192q134 0 224 119.5t90 298.5q0 124 -59 194.5t-162 70.5q-94 0 -169 -60t-115 -157t-40 -211t63.5 -184.5t167.5 -70.5zM206 -350h-242l299 1412h240l-35 -163h4q54 84 143 132.5t190 48.5q175 0 276.5 -118.5t101.5 -320.5q0 -187 -68.5 -337.5t-189 -235.5
t-269.5 -85q-119 0 -207 60.5t-119 160.5h-6z" />
    <glyph glyph-name="escyrillic" unicode="&#x441;" horiz-adv-x="1095" 
d="M671 1084q201 0 320.5 -110t119.5 -269v-24h-236q-2 84 -59 138.5t-153 54.5q-136 0 -222 -118.5t-86 -305.5q0 -121 59 -191.5t157 -70.5q89 0 153.5 48.5t92.5 132.5h236q-33 -171 -169 -281t-320 -110q-214 0 -335 126.5t-121 335.5q0 283 156 463.5t407 180.5z" />
    <glyph glyph-name="tecyrillic" unicode="&#x442;" horiz-adv-x="925" 
d="M1063 1062l-40 -194h-321l-185 -868h-247l186 868h-321l40 194h888z" />
    <glyph glyph-name="ucyrillic" unicode="&#x443;" horiz-adv-x="1059" 
d="M98 -388q-26 0 -71.5 3.5t-56.5 7.5l38 201q25 -10 98 -10q136 0 196 145q0 1 11.5 26t11.5 26l-151 1051h246l85 -834h5l421 834h265l-624 -1130q-96 -178 -206 -249t-268 -71z" />
    <glyph glyph-name="efcyrillic" unicode="&#x444;" horiz-adv-x="1542" 
d="M748 -348h-242l71 333q-213 8 -341 132t-128 323q0 188 87.5 333.5t247 226.5t367.5 84l70 325h242l-70 -328q212 -8 340.5 -132t128.5 -322q0 -286 -193.5 -463.5t-509.5 -181.5zM1270 603q0 128 -69.5 203t-191.5 79l-151 -706q182 7 297 125.5t115 298.5zM359 463
q0 -128 69 -203t191 -79l151 707q-181 -7 -296 -126t-115 -299z" />
    <glyph glyph-name="hacyrillic" unicode="&#x445;" horiz-adv-x="1053" 
d="M539 367h-6l-290 -367h-277l455 541l-230 521h260l150 -366h5l290 366h278l-455 -541l229 -521h-259z" />
    <glyph glyph-name="tsecyrillic" unicode="&#x446;" horiz-adv-x="1210" 
d="M1073 -277h-223l59 277h-871l225 1062h246l-185 -867h440l185 867h246l-185 -867h162z" />
    <glyph glyph-name="checyrillic" unicode="&#x447;" horiz-adv-x="1106" 
d="M929 0h-246l94 448h-13q-113 -98 -275 -98q-175 0 -256 116.5t-41 309.5l60 286h246l-61 -287q-23 -105 16 -160t136 -55q64 0 126 24.5t105 67.5l89 410h246z" />
    <glyph glyph-name="shacyrillic" unicode="&#x448;" horiz-adv-x="1614" 
d="M38 0l225 1062h247l-185 -867h331l184 867h246l-185 -867h331l185 867h246l-226 -1062h-1399z" />
    <glyph glyph-name="shchacyrillic" unicode="&#x449;" horiz-adv-x="1678" 
d="M1541 -277h-224l59 277h-1338l225 1062h247l-185 -867h331l184 867h246l-185 -867h331l185 867h246l-185 -867h162z" />
    <glyph glyph-name="hardsigncyrillic" unicode="&#x44a;" horiz-adv-x="1184" 
d="M657 0h-448l184 868h-275l40 194h522l-67 -317h188q161 0 256 -83.5t95 -218.5q0 -193 -138.5 -318t-356.5 -125zM746 553h-173l-77 -358h174q104 0 169.5 64t65.5 156q0 64 -42 101t-117 37z" />
    <glyph glyph-name="yericyrillic" unicode="&#x44b;" horiz-adv-x="1457" 
d="M1025 0l226 1062h246l-225 -1062h-247zM573 553h-171l-77 -358h170q104 0 170.5 64t66.5 156q0 63 -42.5 100.5t-116.5 37.5zM38 0l225 1062h246l-67 -317h186q161 0 256 -83.5t95 -218.5q0 -192 -139 -317.5t-358 -125.5h-444z" />
    <glyph glyph-name="softsigncyrillic" unicode="&#x44c;" horiz-adv-x="1010" 
d="M573 553h-171l-77 -358h170q104 0 170.5 64t66.5 156q0 63 -42.5 100.5t-116.5 37.5zM38 0l225 1062h246l-67 -317h186q161 0 256 -83.5t95 -218.5q0 -192 -139 -317.5t-358 -125.5h-444z" />
    <glyph glyph-name="ereversedcyrillic" unicode="&#x44d;" horiz-adv-x="1109" 
d="M139 712q53 176 183 274t318 98q205 0 327 -122t122 -331q0 -184 -68.5 -331.5t-200.5 -234.5t-306 -87q-199 0 -310 102t-118 268h234q6 -73 60 -118.5t140 -45.5q116 0 197.5 75.5t104.5 197.5h-423l37 175h408v-2q1 115 -59.5 181.5t-167.5 66.5q-83 0 -146 -43.5
t-99 -122.5h-233z" />
    <glyph glyph-name="iucyrillic" unicode="&#x44e;" horiz-adv-x="1619" 
d="M1030 -22q-207 0 -332 124.5t-131 334.5v13h-183l-96 -450h-246l226 1063h246l-89 -418h166q54 197 199 318t343 121q212 0 338 -129t126 -343q0 -276 -159.5 -455t-407.5 -179zM1036 181q131 0 221.5 123.5t90.5 306.5q0 123 -59.5 197t-161.5 74q-132 0 -222.5 -123
t-90.5 -307q0 -122 60 -196.5t162 -74.5z" />
    <glyph glyph-name="iacyrillic" unicode="&#x44f;" horiz-adv-x="1049" 
d="M569 539h171l71 329h-177q-100 0 -162.5 -51t-62.5 -134q0 -65 43.5 -104.5t116.5 -39.5zM626 0l75 355h-122l-322 -355h-297l372 401q-81 35 -127 107.5t-46 164.5q0 175 133.5 282t350.5 107h454l-225 -1062h-246z" />
    <glyph glyph-name="uni0450" unicode="&#x450;" horiz-adv-x="1127" 
d="M370 640h499q1 8 1 30q0 93 -56 156t-162 63q-104 0 -178.5 -69t-103.5 -180zM567 -22q-217 0 -337.5 129t-120.5 345q0 176 69 320t195.5 228t285.5 84q204 0 325 -122.5t121 -329.5q0 -93 -12 -158h-750q-1 -11 -1 -34q0 -121 63 -193t169 -72q91 0 156 42.5t95 116.5
h233q-42 -157 -176 -256.5t-315 -99.5zM800 1231h-195l-187 308h231z" />
    <glyph glyph-name="iocyrillic" unicode="&#x451;" horiz-adv-x="1127" 
d="M370 640h499q1 8 1 30q0 93 -56 156t-162 63q-104 0 -178.5 -69t-103.5 -180zM567 -22q-217 0 -337.5 129t-120.5 345q0 176 69 320t195.5 228t285.5 84q204 0 325 -122.5t121 -329.5q0 -93 -12 -158h-750q-1 -11 -1 -34q0 -121 63 -193t169 -72q91 0 156 42.5t95 116.5
h233q-42 -157 -176 -256.5t-315 -99.5zM537 1229q-51 0 -86.5 35.5t-35.5 85.5t35.5 85.5t86.5 35.5q52 0 87.5 -35.5t35.5 -85.5t-35.5 -85.5t-87.5 -35.5zM924 1229q-51 0 -86.5 35.5t-35.5 85.5t35.5 85.5t86.5 35.5t86.5 -35.5t35.5 -85.5t-35.5 -85.5t-86.5 -35.5z" />
    <glyph glyph-name="djecyrillic" unicode="&#x452;" horiz-adv-x="1176" 
d="M473 899h6q56 85 147 134t197 49q145 0 239 -88t94 -222q0 -59 -14 -126l-154 -711q-35 -158 -126.5 -234t-248.5 -76q-15 0 -55 0.5t-55 0.5l45 203q3 -1 51 -1q122 2 149 126l142 651q11 52 11 90q0 82 -55.5 131.5t-146.5 49.5q-102 0 -179.5 -65.5t-100.5 -171.5
l-135 -639h-245l256 1203h-143l29 140h143l23 107h244l-23 -107h217l-30 -140h-217z" />
    <glyph glyph-name="gjecyrillic" unicode="&#x453;" horiz-adv-x="877" 
d="M935 868h-459l-186 -868h-246l226 1062h705zM765 1231h-209l283 308h244z" />
    <glyph glyph-name="ecyrillic" unicode="&#x454;" horiz-adv-x="1085" 
d="M1045 351q-41 -168 -171.5 -270.5t-310.5 -102.5q-221 0 -339.5 127t-118.5 343q0 179 70.5 324t198.5 228.5t290 83.5q203 0 317.5 -103.5t123.5 -269.5h-232q-10 75 -67 122t-149 47q-101 0 -177 -67t-106 -178h419l-36 -174h-408q-1 -6 -1 -18q0 -120 60 -189.5
t165 -69.5q84 0 148 45t92 122h232z" />
    <glyph glyph-name="dzecyrillic" unicode="&#x455;" horiz-adv-x="1024" 
d="M182 752q0 147 117 239t307 92q183 0 299.5 -93.5t119.5 -242.5h-226q-5 67 -60 110t-136 43q-84 0 -134.5 -35t-50.5 -90q0 -47 35 -76t127 -58l101 -32q146 -47 209 -113.5t63 -172.5q0 -152 -123.5 -248.5t-317.5 -96.5q-201 0 -325 96t-129 249h238q9 -72 69 -116
t156 -44q82 0 135 39t53 98q0 43 -32 68.5t-123 53.5l-93 30q-146 47 -212.5 118.5t-66.5 181.5z" />
    <glyph glyph-name="icyrillic" unicode="&#x456;" horiz-adv-x="472" 
d="M43 0l226 1062h246l-225 -1062h-247zM450 1199q-58 0 -98 40t-40 98t40 98t98 40t98.5 -40t40.5 -98t-40.5 -98t-98.5 -40z" />
    <glyph glyph-name="yicyrillic" unicode="&#x457;" horiz-adv-x="458" 
d="M270 1206q-52 0 -88.5 37t-36.5 90t36.5 90t88.5 37t88.5 -37t36.5 -90t-36.5 -90t-88.5 -37zM644 1206q-52 0 -88.5 37t-36.5 90t36.5 90t88.5 37t88.5 -37t36.5 -90t-36.5 -90t-88.5 -37zM44 0l226 1062h246l-226 -1062h-246z" />
    <glyph glyph-name="jecyrillic" unicode="&#x458;" horiz-adv-x="472" 
d="M456 1199q-58 0 -98.5 40t-40.5 98t40.5 98t98.5 40t98 -40t40 -98t-40 -98t-98 -40zM515 1062l-242 -1135q-32 -149 -128.5 -224.5t-250.5 -76.5q-58 0 -109 8l43 196q32 -5 57 -5q64 0 98.5 30.5t49.5 100.5l237 1106h245z" />
    </font>
</defs>
</svg>
