<?xml version="1.0" standalone="no"?>
<!DOCTYPE svg PUBLIC "-//W3C//DTD SVG 1.1//EN" "http://www.w3.org/Graphics/SVG/1.1/DTD/svg11.dtd" >
<svg xmlns="http://www.w3.org/2000/svg" xmlns:xlink="http://www.w3.org/1999/xlink" version="1.1">
<metadata>
Created by FontForge 20201107 at Wed May 31 05:50:51 2017
 By 
(c) 2015-2017 Apple Inc. All rights reserved.
</metadata>
<defs>
<font id="SFProDisplay-UltralightItalic" horiz-adv-x="0" >
  <font-face 
    font-family="SF Pro Display"
    font-weight="100"
    font-style="italic"
    font-stretch="normal"
    units-per-em="2048"
    panose-1="0 0 2 0 0 0 0 0 0 0"
    ascent="1638"
    descent="-410"
    x-height="1040"
    cap-height="1443"
    bbox="-507 -494 2689 2083"
    underline-thickness="44"
    underline-position="-369"
    slope="-12"
    unicode-range="U+0020-FB02"
  />
<missing-glyph horiz-adv-x="2048" 
d="M-56 -494l76 355h1847l-75 -355h-1848zM33 -76l75 354h1848l-75 -354h-1848zM122 342l75 354h1848l-75 -354h-1848zM211 760l75 354h1848l-76 -354h-1847zM300 1178l75 354h1848l-76 -354h-1847zM388 1595l76 355h1847l-75 -355h-1848z" />
    <glyph glyph-name=".notdef" horiz-adv-x="2048" 
d="M-56 -494l76 355h1847l-75 -355h-1848zM33 -76l75 354h1848l-75 -354h-1848zM122 342l75 354h1848l-75 -354h-1848zM211 760l75 354h1848l-76 -354h-1847zM300 1178l75 354h1848l-76 -354h-1847zM388 1595l76 355h1847l-75 -355h-1848z" />
    <glyph glyph-name=".null" 
 />
    <glyph glyph-name="nonmarkingreturn" 
 />
    <glyph glyph-name="space" unicode=" " horiz-adv-x="453" 
 />
    <glyph glyph-name="exclam" unicode="!" horiz-adv-x="500" 
d="M479 1443h54l-219 -1032h-53zM215 -7q-22 0 -37.5 15.5t-15.5 36.5q0 22 15.5 37.5t37.5 15.5q21 0 36.5 -15.5t15.5 -37.5q0 -21 -15.5 -36.5t-36.5 -15.5z" />
    <glyph glyph-name="quotedbl" unicode="&#x22;" horiz-adv-x="479" 
d="M310 998h-49l95 445h49zM540 998h-50l95 445h50z" />
    <glyph glyph-name="numbersign" unicode="#" horiz-adv-x="1231" 
d="M679 0l151 450h-426l-151 -450h-48l152 450h-277l14 46h278l147 456h-284l14 45h285l150 453h48l-150 -453h425l151 453h48l-150 -453h303l-16 -45h-302l-147 -456h309l-15 -46h-309l-151 -450h-49zM420 496h426l146 456h-425z" />
    <glyph glyph-name="dollar" unicode="$" horiz-adv-x="1179" 
d="M701 771l138 646q-28 2 -44 2q-178 0 -292.5 -93.5t-114.5 -238.5q0 -103 71.5 -175.5t241.5 -140.5zM800 680l-68 28l-146 -685q15 -1 45 -1q195 0 314.5 97.5t119.5 255.5q0 106 -62.5 177.5t-202.5 127.5zM921 1596l-29 -136q161 -23 267.5 -118.5t116.5 -228.5h-50
q-12 113 -107.5 195.5t-236.5 104.5l-140 -658l83 -33q150 -60 220.5 -144t70.5 -204q0 -178 -135 -288.5t-352 -110.5q-18 0 -52 2l-33 -153h-44l33 157q-184 24 -301.5 132t-120.5 259h51q3 -133 109 -228t272 -116l148 696l-7 3q-186 74 -266.5 157.5t-80.5 201.5
q0 166 130 273t333 107q17 0 49 -2l28 132h44z" />
    <glyph glyph-name="percent" unicode="%" horiz-adv-x="1462" 
d="M219 1011q0 186 88 313.5t214 127.5q91 0 144.5 -66t53.5 -177q0 -186 -88 -313t-214 -127q-90 0 -144 66t-54 176zM419 811q102 0 176.5 117t74.5 281q0 91 -41 145.5t-109 54.5q-103 0 -177.5 -117t-74.5 -281q0 -92 40.5 -146t110.5 -54zM170 0h-59l707 735l680 708
h60l-706 -734zM948 232q0 186 88 313t214 127q91 0 144.5 -66t53.5 -177q0 -186 -88 -312.5t-214 -126.5q-91 0 -144.5 66t-53.5 176zM1148 32q103 0 177 117t74 281q0 91 -41 145.5t-109 54.5q-103 0 -177.5 -117t-74.5 -281q0 -92 40.5 -146t110.5 -54z" />
    <glyph glyph-name="ampersand" unicode="&#x26;" horiz-adv-x="1496" 
d="M537 1155q0 -62 34.5 -137t118.5 -195q425 158 425 373q0 99 -71.5 161t-188.5 62q-129 0 -223.5 -79t-94.5 -185zM577 25q125 0 246.5 49.5t225.5 142.5l-382 549l-133 -56q-331 -139 -331 -368q0 -137 106 -227t268 -90zM1200 0l-125 180q-232 -200 -498 -200
q-180 0 -302.5 101.5t-122.5 250.5q0 136 88 237.5t274 179.5l129 55q-84 118 -120 198t-36 148q0 131 108 222.5t265 91.5q134 0 220 -72.5t86 -183.5q0 -130 -107 -230.5t-346 -193.5l373 -537q85 93 148.5 208t84.5 216l19 89h49l-19 -91q-23 -113 -92.5 -236.5
t-163.5 -221.5l146 -211h-58z" />
    <glyph glyph-name="quotesingle" unicode="'" horiz-adv-x="249" 
d="M310 998h-49l95 445h49z" />
    <glyph glyph-name="parenleft" unicode="(" horiz-adv-x="582" 
d="M389 -299h-51q-102 212 -102 624q0 321 125 615t339 503h60q-218 -209 -346.5 -505t-128.5 -605q0 -188 26.5 -360t77.5 -272z" />
    <glyph glyph-name="parenright" unicode=")" horiz-adv-x="582" 
d="M335 1445h52q101 -213 101 -624q0 -322 -124.5 -615.5t-338.5 -502.5h-60q218 209 346 505t128 606q0 189 -26.5 360.5t-77.5 270.5z" />
    <glyph glyph-name="asterisk" unicode="*" horiz-adv-x="944" 
d="M922 863l-254 199l-55 -330l-45 4l60 329l-314 -138l-13 40l313 133l-255 192l26 34l255 -198l56 331l44 -4l-62 -331l315 140l14 -39l-314 -135l256 -193z" />
    <glyph glyph-name="plus" unicode="+" horiz-adv-x="1179" 
d="M680 554l-105 -497h-48l105 497h-460l9 47h461l102 475h48l-102 -475h461l-10 -47h-461z" />
    <glyph glyph-name="comma" unicode="," horiz-adv-x="489" 
d="M85 -253h-44l185 427h52z" />
    <glyph glyph-name="hyphen" unicode="-" horiz-adv-x="830" 
d="M153 539l10 46h650l-10 -46h-650z" />
    <glyph glyph-name="hyphen" unicode="&#x2011;" horiz-adv-x="830" 
d="M153 539l10 46h650l-10 -46h-650z" />
    <glyph glyph-name="period" unicode="." horiz-adv-x="509" 
d="M214 -7q-22 0 -37.5 15.5t-15.5 36.5q0 22 15.5 37.5t37.5 15.5q21 0 36.5 -15.5t15.5 -37.5q0 -21 -15.5 -36.5t-36.5 -15.5z" />
    <glyph glyph-name="slash" unicode="/" horiz-adv-x="582" 
d="M-64 -299h-50l903 1742h49z" />
    <glyph glyph-name="zero" unicode="0" horiz-adv-x="1210" 
d="M594 -20q-194 0 -308 142.5t-114 384.5q0 195 51.5 372t138.5 305t207 203.5t252 75.5q194 0 308 -142.5t114 -384.5q0 -195 -51.5 -372.5t-138 -305t-207 -203t-252.5 -75.5zM224 507q0 -220 100.5 -350.5t270.5 -130.5q120 0 230.5 72.5t190.5 195t128 290.5t48 351
q0 220 -100.5 351t-270.5 131q-120 0 -230.5 -72.5t-191 -195t-128 -291t-47.5 -351.5z" />
    <glyph glyph-name="one" unicode="1" horiz-adv-x="778" 
d="M433 0l294 1381h-4q-141 -72 -446 -247l12 60q222 129 451 249h50l-307 -1443h-50z" />
    <glyph glyph-name="two" unicode="2" horiz-adv-x="1152" 
d="M307 1073q33 173 164.5 281.5t309.5 108.5q168 0 283.5 -100t115.5 -246q0 -129 -81 -240t-335 -329l-579 -497l-1 -4h842l-10 -47h-921l9 43l630 541q243 209 319.5 311.5t76.5 218.5q0 130 -100.5 216.5t-250.5 86.5q-156 0 -273.5 -96.5t-147.5 -247.5h-51z" />
    <glyph glyph-name="three" unicode="3" horiz-adv-x="1145" 
d="M480 726l10 47h195q184 0 304 95.5t120 241.5q0 138 -96.5 222.5t-254.5 84.5q-137 0 -244 -73.5t-149 -195.5h-51q44 143 165.5 229t281.5 86q176 0 287 -96.5t111 -248.5q0 -151 -102.5 -251.5t-274.5 -119.5l-1 -4q137 -17 219.5 -107.5t82.5 -225.5q0 -188 -144 -309
t-370 -121q-127 0 -231.5 46.5t-164.5 128t-60 179.5q0 44 9 71h48q-8 -35 -8 -65q1 -134 118.5 -224t291.5 -90q202 0 331 106.5t129 272.5q0 148 -106.5 234.5t-286.5 86.5h-159z" />
    <glyph glyph-name="four" unicode="4" horiz-adv-x="1185" 
d="M787 0l80 379h-768l9 47q129 151 290.5 322.5t676.5 701.5h69l-217 -1024h236l-9 -47h-237l-81 -379h-49zM176 430l-1 -4h702l204 960h-4q-487 -501 -631.5 -655t-269.5 -301z" />
    <glyph glyph-name="five" unicode="5" horiz-adv-x="1174" 
d="M602 -20q-186 0 -317 105.5t-131 255.5v13h49v-7q1 -135 117.5 -228t285.5 -93q206 0 344.5 139.5t138.5 347.5q0 165 -107.5 266t-281.5 101q-111 0 -226.5 -58t-181.5 -147q0 -1 -55 -1l238 769h754l-10 -47h-709l-200 -644h4q66 78 175 126t217 48q189 0 311 -113.5
t122 -289.5q0 -236 -152 -389.5t-385 -153.5z" />
    <glyph glyph-name="six" unicode="6" horiz-adv-x="1187" 
d="M1158 528q0 -239 -152 -393.5t-387 -154.5q-198 0 -325.5 141.5t-126.5 365.5q0 86 12 177.5t38 187.5t63.5 184t93 166.5t122 136t154.5 91t188 33.5q174 0 290 -99t120 -253h-51q-5 136 -107 221t-257 85q-238 0 -397.5 -208.5t-209.5 -564.5h5q59 144 192 223t301 79
q189 0 312 -118t122 -300zM719 900q-131 0 -245.5 -58.5t-183 -161.5t-68.5 -224q-1 -181 113 -305.5t287 -124.5q208 0 347 140.5t139 352.5q1 168 -108.5 274.5t-280.5 106.5z" />
    <glyph glyph-name="seven" unicode="7" horiz-adv-x="1072" 
d="M189 0l989 1392l1 4h-849l10 47h907l-11 -50l-993 -1393h-54z" />
    <glyph glyph-name="eight" unicode="8" horiz-adv-x="1188" 
d="M1128 414q0 -194 -149 -314t-390 -120q-209 0 -338.5 103t-129.5 271q0 167 120 284t312 139l1 4q-104 28 -168 108t-64 181q0 169 138 281t346 112q182 0 298.5 -92.5t116.5 -237.5t-102 -248.5t-265 -124.5l-1 -4q121 -34 198 -129.5t77 -212.5zM647 745
q-204 0 -339.5 -109t-135.5 -271q0 -155 113.5 -247t305.5 -92q219 0 353 106t134 280q0 145 -121.5 239t-309.5 94zM371 1077q0 -129 104.5 -208t274.5 -79q182 0 301.5 95.5t119.5 240.5q0 130 -102 210.5t-268 80.5q-182 0 -306 -97.5t-124 -242.5z" />
    <glyph glyph-name="nine" unicode="9" horiz-adv-x="1175" 
d="M684 543q123 0 233.5 59t180.5 167t70 237q0 182 -108.5 296.5t-278.5 114.5q-211 0 -350.5 -138t-140.5 -345q0 -165 113 -278t281 -113zM240 931q1 229 155.5 380.5t390.5 151.5q190 0 313 -127.5t122 -339.5q0 -70 -8 -150t-28.5 -180.5t-52.5 -194t-86.5 -184.5
t-123 -158t-167.5 -108t-217 -41q-170 0 -283.5 98t-125.5 255h51q14 -139 113 -223t249 -84q250 0 411 204.5t207 587.5h-4q-49 -145 -180.5 -233t-298.5 -88q-185 0 -311 125t-126 309z" />
    <glyph glyph-name="colon" unicode=":" horiz-adv-x="509" 
d="M214 -7q-22 0 -37.5 15.5t-15.5 36.5q0 22 15.5 37.5t37.5 15.5q21 0 36.5 -15.5t15.5 -37.5q0 -21 -15.5 -36.5t-36.5 -15.5zM381 780q-22 0 -37.5 15.5t-15.5 37.5t15.5 37.5t37.5 15.5t37.5 -15.5t15.5 -37.5t-15.5 -37.5t-37.5 -15.5z" />
    <glyph glyph-name="semicolon" unicode=";" horiz-adv-x="509" 
d="M381 780q-22 0 -37.5 15.5t-15.5 37.5t15.5 37.5t37.5 15.5t37.5 -15.5t15.5 -37.5t-15.5 -37.5t-37.5 -15.5zM85 -253h-44l185 427h52z" />
    <glyph glyph-name="less" unicode="&#x3c;" horiz-adv-x="1179" 
d="M955 -5l-12 -57l-714 574l9 44l959 574l-12 -61l-896 -537l-1 -5z" />
    <glyph glyph-name="equal" unicode="=" horiz-adv-x="1179" 
d="M1100 368h-967l10 46h966zM1179 741h-966l9 46h966z" />
    <glyph glyph-name="greater" unicode="&#x3e;" horiz-adv-x="1179" 
d="M349 1073l11 57l715 -575l-10 -43l-958 -574l12 61l896 537l1 4z" />
    <glyph glyph-name="question" unicode="?" horiz-adv-x="908" 
d="M255 1129q37 153 148 243.5t269 90.5q157 0 254 -93t97 -232q0 -128 -75 -225t-218 -150q-106 -39 -161.5 -98t-75.5 -154l-24 -113h-50l24 117q24 111 83 175.5t176 108.5q270 103 270 334q0 124 -81.5 203.5t-222.5 79.5q-134 0 -231 -77.5t-133 -209.5h-49zM383 -7
q-21 0 -36.5 15.5t-15.5 36.5q0 22 15.5 37.5t36.5 15.5q22 0 37.5 -15.5t15.5 -37.5q0 -21 -15.5 -36.5t-37.5 -15.5z" />
    <glyph glyph-name="at" unicode="@" horiz-adv-x="1727" 
d="M1059 1431q335 0 537 -180t202 -480q0 -163 -56 -300t-153 -216.5t-212 -79.5q-88 0 -142 43t-55 113q0 18 3 36h-5q-52 -90 -134 -141t-175 -51q-132 0 -212.5 93t-80.5 244q0 132 58 248t156.5 185t209.5 69q106 0 179 -61t84 -159h5l41 193h49l-121 -567
q-10 -41 -10 -76q0 -57 41 -90.5t111 -33.5q101 0 186.5 73.5t135 200.5t49.5 277q0 282 -188.5 449t-505.5 167q-251 0 -452 -110t-314 -305.5t-113 -439.5q0 -332 208 -527t563 -195q117 0 182 17l-10 -47q-72 -15 -178 -15q-371 0 -592 208t-221 557q0 257 120 463
t332.5 322t477.5 116zM1237 691q0 131 -61 204.5t-171 73.5q-155 0 -267.5 -134.5t-112.5 -320.5q0 -134 66.5 -214t178.5 -80q98 0 182.5 64.5t134.5 173t50 233.5z" />
    <glyph glyph-name="A" unicode="A" horiz-adv-x="1201" 
d="M844 1375l-489 -828h634l-141 828h-4zM1082 0l-86 502h-668l-299 -502h-59l861 1443h51l248 -1443h-48z" />
    <glyph glyph-name="B" unicode="B" horiz-adv-x="1169" 
d="M572 0h-492l307 1443h466q169 0 264 -87t95 -228q0 -144 -104.5 -254.5t-257.5 -130.5l-1 -4q130 -16 210.5 -97.5t80.5 -215.5q0 -194 -157 -310t-411 -116zM427 1397l-134 -632h450q112 0 208 47t153.5 129t57.5 180q0 127 -82 201.5t-235 74.5h-418zM140 46h437
q228 0 370 105.5t142 271.5q0 144 -101 220t-261 76h-444z" />
    <glyph glyph-name="C" unicode="C" horiz-adv-x="1342" 
d="M1375 973v2q-3 194 -135.5 317.5t-349.5 123.5q-139 0 -263.5 -66t-213.5 -178.5t-141.5 -269.5t-52.5 -331q0 -244 141.5 -394t372.5 -150q190 0 332 96.5t204 268.5h54q-66 -194 -223.5 -303t-370.5 -109q-251 0 -405.5 161.5t-154.5 423.5q0 188 56 354.5t152 286
t230.5 188.5t286.5 69q236 0 382 -136.5t149 -351.5v-2h-50z" />
    <glyph glyph-name="D" unicode="D" horiz-adv-x="1348" 
d="M387 1443h425q275 0 425 -149t150 -406q0 -192 -61 -356t-171 -281.5t-270 -184t-351 -66.5h-453zM429 1396l-286 -1349h391q238 0 422 108.5t282.5 298t98.5 428.5q0 242 -136 378t-395 136h-377z" />
    <glyph glyph-name="E" unicode="E" horiz-adv-x="1039" 
d="M916 47l-10 -47h-826l307 1443h826l-10 -47h-776l-134 -632h740l-11 -46h-739l-142 -671h775z" />
    <glyph glyph-name="F" unicode="F" horiz-adv-x="1008" 
d="M130 0h-50l307 1443h817l-10 -47h-767l-135 -634h706l-11 -47h-705z" />
    <glyph glyph-name="G" unicode="G" horiz-adv-x="1351" 
d="M1372 691l-40 -179q-56 -255 -214.5 -393.5t-392.5 -138.5q-249 0 -402.5 162t-153.5 423q0 248 92.5 453.5t257.5 325t368 119.5q218 0 360 -119.5t164 -319.5v-1h-50q-23 181 -151 287t-326 106q-185 0 -338.5 -113.5t-240 -307t-86.5 -424.5q0 -244 140 -394t369 -150
q211 0 357.5 129.5t198.5 361.5l29 127h-504l9 46h554z" />
    <glyph glyph-name="H" unicode="H" horiz-adv-x="1310" 
d="M1128 0h-50l153 718h-948l-153 -718h-50l307 1443h50l-144 -678h948l144 678h50z" />
    <glyph glyph-name="I" unicode="I" horiz-adv-x="312" 
d="M130 0h-50l307 1443h50z" />
    <glyph glyph-name="J" unicode="J" horiz-adv-x="937" 
d="M64 295q0 12 1 22h51q-1 -5 -1 -17q0 -122 84 -198.5t221 -76.5t232.5 87.5t128.5 243.5l231 1087h50l-235 -1108q-35 -168 -145 -262.5t-268 -94.5q-156 0 -253 88.5t-97 228.5z" />
    <glyph glyph-name="K" unicode="K" horiz-adv-x="1109" 
d="M130 0h-50l307 1443h50l-176 -828h4l952 828h72l-716 -623l479 -820h-57l-459 788l-293 -253z" />
    <glyph glyph-name="L" unicode="L" horiz-adv-x="1002" 
d="M915 47l-10 -47h-825l307 1443h50l-297 -1396h775z" />
    <glyph glyph-name="M" unicode="M" horiz-adv-x="1589" 
d="M129 0h-49l307 1443h50l316 -1381h4l898 1381h59l-307 -1443h-49l283 1329h-4l-866 -1328h-52l-303 1328h-4z" />
    <glyph glyph-name="N" unicode="N" horiz-adv-x="1332" 
d="M130 0h-50l307 1443h48l679 -1362h4l289 1362h50l-307 -1443h-48l-679 1362h-4z" />
    <glyph glyph-name="O" unicode="O" horiz-adv-x="1436" 
d="M899 1416q-187 0 -342.5 -109t-245 -299t-89.5 -418q0 -257 142.5 -410t377.5 -153q187 0 342.5 109t245 299t89.5 418q0 257 -142.5 410t-377.5 153zM738 -20q-254 0 -410.5 165.5t-156.5 438.5q0 184 56.5 347.5t153.5 280t232.5 184t289.5 67.5q254 0 410 -165.5
t156 -438.5q0 -184 -56.5 -347.5t-153 -280t-232.5 -184t-289 -67.5z" />
    <glyph glyph-name="P" unicode="P" horiz-adv-x="1138" 
d="M392 1443h413q194 0 306.5 -104.5t112.5 -271.5q0 -213 -159.5 -339.5t-418.5 -126.5h-385l-131 -601h-50zM432 1396l-162 -748h381q150 0 267.5 49t186.5 144.5t69 222.5q0 147 -99.5 239.5t-275.5 92.5h-367z" />
    <glyph glyph-name="Q" unicode="Q" horiz-adv-x="1436" 
d="M1179 -182h-54l-114 222q-129 -60 -273 -60q-254 0 -410.5 165.5t-156.5 438.5q0 184 56.5 347.5t153.5 280t232.5 184t289.5 67.5q254 0 410 -165.5t156 -438.5q0 -268 -112.5 -481t-302.5 -318zM742 27q130 0 248 55l-144 278h53l133 -256q176 99 281.5 299.5
t105.5 449.5q0 257 -142.5 410t-377.5 153q-187 0 -342.5 -109t-245 -299t-89.5 -418q0 -257 142.5 -410t377.5 -153z" />
    <glyph glyph-name="R" unicode="R" horiz-adv-x="1142" 
d="M80 0l312 1443h394q207 0 320 -97.5t113 -264.5q0 -182 -117 -299.5t-320 -143.5l244 -638h-53l-242 632h-39h-425l-137 -632h-50zM432 1396l-155 -717h422q209 0 339.5 110.5t130.5 287.5q0 148 -100 233.5t-286 85.5h-351z" />
    <glyph glyph-name="S" unicode="S" horiz-adv-x="1187" 
d="M114 401h50q8 -167 140 -270.5t337 -103.5q195 0 315 96.5t120 254.5q0 106 -67 178.5t-219 132.5l-130 51q-186 74 -265.5 157t-79.5 206q0 159 128.5 259.5t331.5 100.5q201 0 335 -110t146 -285h-50q-12 153 -132 250.5t-300 97.5t-294 -87.5t-114 -224.5
q0 -107 72 -179.5t243 -139.5l133 -52q165 -64 239 -147.5t74 -206.5q0 -177 -134.5 -288t-352.5 -111q-228 0 -373.5 116.5t-152.5 304.5z" />
    <glyph glyph-name="T" unicode="T" horiz-adv-x="1143" 
d="M546 0h-50l297 1396h-521l10 47h1092l-10 -47h-521z" />
    <glyph glyph-name="U" unicode="U" horiz-adv-x="1337" 
d="M663 -20q-215 0 -347.5 117t-133.5 305q0 71 14 143l193 898h50l-193 -901q-13 -57 -13 -136q0 -170 119 -274.5t315 -104.5q208 0 349.5 115.5t185.5 318.5l211 982h50l-212 -988q-48 -226 -202 -350.5t-386 -124.5z" />
    <glyph glyph-name="V" unicode="V" horiz-adv-x="1201" 
d="M576 0h-53l-246 1443h48l234 -1371h4l816 1371h58z" />
    <glyph glyph-name="W" unicode="W" horiz-adv-x="1744" 
d="M1103 1341l-680 -1341h-48l-97 1443h49l90 -1342h4l680 1342h45l113 -1342h4l661 1342h54l-712 -1443h-46l-113 1341h-4z" />
    <glyph glyph-name="X" unicode="X" horiz-adv-x="1156" 
d="M-29 0l681 726l-369 717h56l349 -680h1l636 680h66l-679 -725l368 -718h-56l-348 681h-1l-638 -681h-66z" />
    <glyph glyph-name="Y" unicode="Y" horiz-adv-x="1145" 
d="M548 0h-51l134 632l-354 811h54l331 -758h4l651 758h63l-699 -814z" />
    <glyph glyph-name="Z" unicode="Z" horiz-adv-x="1153" 
d="M16 0l9 42l1237 1351v4h-920l10 46h989l-9 -43l-1236 -1350v-4h949l-10 -46h-1019z" />
    <glyph glyph-name="bracketleft" unicode="[" horiz-adv-x="582" 
d="M456 1443h353l-10 -45h-303l-351 -1652h303l-9 -45h-353z" />
    <glyph glyph-name="backslash" unicode="\" horiz-adv-x="582" 
d="M365 -299l-52 1742h47l51 -1742h-46z" />
    <glyph glyph-name="bracketright" unicode="]" horiz-adv-x="582" 
d="M268 -299h-353l10 45h303l352 1652h-304l10 45h352z" />
    <glyph glyph-name="asciicircum" unicode="^" horiz-adv-x="749" 
d="M609 1328l-380 -530h-58l428 596h41l176 -596h-51l-153 530h-3z" />
    <glyph glyph-name="underscore" unicode="_" horiz-adv-x="1024" 
d="M-91 -145l9 45h1044l-9 -45h-1044z" />
    <glyph glyph-name="grave" unicode="`" horiz-adv-x="811" 
d="M787 1251h-49l-184 304h55z" />
    <glyph glyph-name="a" unicode="a" horiz-adv-x="966" 
d="M413 30q152 0 272.5 94t151.5 237l42 191l-363 -21q-184 -10 -283.5 -82t-99.5 -194q0 -101 77.5 -163t202.5 -62zM407 -15q-143 0 -233.5 74t-90.5 192q0 143 112.5 227t320.5 96l371 22l20 93q10 53 10 85q0 110 -76.5 173t-212.5 63q-144 0 -242 -70t-124 -191h-51
q29 140 142.5 223.5t277.5 83.5q153 0 244.5 -76t91.5 -202q0 -43 -10 -90l-147 -688h-49l44 204l-4 1q-57 -101 -164 -160.5t-230 -59.5z" />
    <glyph glyph-name="b" unicode="b" horiz-adv-x="1090" 
d="M562 -15q-153 0 -259 95.5t-118 244.5h-5l-69 -325h-48l307 1443h50l-139 -656h4q68 125 179.5 196.5t240.5 71.5q174 0 278.5 -119.5t104.5 -320.5q0 -174 -68.5 -318.5t-189.5 -228t-268 -83.5zM564 30q131 0 240 77.5t171.5 212t62.5 295.5q0 183 -91.5 289
t-249.5 106q-129 0 -240 -82t-176.5 -221t-65.5 -299q0 -170 96 -274t253 -104z" />
    <glyph glyph-name="c" unicode="c" horiz-adv-x="1000" 
d="M648 1056q159 0 265 -91t122 -239v-1h-49q-16 128 -108.5 206.5t-229.5 78.5q-132 0 -242 -77.5t-172.5 -212.5t-62.5 -298q0 -176 99.5 -284t261.5 -108q126 0 226.5 65t148.5 175h51q-54 -134 -167 -210t-259 -76q-185 0 -298 120t-113 316q0 133 40.5 251t110.5 202.5
t167.5 133.5t208.5 49z" />
    <glyph glyph-name="d" unicode="d" horiz-adv-x="1091" 
d="M490 -15q-167 0 -272.5 116t-105.5 300q0 131 44 252t117 209t173 140.5t208 52.5q151 0 254 -93t116 -243h4l154 724h51l-307 -1443h-51l54 253h-4q-66 -123 -184.5 -195.5t-250.5 -72.5zM499 30q140 0 254.5 84t177.5 221.5t63 296.5q0 172 -93.5 275t-248.5 103
q-127 0 -240.5 -83.5t-181.5 -223.5t-68 -297q0 -169 92.5 -272.5t244.5 -103.5z" />
    <glyph glyph-name="e" unicode="e" horiz-adv-x="1017" 
d="M183 562h792q9 36 9 91q0 163 -90.5 260t-245.5 97q-174 0 -303.5 -125t-161.5 -323zM518 -16q-185 0 -294 114t-109 307q0 183 69.5 332.5t192.5 234t274 84.5q176 0 278.5 -108.5t102.5 -293.5q0 -78 -16 -137h-841q-10 -64 -10 -107q0 -175 96.5 -277.5t260.5 -102.5
q142 0 244.5 68t147.5 192h52q-48 -143 -166.5 -224.5t-281.5 -81.5z" />
    <glyph glyph-name="f" unicode="f" horiz-adv-x="521" 
d="M129 0l211 995h-163l10 45h163l33 155q24 119 93.5 180.5t173.5 61.5q58 0 104 -14l-10 -46q-43 15 -94 15q-83 0 -140 -51.5t-78 -148.5l-32 -152h250l-9 -45h-250l-212 -995h-50z" />
    <glyph glyph-name="g" unicode="g" horiz-adv-x="1084" 
d="M454 -371q-171 0 -281.5 82.5t-112.5 196.5h50q8 -98 103.5 -166t245.5 -68q156 0 264.5 84t140.5 228l60 280h-4q-61 -124 -174 -195.5t-247 -71.5q-175 0 -279.5 113.5t-104.5 304.5q0 171 72 318t196 233.5t270 86.5q154 0 253.5 -92t109.5 -242h4l70 319h51
l-228 -1059q-36 -165 -158.5 -258.5t-300.5 -93.5zM506 45q134 0 244.5 78t173.5 213.5t63 298.5q0 172 -91 273.5t-245 101.5q-130 0 -242.5 -80.5t-178.5 -216.5t-66 -293q0 -174 91.5 -274.5t250.5 -100.5z" />
    <glyph glyph-name="h" unicode="h" horiz-adv-x="1040" 
d="M63 0l310 1443h50l-133 -620h4q62 107 161.5 169.5t226.5 62.5q155 0 251 -89t96 -229q0 -49 -9 -97l-139 -640h-48l135 629q11 60 11 98q0 128 -84 205.5t-223 77.5q-155 0 -271 -105.5t-149 -259.5l-139 -645h-50z" />
    <glyph glyph-name="i" unicode="i" horiz-adv-x="286" 
d="M67 0l221 1040h50l-221 -1040h-50zM369 1259q-20 0 -34 13.5t-14 32.5q0 20 14 33.5t34 13.5q19 0 33 -13.5t14 -33.5q0 -19 -14 -32.5t-33 -13.5z" />
    <glyph glyph-name="j" unicode="j" horiz-adv-x="287" 
d="M374 1259q-20 0 -34 13.5t-14 32.5q0 20 14 33.5t34 13.5q19 0 33 -13.5t14 -33.5q0 -19 -14 -32.5t-33 -13.5zM338 1040l-245 -1157q-26 -123 -92.5 -177.5t-178.5 -54.5q-32 0 -67 3l10 45q27 -3 57 -3q93 0 147 46.5t74 145.5l246 1152h49z" />
    <glyph glyph-name="k" unicode="k" horiz-adv-x="861" 
d="M113 0h-50l307 1443h50l-202 -949h4l730 546h75l-596 -449l391 -591h-58l-374 564l-187 -142z" />
    <glyph glyph-name="l" unicode="l" horiz-adv-x="290" 
d="M70 0l307 1443h49l-307 -1443h-49z" />
    <glyph glyph-name="m" unicode="m" horiz-adv-x="1582" 
d="M63 0l221 1040h49l-44 -209h4q106 225 326 225q123 0 205 -74.5t90 -192.5h4q41 118 137.5 192.5t219.5 74.5q131 0 215 -81.5t84 -208.5q0 -67 -11 -124l-137 -642h-50l134 632q14 65 14 124q0 113 -71.5 183.5t-186.5 70.5q-131 0 -227.5 -98.5t-132.5 -269.5
l-137 -642h-49l134 632q13 60 13 124q0 113 -71.5 183.5t-187.5 70.5q-128 0 -224.5 -98t-131.5 -264l-139 -648h-50z" />
    <glyph glyph-name="n" unicode="n" horiz-adv-x="1033" 
d="M63 0l221 1040h49l-47 -222h4q63 110 164 174t229 64q152 0 247.5 -88t95.5 -223q0 -54 -11 -105l-137 -640h-50l134 629q14 68 14 107q0 123 -82.5 198.5t-221.5 75.5q-154 0 -271 -106t-150 -259l-138 -645h-50z" />
    <glyph glyph-name="o" unicode="o" horiz-adv-x="1075" 
d="M540 30q135 0 246 77t174.5 211.5t63.5 299.5q0 177 -100.5 284.5t-268.5 107.5q-135 0 -246 -77t-174.5 -211.5t-63.5 -299.5q0 -177 101 -284.5t268 -107.5zM655 1056q190 0 304.5 -119.5t114.5 -316.5q0 -180 -69.5 -325.5t-191.5 -228t-273 -82.5
q-190 0 -304.5 119.5t-114.5 316.5q0 180 69.5 325.5t192 228t272.5 82.5z" />
    <glyph glyph-name="p" unicode="p" horiz-adv-x="1086" 
d="M564 30q130 0 239 77.5t172 212t63 295.5q0 183 -91.5 289t-249.5 106q-129 0 -240 -82t-176.5 -221t-65.5 -299q0 -170 96 -274t253 -104zM41 -339h-50l293 1379h48l-53 -254h6q67 126 179 197.5t242 71.5q173 0 277.5 -120t104.5 -320q0 -131 -40.5 -248t-110.5 -201
t-168 -132.5t-208 -48.5q-153 0 -258.5 95t-117.5 244h-4z" />
    <glyph glyph-name="q" unicode="q" horiz-adv-x="1091" 
d="M499 30q136 0 250 79.5t179.5 218t65.5 304.5q0 175 -92 276.5t-252 101.5q-126 0 -239 -84t-181 -224.5t-68 -296.5q0 -166 94 -270.5t243 -104.5zM854 -339h-50l126 593h-4q-66 -123 -184.5 -196t-251.5 -73q-167 0 -272.5 117.5t-105.5 302.5q0 172 74 322.5t199 239
t269 88.5q154 0 257 -94.5t114 -245.5h3l69 325h50z" />
    <glyph glyph-name="r" unicode="r" horiz-adv-x="598" 
d="M63 0l221 1040h49l-41 -191h4q113 206 300 206q88 0 139 -29l-12 -50q-41 33 -134 33q-116 0 -210.5 -103.5t-130.5 -271.5l-135 -634h-50z" />
    <glyph glyph-name="s" unicode="s" horiz-adv-x="914" 
d="M233 780q0 120 99.5 198t255.5 78q150 0 250 -84t113 -218h-49q-14 114 -100 185.5t-218 71.5q-130 0 -215.5 -65t-85.5 -163q0 -74 50.5 -123.5t166.5 -90.5l89 -32q143 -50 203 -111t60 -158q0 -126 -103 -205t-267 -79q-166 0 -279.5 87.5t-127.5 227.5h51
q16 -121 115 -195.5t244 -74.5q140 0 228.5 67t88.5 171q0 81 -52.5 131.5t-186.5 96.5l-90 33q-124 43 -182 104t-58 148z" />
    <glyph glyph-name="t" unicode="t" horiz-adv-x="511" 
d="M368 -1q-100 0 -156 42.5t-56 121.5q0 36 11 89l158 743h-150l9 45h151l59 279h50l-59 -279h225l-10 -45h-225l-157 -742q-11 -44 -11 -76q0 -64 44 -98t125 -34q56 0 58 1l-10 -46q-1 0 -28 -0.5t-28 -0.5z" />
    <glyph glyph-name="u" unicode="u" horiz-adv-x="1034" 
d="M1091 1040l-221 -1040h-48l47 220h-3q-63 -108 -165 -172t-229 -64q-154 0 -248.5 88t-94.5 223q0 47 11 105l137 640h49l-134 -629q-13 -59 -13 -106q0 -123 82 -199t220 -76q155 0 272.5 106t150.5 259l138 645h49z" />
    <glyph glyph-name="v" unicode="v" horiz-adv-x="872" 
d="M183 1040h50l162 -992h4l583 992h57l-615 -1040h-68z" />
    <glyph glyph-name="w" unicode="w" horiz-adv-x="1380" 
d="M1546 1040l-525 -1040h-68l-94 980h-4l-511 -980h-69l-82 1040h48l76 -985h4l513 985h66l94 -985h4l493 985h55z" />
    <glyph glyph-name="x" unicode="x" horiz-adv-x="863" 
d="M497 476h-4l-454 -476h-65l497 523l-278 517h55l257 -479h4l456 479h65l-500 -525l278 -515h-56z" />
    <glyph glyph-name="y" unicode="y" horiz-adv-x="872" 
d="M64 -349q-32 0 -56 6l9 44q28 -5 50 -5q69 0 123.5 44t115.5 149l56 94l-179 1057h50l166 -991h4l579 991h56l-689 -1173q-73 -123 -136 -169.5t-149 -46.5z" />
    <glyph glyph-name="z" unicode="z" horiz-adv-x="896" 
d="M8 0l10 46l904 945l1 4h-702l9 45h771l-10 -46l-904 -945l-1 -4h702l-9 -45h-771z" />
    <glyph glyph-name="braceleft" unicode="{" horiz-adv-x="582" 
d="M258 300q12 56 12 94q0 73 -41.5 99.5t-137.5 34.5l19 88q121 0 176.5 42t81.5 164l73 334q37 171 102.5 229t211.5 58h54l-10 -45h-45q-122 0 -178 -49.5t-86 -192.5l-74 -346q-27 -126 -85.5 -173t-183.5 -59l-4 -18q91 -9 134.5 -43t43.5 -114q0 -39 -12 -95l-57 -265
q-16 -75 -16 -122q0 -91 45.5 -133t139.5 -42h25l-9 -45h-30q-221 0 -221 212q0 60 15 128z" />
    <glyph glyph-name="bar" unicode="|" horiz-adv-x="582" 
d="M201 -299h-48l371 1742h47z" />
    <glyph glyph-name="braceright" unicode="}" horiz-adv-x="582" 
d="M466 845q-12 -55 -12 -93q0 -73 42 -100t138 -35l-20 -88q-120 0 -176 -42.5t-82 -163.5l-72 -334q-37 -170 -103 -228.5t-212 -58.5h-54l10 45h45q121 0 177.5 50t87.5 192l74 346q14 66 34.5 108t54 68t75 38t104.5 18l4 18q-91 9 -134.5 43.5t-43.5 114.5q0 40 12 94
l57 265q16 75 16 123q0 90 -45.5 132t-139.5 42h-25l9 45h30q113 0 167.5 -55.5t54.5 -156.5q0 -56 -16 -128z" />
    <glyph glyph-name="asciitilde" unicode="~" horiz-adv-x="1179" 
d="M861 547q-45 0 -85 24.5t-70 59.5t-59 69.5t-63.5 59t-72.5 24.5q-73 0 -122.5 -64.5t-65.5 -165.5h-48q16 121 80 198.5t159 77.5q45 0 84.5 -24.5t69.5 -59t59 -69.5t63.5 -59.5t72.5 -24.5q73 0 120.5 63.5t63.5 165.5h48q-19 -126 -80 -200.5t-154 -74.5z" />
    <glyph glyph-name="nonbreakingspace" unicode="&#xa0;" horiz-adv-x="500" 
 />
    <glyph glyph-name="exclamdown" unicode="&#xa1;" horiz-adv-x="500" 
d="M154 -340h-55l219 1032h54zM423 1112q22 0 37.5 -15.5t15.5 -37.5q0 -21 -15.5 -36.5t-37.5 -15.5q-21 0 -36.5 15.5t-15.5 36.5q0 22 15.5 37.5t36.5 15.5z" />
    <glyph glyph-name="cent" unicode="&#xa2;" horiz-adv-x="1179" 
d="M1077 404q-39 -123 -159.5 -196.5t-284.5 -74.5l-47 -220h-50l48 223q-165 17 -262 131t-97 292q0 190 72.5 346.5t200 247t283.5 92.5l46 207h49l-45 -209q139 -9 235 -93.5t115 -210.5v-3h-49q-20 119 -114 191t-233 72q-141 0 -258 -83.5t-184.5 -229t-67.5 -319.5
q0 -178 99 -282.5t268 -104.5q134 0 240 61.5t144 162.5h51z" />
    <glyph glyph-name="sterling" unicode="&#xa3;" horiz-adv-x="1179" 
d="M1083 46l-10 -46h-1066l10 44q204 36 327.5 181t123.5 355q0 42 -7 110h-267l10 46h252q-2 28 -15.5 138.5t-13.5 161.5q0 207 125.5 322t343.5 115q200 0 355 -90l-2 -51q-160 94 -356 94q-194 0 -305.5 -106t-111.5 -280q0 -45 14 -153.5t17 -150.5h457l-9 -46h-444
q6 -57 6 -107q0 -190 -99 -337t-251 -196l-1 -4h917z" />
    <glyph glyph-name="currency" unicode="&#xa4;" horiz-adv-x="1179" 
d="M353 655q0 -88 49 -165t125 -121t155 -44q137 0 233.5 97t96.5 233q0 137 -96.5 234t-233.5 97q-136 0 -232.5 -97t-96.5 -234zM1217 1069l-232 -190q74 -99 74 -224q0 -82 -34 -155t-94 -126l107 -135l-38 -31l-107 137q-94 -66 -211 -66q-162 0 -275 121l-238 -195
l-29 36l237 196q-70 99 -70 218q0 81 33 153.5t90 124.5l-111 139l39 31l109 -140q96 68 215 68q162 0 273 -117l233 191z" />
    <glyph glyph-name="yen" unicode="&#xa5;" horiz-adv-x="1179" 
d="M1005 391h-357l-83 -391h-50l83 391h-360l9 45h360l47 220h-360l10 44h332l-343 743h55l337 -737h4l646 737h63l-656 -743h329l-9 -44h-358l-47 -220h358z" />
    <glyph glyph-name="brokenbar" unicode="&#xa6;" horiz-adv-x="582" 
d="M426 760h-47l145 683h47zM201 -299h-48l146 684h47z" />
    <glyph glyph-name="section" unicode="&#xa7;" horiz-adv-x="944" 
d="M435 379l153 -59q138 6 226.5 77.5t88.5 177.5q0 79 -54.5 134t-181.5 103l-116 43q-141 -1 -238 -77.5t-97 -178.5q0 -73 51.5 -124t167.5 -96zM409 -235q-162 0 -273 79t-122 201h52q15 -104 111.5 -169t235.5 -65q144 0 239 71.5t95 180.5q0 75 -57.5 133t-184.5 105
l-99 37q-124 46 -183 108.5t-59 149.5q0 115 94.5 196t225.5 90l1 6q-164 72 -164 221q0 121 104.5 201.5t260.5 80.5q146 0 248 -74.5t113 -188.5h-48q-12 92 -103.5 155t-214.5 63q-129 0 -218.5 -68t-89.5 -167q0 -73 52 -125t167 -94l95 -35q140 -52 204 -118.5
t64 -161.5q0 -114 -86.5 -193.5t-213.5 -93.5l-1 -4q75 -47 109.5 -100t34.5 -123q0 -130 -110 -214t-279 -84z" />
    <glyph glyph-name="dieresis" unicode="&#xa8;" horiz-adv-x="811" 
d="M491 1251q-22 0 -38 16t-16 38t16 37.5t38 15.5t38 -15.5t16 -37.5t-16 -38t-38 -16zM768 1251q-22 0 -38 16t-16 38t16 37.5t38 15.5t38 -15.5t16 -37.5q0 -23 -16 -38.5t-38 -15.5z" />
    <glyph glyph-name="copyright" unicode="&#xa9;" horiz-adv-x="1736" 
d="M922 -138q-214 0 -381.5 92.5t-260.5 260t-93 380.5q0 160 63.5 307t170 254t253 170.5t305.5 63.5q161 0 297.5 -54t233 -149.5t150.5 -232t54 -297.5q0 -160 -63.5 -307t-170 -254t-253 -170.5t-305.5 -63.5zM922 -92q150 0 287.5 60t238 160.5t160 239t59.5 289.5
q0 306 -191 496.5t-497 190.5q-150 0 -287.5 -60t-238 -160.5t-160 -239t-59.5 -289.5q0 -305 191.5 -496t496.5 -191zM1331 774h-45q-7 111 -88 179.5t-204 68.5q-163 0 -275 -128.5t-112 -316.5q0 -153 84 -245t224 -92q98 0 175.5 46t113.5 126h51q-43 -101 -133.5 -158
t-207.5 -57q-161 0 -257.5 103t-96.5 275q0 135 58 248t159 177.5t222 64.5q140 0 232.5 -81t99.5 -210z" />
    <glyph glyph-name="ordfeminine" unicode="&#xaa;" horiz-adv-x="678" 
d="M498 1093q-118 -6 -181.5 -52t-63.5 -124q0 -65 50.5 -104.5t131.5 -39.5q101 0 182 61t100 152l26 120zM206 913q0 97 76.5 154.5t214.5 64.5l253 13l13 60q7 24 7 54q0 71 -50 111.5t-138 40.5q-91 0 -155 -44t-82 -120h-47q19 94 97.5 150t189.5 56q106 0 169 -51.5
t63 -137.5q0 -23 -7 -60l-98 -463h-45l27 132h-2q-37 -63 -110.5 -102t-156.5 -39q-95 0 -157 50.5t-62 130.5z" />
    <glyph glyph-name="guillemotleft" unicode="&#xab;" horiz-adv-x="1101" 
d="M575 158h-62l-289 407l1 7l460 406h70l-462 -411l-2 -7zM919 158h-62l-289 406l1 6l462 408h70l-463 -413l-2 -6z" />
    <glyph glyph-name="logicalnot" unicode="&#xac;" horiz-adv-x="1179" 
d="M1175 723l-115 -540h-48l106 494h-918l10 46h965z" />
    <glyph glyph-name="registered" unicode="&#xae;" horiz-adv-x="1078" 
d="M551 869h-40l95 448h157q60 0 96.5 -34.5t36.5 -90.5t-37 -94t-100 -48l91 -181h-45l-90 178h-126zM638 1280l-42 -198h127q61 0 97 29t36 77q0 42 -26 67t-71 25h-121zM700 668q-170 0 -287 115.5t-117 282.5q0 179 120 300.5t297 121.5q172 0 288.5 -114t116.5 -282
q0 -181 -120 -302.5t-298 -121.5zM700 706q161 0 269.5 110.5t108.5 275.5q-1 151 -106.5 255t-257.5 104q-161 0 -268.5 -110t-108.5 -275q0 -150 106 -255t257 -105z" />
    <glyph glyph-name="macron" unicode="&#xaf;" horiz-adv-x="866" 
d="M921 1346l-9 -44h-503l9 44h503z" />
    <glyph glyph-name="degree" unicode="&#xb0;" horiz-adv-x="721" 
d="M564 939q-108 0 -185 77t-77 185t77 185t185 77t185.5 -77t77.5 -185t-77.5 -185t-185.5 -77zM564 984q91 0 155 63.5t64 153.5q0 89 -64 153t-155 64q-90 0 -154 -64t-64 -153q0 -90 64 -153.5t154 -63.5z" />
    <glyph glyph-name="plusminus" unicode="&#xb1;" horiz-adv-x="1179" 
d="M1045 113h-965l9 46h966zM710 688l-79 -367h-49l78 367h-458l10 45h458l73 344h50l-74 -344h458l-9 -45h-458z" />
    <glyph glyph-name="two.sups" unicode="&#xb2;" horiz-adv-x="540" 
d="M354 1633q13 82 75.5 133.5t148.5 51.5q81 0 136.5 -47t55.5 -116q0 -59 -39 -111.5t-153 -149.5l-240 -204v-2h363l-8 -42h-435l8 38l285 244q104 88 137 131.5t33 91.5q0 55 -41.5 90t-104.5 35q-65 0 -113 -39.5t-61 -103.5h-47z" />
    <glyph glyph-name="three.sups" unicode="&#xb3;" horiz-adv-x="542" 
d="M442 1468l9 41h91q76 0 126 40t50 100q0 56 -41.5 91.5t-105.5 35.5q-58 0 -103.5 -31.5t-61.5 -83.5h-48q19 71 78 114t138 43q83 0 137.5 -46.5t54.5 -116.5q0 -65 -46.5 -112t-120.5 -57l-1 -2q60 -10 95 -49.5t35 -97.5q0 -88 -68.5 -144.5t-175.5 -56.5
q-92 0 -153.5 48.5t-61.5 120.5q0 17 3 28h46q-2 -11 -2 -21q0 -58 48.5 -96t121.5 -38q86 0 140 44t54 114q0 60 -45 96t-120 36h-73z" />
    <glyph glyph-name="acute" unicode="&#xb4;" horiz-adv-x="811" 
d="M510 1251h-59l308 304h64z" />
    <glyph glyph-name="mugreek" unicode="&#xb5;" horiz-adv-x="1210" 
d="M33 -339l293 1379h49l-141 -655q-11 -60 -11 -105q0 -119 70.5 -184t199.5 -65q157 0 283 110t161 279l132 620h48l-178 -854q-10 -45 -10 -75q0 -75 88 -75q44 0 73 10l-10 -45q-27 -10 -72 -10q-130 0 -130 117q0 44 22 127h-4q-62 -114 -175 -182t-239 -68
q-116 0 -197.5 60t-85.5 149h-4l-113 -533h-49z" />
    <glyph glyph-name="mugreek" unicode="&#x3bc;" horiz-adv-x="1210" 
d="M33 -339l293 1379h49l-141 -655q-11 -60 -11 -105q0 -119 70.5 -184t199.5 -65q157 0 283 110t161 279l132 620h48l-178 -854q-10 -45 -10 -75q0 -75 88 -75q44 0 73 10l-10 -45q-27 -10 -72 -10q-130 0 -130 117q0 44 22 127h-4q-62 -114 -175 -182t-239 -68
q-116 0 -197.5 60t-85.5 149h-4l-113 -533h-49z" />
    <glyph glyph-name="paragraph" unicode="&#xb6;" horiz-adv-x="1157" 
d="M681 -146h-50l153 718q-189 18 -300.5 126t-111.5 268q0 143 74 253.5t193.5 167t262.5 56.5h117zM863 -146l338 1589h50l-338 -1589h-50z" />
    <glyph glyph-name="periodcentered" unicode="&#xb7;" horiz-adv-x="509" 
d="M314 463q-24 0 -40.5 17t-16.5 40t16.5 40t40.5 17q23 0 40 -17t17 -40t-17 -40t-40 -17z" />
    <glyph glyph-name="cedilla" unicode="&#xb8;" horiz-adv-x="812" 
d="M226 -176l8 33l105 157h40l-3 -14l-93 -141q87 -7 135 -46t48 -106q0 -78 -56.5 -124t-147.5 -46q-94 0 -165 41l9 44q67 -40 157 -40q69 0 112 32t43 89q0 103 -142 116z" />
    <glyph glyph-name="one.sups" unicode="&#xb9;" horiz-adv-x="383" 
d="M415 1146l129 609h-2q-22 -11 -103.5 -58.5t-100.5 -57.5l13 52q105 66 205 119h48l-142 -664h-47z" />
    <glyph glyph-name="ordmasculine" unicode="&#xba;" horiz-adv-x="725" 
d="M504 731q-128 0 -205.5 79.5t-77.5 211.5q0 184 103.5 307.5t257.5 123.5q128 0 206 -80.5t78 -212.5q0 -183 -104 -306t-258 -123zM818 1158q0 115 -65 184t-173 69q-133 0 -222.5 -111.5t-89.5 -275.5q0 -115 64.5 -183t174.5 -68q133 0 222 110.5t89 274.5z" />
    <glyph glyph-name="guillemotright" unicode="&#xbb;" horiz-adv-x="1101" 
d="M666 978h61l290 -408l-1 -6l-460 -406h-71l462 411l2 6zM322 977h61l290 -405l-2 -7l-461 -407h-70l463 412l2 7z" />
    <glyph glyph-name="onequarter" unicode="&#xbc;" horiz-adv-x="1321" 
d="M337 779l129 609h-2q-22 -11 -103.5 -58.5t-100.5 -57.5l13 52q105 66 205 119h48l-142 -664h-47zM61 0h-59l706 735l681 708h60l-706 -734zM1091 0l34 160h-343l8 44q112 137 420 460h69l-98 -462h103l-9 -42h-103l-34 -160h-47zM843 203v-2h291l88 415h-1
q-269 -280 -378 -413z" />
    <glyph glyph-name="onehalf" unicode="&#xbd;" horiz-adv-x="1359" 
d="M337 779l129 609h-2q-22 -11 -103.5 -58.5t-100.5 -57.5l13 52q105 66 205 119h48l-142 -664h-47zM61 0h-59l706 735l681 708h60l-706 -734zM929 487q13 82 75.5 133.5t148.5 51.5q81 0 136.5 -47t55.5 -116q0 -59 -39 -111.5t-153 -149.5l-240 -204v-2h363l-8 -42h-435
l8 38l285 244q104 88 137 131.5t33 91.5q0 55 -41.5 90t-104.5 35q-65 0 -113 -39.5t-61 -103.5h-47z" />
    <glyph glyph-name="threequarters" unicode="&#xbe;" horiz-adv-x="1450" 
d="M364 1101l9 41h91q76 0 126 40t50 100q0 56 -41.5 91.5t-105.5 35.5q-58 0 -103.5 -31.5t-61.5 -83.5h-48q19 71 78 114t138 43q83 0 137.5 -46.5t54.5 -116.5q0 -65 -46.5 -112t-120.5 -57l-1 -2q60 -10 95 -49.5t35 -97.5q0 -88 -68.5 -144.5t-175.5 -56.5
q-92 0 -153.5 48.5t-61.5 120.5q0 17 3 28h46q-2 -11 -2 -21q0 -58 48.5 -96t121.5 -38q86 0 140 44t54 114q0 60 -45 96t-120 36h-73zM191 0h-59l706 735l681 708h60l-706 -734zM1219 0l34 160h-343l8 44q112 137 420 460h69l-98 -462h103l-9 -42h-103l-34 -160h-47z
M971 203v-2h291l88 415h-1q-269 -280 -378 -413z" />
    <glyph glyph-name="questiondown" unicode="&#xbf;" horiz-adv-x="908" 
d="M788 -19q-37 -154 -148 -244t-269 -90q-157 0 -254.5 92.5t-97.5 231.5q0 128 75.5 225.5t218.5 149.5q107 40 161.5 98.5t74.5 154.5l24 113h51l-24 -117q-24 -111 -83 -175.5t-176 -108.5q-270 -102 -270 -335q0 -124 81.5 -203.5t222.5 -79.5q134 0 231 78t133 210h49
zM658 1119q22 0 37.5 -15.5t15.5 -37.5t-15.5 -37.5t-37.5 -15.5q-21 0 -36.5 15.5t-15.5 37.5t15.5 37.5t36.5 15.5z" />
    <glyph glyph-name="Agrave" unicode="&#xc0;" horiz-adv-x="1201" 
d="M844 1375l-489 -828h634l-141 828h-4zM1082 0l-86 502h-668l-299 -502h-59l861 1443h51l248 -1443h-48zM843 1554l-179 287h57l175 -287h-53z" />
    <glyph glyph-name="Aacute" unicode="&#xc1;" horiz-adv-x="1201" 
d="M844 1375l-489 -828h634l-141 828h-4zM1082 0l-86 502h-668l-299 -502h-59l861 1443h51l248 -1443h-48zM907 1554h-63l352 287h70z" />
    <glyph glyph-name="Acircumflex" unicode="&#xc2;" horiz-adv-x="1201" 
d="M844 1375l-489 -828h634l-141 828h-4zM1082 0l-86 502h-668l-299 -502h-59l861 1443h51l248 -1443h-48zM957 1841l197 -287h-55l-166 245h-3l-269 -245h-65l319 287h42z" />
    <glyph glyph-name="Atilde" unicode="&#xc3;" horiz-adv-x="1201" 
d="M844 1375l-489 -828h634l-141 828h-4zM1082 0l-86 502h-668l-299 -502h-59l861 1443h51l248 -1443h-48zM1031 1553q-36 0 -66.5 17.5t-52 42t-42 49t-47 42t-56.5 17.5q-46 0 -82.5 -41.5t-50.5 -114.5h-44q15 93 64 146t116 53q31 0 58 -12.5t45 -31t37.5 -40t35.5 -40
t39 -31t49 -12.5q44 0 78.5 41t49.5 114h44q-19 -97 -65 -148t-110 -51z" />
    <glyph glyph-name="Adieresis" unicode="&#xc4;" horiz-adv-x="1201" 
d="M844 1375l-489 -828h634l-141 828h-4zM1082 0l-86 502h-668l-299 -502h-59l861 1443h51l248 -1443h-48zM763 1601q-22 0 -38 16t-16 38t16 37.5t38 15.5t38 -15.5t16 -37.5t-16 -38t-38 -16zM1040 1601q-22 0 -38 16t-16 38t16 37.5t38 15.5t38 -15.5t16 -37.5
q0 -23 -16 -38.5t-38 -15.5z" />
    <glyph glyph-name="Aring" unicode="&#xc5;" horiz-adv-x="1201" 
d="M844 1375l-489 -828h634l-141 828h-4zM1082 0l-86 502h-668l-299 -502h-59l861 1443h51l248 -1443h-48zM917 1566q-67 0 -115.5 48t-48.5 116q0 69 48.5 117.5t116.5 48.5t115.5 -48t47.5 -116t-48 -117t-116 -49zM917 1605q53 0 89.5 37t36.5 90q-1 53 -36.5 89.5
t-88.5 36.5q-54 0 -90 -36.5t-36 -90.5q0 -53 36 -89.5t89 -36.5z" />
    <glyph glyph-name="AE" unicode="&#xc6;" horiz-adv-x="1832" 
d="M1220 1397h-191l-674 -939h665zM922 0l88 411h-688l-294 -411h-59l1037 1443h982l-10 -47h-709l-134 -633h673l-11 -46h-673l-142 -670h709l-10 -47h-759z" />
    <glyph glyph-name="Ccedilla" unicode="&#xc7;" horiz-adv-x="1342" 
d="M601 -143l83 124q-232 16 -373.5 175.5t-141.5 408.5q0 188 56 354.5t152 286t230.5 188.5t286.5 69q236 0 382 -136.5t149 -351.5v-2h-50v2q-3 194 -135.5 317.5t-349.5 123.5q-139 0 -263.5 -66t-213.5 -178.5t-141.5 -269.5t-52.5 -331q0 -244 141.5 -394t372.5 -150
q190 0 332 96.5t204 268.5h54q-66 -193 -223.5 -302.5t-369.5 -109.5l-80 -121q87 -7 135 -46t48 -106q0 -78 -56.5 -124t-147.5 -46q-94 0 -165 41l9 44q67 -40 157 -40q69 0 112 32t43 89q0 103 -142 116l-50 5z" />
    <glyph glyph-name="Egrave" unicode="&#xc8;" horiz-adv-x="1038" 
d="M916 47l-10 -47h-826l307 1443h826l-10 -47h-776l-134 -632h740l-11 -46h-739l-142 -671h775zM788 1554l-179 287h57l175 -287h-53z" />
    <glyph glyph-name="Eacute" unicode="&#xc9;" horiz-adv-x="1038" 
d="M916 47l-10 -47h-826l307 1443h826l-10 -47h-776l-134 -632h740l-11 -46h-739l-142 -671h775zM851 1554h-63l352 287h70z" />
    <glyph glyph-name="Ecircumflex" unicode="&#xca;" horiz-adv-x="1038" 
d="M916 47l-10 -47h-826l307 1443h826l-10 -47h-776l-134 -632h740l-11 -46h-739l-142 -671h775zM901 1841l197 -287h-55l-166 245h-3l-269 -245h-65l319 287h42z" />
    <glyph glyph-name="Edieresis" unicode="&#xcb;" horiz-adv-x="1038" 
d="M916 47l-10 -47h-826l307 1443h826l-10 -47h-776l-134 -632h740l-11 -46h-739l-142 -671h775zM707 1601q-22 0 -38 16t-16 38t16 37.5t38 15.5t38 -15.5t16 -37.5t-16 -38t-38 -16zM984 1601q-22 0 -38 16t-16 38t16 37.5t38 15.5t38 -15.5t16 -37.5q0 -23 -16 -38.5
t-38 -15.5z" />
    <glyph glyph-name="Igrave" unicode="&#xcc;" horiz-adv-x="311" 
d="M130 0h-50l307 1443h50zM399 1554l-179 287h57l175 -287h-53z" />
    <glyph glyph-name="Iacute" unicode="&#xcd;" horiz-adv-x="311" 
d="M130 0h-50l307 1443h50zM462 1554h-63l352 287h70z" />
    <glyph glyph-name="Icircumflex" unicode="&#xce;" horiz-adv-x="311" 
d="M130 0h-50l307 1443h50zM513 1841l197 -287h-55l-166 245h-3l-269 -245h-65l319 287h42z" />
    <glyph glyph-name="Idieresis" unicode="&#xcf;" horiz-adv-x="311" 
d="M130 0h-50l307 1443h50zM319 1601q-22 0 -38 16t-16 38t16 37.5t38 15.5t38 -15.5t16 -37.5t-16 -38t-38 -16zM596 1601q-22 0 -38 16t-16 38t16 37.5t38 15.5t38 -15.5t16 -37.5q0 -23 -16 -38.5t-38 -15.5z" />
    <glyph glyph-name="Eth" unicode="&#xd0;" horiz-adv-x="1348" 
d="M143 47h391q238 0 422 108.5t282.5 298t98.5 428.5q0 242 -136 378t-395 136h-377l-135 -636h446l-10 -46h-446zM387 1443h425q275 0 425 -149t150 -406q0 -192 -61 -356t-171 -281.5t-270 -184t-351 -66.5h-453l151 714h-131l10 46h131z" />
    <glyph glyph-name="Ntilde" unicode="&#xd1;" horiz-adv-x="1332" 
d="M130 0h-50l307 1443h48l679 -1362h4l289 1362h50l-307 -1443h-48l-679 1362h-4zM1093 1553q-36 0 -66.5 17.5t-52 42t-42 49t-47 42t-56.5 17.5q-46 0 -82.5 -41.5t-50.5 -114.5h-44q15 93 64 146t116 53q31 0 58 -12.5t45 -31t37.5 -40t35.5 -40t39 -31t49 -12.5
q44 0 78.5 41t49.5 114h44q-19 -97 -65 -148t-110 -51z" />
    <glyph glyph-name="Ograve" unicode="&#xd2;" horiz-adv-x="1436" 
d="M899 1416q-187 0 -342.5 -109t-245 -299t-89.5 -418q0 -257 142.5 -410t377.5 -153q187 0 342.5 109t245 299t89.5 418q0 257 -142.5 410t-377.5 153zM738 -20q-254 0 -410.5 165.5t-156.5 438.5q0 184 56.5 347.5t153.5 280t232.5 184t289.5 67.5q254 0 410 -165.5
t156 -438.5q0 -184 -56.5 -347.5t-153 -280t-232.5 -184t-289 -67.5zM891 1554l-179 287h57l175 -287h-53z" />
    <glyph glyph-name="Oacute" unicode="&#xd3;" horiz-adv-x="1436" 
d="M899 1416q-187 0 -342.5 -109t-245 -299t-89.5 -418q0 -257 142.5 -410t377.5 -153q187 0 342.5 109t245 299t89.5 418q0 257 -142.5 410t-377.5 153zM738 -20q-254 0 -410.5 165.5t-156.5 438.5q0 184 56.5 347.5t153.5 280t232.5 184t289.5 67.5q254 0 410 -165.5
t156 -438.5q0 -184 -56.5 -347.5t-153 -280t-232.5 -184t-289 -67.5zM955 1554h-63l352 287h70z" />
    <glyph glyph-name="Ocircumflex" unicode="&#xd4;" horiz-adv-x="1436" 
d="M899 1416q-187 0 -342.5 -109t-245 -299t-89.5 -418q0 -257 142.5 -410t377.5 -153q187 0 342.5 109t245 299t89.5 418q0 257 -142.5 410t-377.5 153zM738 -20q-254 0 -410.5 165.5t-156.5 438.5q0 184 56.5 347.5t153.5 280t232.5 184t289.5 67.5q254 0 410 -165.5
t156 -438.5q0 -184 -56.5 -347.5t-153 -280t-232.5 -184t-289 -67.5zM1005 1841l197 -287h-55l-166 245h-3l-269 -245h-65l319 287h42z" />
    <glyph glyph-name="Otilde" unicode="&#xd5;" horiz-adv-x="1436" 
d="M899 1416q-187 0 -342.5 -109t-245 -299t-89.5 -418q0 -257 142.5 -410t377.5 -153q187 0 342.5 109t245 299t89.5 418q0 257 -142.5 410t-377.5 153zM738 -20q-254 0 -410.5 165.5t-156.5 438.5q0 184 56.5 347.5t153.5 280t232.5 184t289.5 67.5q254 0 410 -165.5
t156 -438.5q0 -184 -56.5 -347.5t-153 -280t-232.5 -184t-289 -67.5zM1079 1553q-36 0 -66.5 17.5t-52 42t-42 49t-47 42t-56.5 17.5q-46 0 -82.5 -41.5t-50.5 -114.5h-44q15 93 64 146t116 53q31 0 58 -12.5t45 -31t37.5 -40t35.5 -40t39 -31t49 -12.5q44 0 78.5 41
t49.5 114h44q-19 -97 -65 -148t-110 -51z" />
    <glyph glyph-name="Odieresis" unicode="&#xd6;" horiz-adv-x="1436" 
d="M899 1416q-187 0 -342.5 -109t-245 -299t-89.5 -418q0 -257 142.5 -410t377.5 -153q187 0 342.5 109t245 299t89.5 418q0 257 -142.5 410t-377.5 153zM738 -20q-254 0 -410.5 165.5t-156.5 438.5q0 184 56.5 347.5t153.5 280t232.5 184t289.5 67.5q254 0 410 -165.5
t156 -438.5q0 -184 -56.5 -347.5t-153 -280t-232.5 -184t-289 -67.5zM811 1601q-22 0 -38 16t-16 38t16 37.5t38 15.5t38 -15.5t16 -37.5t-16 -38t-38 -16zM1088 1601q-22 0 -38 16t-16 38t16 37.5t38 15.5t38 -15.5t16 -37.5q0 -23 -16 -38.5t-38 -15.5z" />
    <glyph glyph-name="multiply" unicode="&#xd7;" horiz-adv-x="1179" 
d="M911 222l-254 323l-395 -327l-31 37l396 326l-256 326l39 31l256 -324l396 326l30 -37l-397 -327l255 -323z" />
    <glyph glyph-name="Oslash" unicode="&#xd8;" horiz-adv-x="1436" 
d="M1327 1198l-988 -988q144 -183 403 -183q187 0 342.5 109t245 299t89.5 418q0 203 -92 345zM314 245l988 988q-144 183 -403 183q-187 0 -342.5 -109t-245 -299t-89.5 -418q0 -203 92 -345zM1528 1399l-165 -165q106 -154 106 -375q0 -184 -56.5 -347.5t-153 -280
t-232.5 -184t-289 -67.5q-136 0 -247.5 50t-187.5 143l-159 -159l-31 30l164 164q-106 156 -106 376q0 184 56.5 347.5t153.5 280t232.5 184t289.5 67.5q136 0 247 -50.5t187 -143.5l160 160z" />
    <glyph glyph-name="Ugrave" unicode="&#xd9;" horiz-adv-x="1337" 
d="M663 -20q-215 0 -347.5 117t-133.5 305q0 71 14 143l193 898h50l-193 -901q-13 -57 -13 -136q0 -170 119 -274.5t315 -104.5q208 0 349.5 115.5t185.5 318.5l211 982h50l-212 -988q-48 -226 -202 -350.5t-386 -124.5zM912 1554l-179 287h57l175 -287h-53z" />
    <glyph glyph-name="Uacute" unicode="&#xda;" horiz-adv-x="1337" 
d="M663 -20q-215 0 -347.5 117t-133.5 305q0 71 14 143l193 898h50l-193 -901q-13 -57 -13 -136q0 -170 119 -274.5t315 -104.5q208 0 349.5 115.5t185.5 318.5l211 982h50l-212 -988q-48 -226 -202 -350.5t-386 -124.5zM975 1554h-63l352 287h70z" />
    <glyph glyph-name="Ucircumflex" unicode="&#xdb;" horiz-adv-x="1337" 
d="M663 -20q-215 0 -347.5 117t-133.5 305q0 71 14 143l193 898h50l-193 -901q-13 -57 -13 -136q0 -170 119 -274.5t315 -104.5q208 0 349.5 115.5t185.5 318.5l211 982h50l-212 -988q-48 -226 -202 -350.5t-386 -124.5zM1025 1841l197 -287h-55l-166 245h-3l-269 -245h-65
l319 287h42z" />
    <glyph glyph-name="Udieresis" unicode="&#xdc;" horiz-adv-x="1337" 
d="M663 -20q-215 0 -347.5 117t-133.5 305q0 71 14 143l193 898h50l-193 -901q-13 -57 -13 -136q0 -170 119 -274.5t315 -104.5q208 0 349.5 115.5t185.5 318.5l211 982h50l-212 -988q-48 -226 -202 -350.5t-386 -124.5zM831 1601q-22 0 -38 16t-16 38t16 37.5t38 15.5
t38 -15.5t16 -37.5t-16 -38t-38 -16zM1108 1601q-22 0 -38 16t-16 38t16 37.5t38 15.5t38 -15.5t16 -37.5q0 -23 -16 -38.5t-38 -15.5z" />
    <glyph glyph-name="Yacute" unicode="&#xdd;" horiz-adv-x="1144" 
d="M548 0h-51l134 632l-354 811h54l331 -758h4l651 758h63l-699 -814zM878 1554h-63l352 287h70z" />
    <glyph glyph-name="Thorn" unicode="&#xde;" horiz-adv-x="1133" 
d="M71 0l307 1443h51l-62 -291h401q177 0 283.5 -97.5t106.5 -237.5q0 -207 -143.5 -334.5t-391.5 -127.5h-426l-75 -355h-51zM357 1105l-149 -704h423q219 0 348 115t129 294q0 125 -92 210t-258 85h-401z" />
    <glyph glyph-name="germandbls" unicode="&#xdf;" horiz-adv-x="1046" 
d="M131 0h-48l234 1096q34 159 138.5 247.5t256.5 88.5q154 0 251.5 -86t97.5 -222q0 -141 -98.5 -246.5t-245.5 -122.5l-1 -3q140 -17 226.5 -113t86.5 -235q0 -183 -130.5 -302.5t-330.5 -119.5q-122 0 -239 38l11 47q111 -37 223 -37q181 0 297 105t116 268
q0 145 -104 236t-271 91h-101l10 49h125q152 0 263 99.5t111 236.5q0 121 -83 196t-215 75q-131 0 -225.5 -80.5t-123.5 -217.5z" />
    <glyph glyph-name="agrave" unicode="&#xe0;" horiz-adv-x="966" 
d="M413 30q152 0 272.5 94t151.5 237l42 191l-363 -21q-184 -10 -283.5 -82t-99.5 -194q0 -101 77.5 -163t202.5 -62zM407 -15q-143 0 -233.5 74t-90.5 192q0 143 112.5 227t320.5 96l371 22l20 93q10 53 10 85q0 110 -76.5 173t-212.5 63q-144 0 -242 -70t-124 -191h-51
q29 140 142.5 223.5t277.5 83.5q153 0 244.5 -76t91.5 -202q0 -43 -10 -90l-147 -688h-49l44 204l-4 1q-57 -101 -164 -160.5t-230 -59.5zM703 1251h-49l-184 304h55z" />
    <glyph glyph-name="aacute" unicode="&#xe1;" horiz-adv-x="966" 
d="M413 30q152 0 272.5 94t151.5 237l42 191l-363 -21q-184 -10 -283.5 -82t-99.5 -194q0 -101 77.5 -163t202.5 -62zM407 -15q-143 0 -233.5 74t-90.5 192q0 143 112.5 227t320.5 96l371 22l20 93q10 53 10 85q0 110 -76.5 173t-212.5 63q-144 0 -242 -70t-124 -191h-51
q29 140 142.5 223.5t277.5 83.5q153 0 244.5 -76t91.5 -202q0 -43 -10 -90l-147 -688h-49l44 204l-4 1q-57 -101 -164 -160.5t-230 -59.5zM706 1251h-59l308 304h64z" />
    <glyph glyph-name="acircumflex" unicode="&#xe2;" horiz-adv-x="966" 
d="M413 30q152 0 272.5 94t151.5 237l42 191l-363 -21q-184 -10 -283.5 -82t-99.5 -194q0 -101 77.5 -163t202.5 -62zM407 -15q-143 0 -233.5 74t-90.5 192q0 143 112.5 227t320.5 96l371 22l20 93q10 53 10 85q0 110 -76.5 173t-212.5 63q-144 0 -242 -70t-124 -191h-51
q29 140 142.5 223.5t277.5 83.5q153 0 244.5 -76t91.5 -202q0 -43 -10 -90l-147 -688h-49l44 204l-4 1q-57 -101 -164 -160.5t-230 -59.5zM763 1555l188 -304h-57l-161 263h-2l-274 -263h-65l319 304h52z" />
    <glyph glyph-name="atilde" unicode="&#xe3;" horiz-adv-x="966" 
d="M413 30q152 0 272.5 94t151.5 237l42 191l-363 -21q-184 -10 -283.5 -82t-99.5 -194q0 -101 77.5 -163t202.5 -62zM407 -15q-143 0 -233.5 74t-90.5 192q0 143 112.5 227t320.5 96l371 22l20 93q10 53 10 85q0 110 -76.5 173t-212.5 63q-144 0 -242 -70t-124 -191h-51
q29 140 142.5 223.5t277.5 83.5q153 0 244.5 -76t91.5 -202q0 -43 -10 -90l-147 -688h-49l44 204l-4 1q-57 -101 -164 -160.5t-230 -59.5zM830 1251q-36 0 -66.5 17.5t-52 42t-42 49t-47 42t-56.5 17.5q-46 0 -82.5 -41.5t-50.5 -114.5h-44q15 93 64 146t116 53
q31 0 58 -12.5t45 -31t37.5 -40t35.5 -40t39 -31t49 -12.5q44 0 78.5 41t49.5 114h44q-19 -97 -65 -148t-110 -51z" />
    <glyph glyph-name="adieresis" unicode="&#xe4;" horiz-adv-x="966" 
d="M413 30q152 0 272.5 94t151.5 237l42 191l-363 -21q-184 -10 -283.5 -82t-99.5 -194q0 -101 77.5 -163t202.5 -62zM407 -15q-143 0 -233.5 74t-90.5 192q0 143 112.5 227t320.5 96l371 22l20 93q10 53 10 85q0 110 -76.5 173t-212.5 63q-144 0 -242 -70t-124 -191h-51
q29 140 142.5 223.5t277.5 83.5q153 0 244.5 -76t91.5 -202q0 -43 -10 -90l-147 -688h-49l44 204l-4 1q-57 -101 -164 -160.5t-230 -59.5zM548 1251q-22 0 -38 16t-16 38t16 37.5t38 15.5t38 -15.5t16 -37.5t-16 -38t-38 -16zM825 1251q-22 0 -38 16t-16 38t16 37.5t38 15.5
t38 -15.5t16 -37.5q0 -23 -15.5 -38.5t-38.5 -15.5z" />
    <glyph glyph-name="aring" unicode="&#xe5;" horiz-adv-x="966" 
d="M413 30q152 0 272.5 94t151.5 237l42 191l-363 -21q-184 -10 -283.5 -82t-99.5 -194q0 -101 77.5 -163t202.5 -62zM407 -15q-143 0 -233.5 74t-90.5 192q0 143 112.5 227t320.5 96l371 22l20 93q10 53 10 85q0 110 -76.5 173t-212.5 63q-144 0 -242 -70t-124 -191h-51
q29 140 142.5 223.5t277.5 83.5q153 0 244.5 -76t91.5 -202q0 -43 -10 -90l-147 -688h-49l44 204l-4 1q-57 -101 -164 -160.5t-230 -59.5zM692 1163q-68 0 -116 48.5t-48 115.5q0 69 48.5 117.5t116.5 48.5t115.5 -48t47.5 -116t-48 -117t-116 -49zM692 1202q53 0 89.5 37
t36.5 90q-1 53 -36.5 89.5t-88.5 36.5q-54 0 -90 -36.5t-36 -90.5q0 -53 36 -89.5t89 -36.5z" />
    <glyph glyph-name="ae" unicode="&#xe6;" horiz-adv-x="1801" 
d="M1295 -16q-159 0 -265.5 88.5t-130.5 238.5h-3q-29 -82 -83.5 -146.5t-120.5 -103t-136 -58t-137 -19.5q-143 0 -233 75t-90 192q0 142 110 219.5t319 88.5l385 20l23 110q11 47 11 85q0 110 -77 173t-212 63q-144 0 -245.5 -71.5t-125.5 -189.5h-51q27 139 143.5 223
t280.5 84q153 0 241 -75t91 -201h4q69 128 185.5 202t252.5 74q165 0 274 -116t109 -287q0 -57 -14 -123h-850q-12 -82 -12 -131q0 -167 98 -268t263 -101q132 0 230 54.5t144 153.5h51q-43 -117 -159 -185.5t-270 -68.5zM959 574h799q7 37 7 78q0 152 -95.5 255t-241.5 103
q-162 0 -292 -119t-177 -317zM425 30q156 0 282 95.5t157 235.5l38 175l-377 -21q-380 -22 -380 -260q0 -100 77.5 -162.5t202.5 -62.5z" />
    <glyph glyph-name="ccedilla" unicode="&#xe7;" horiz-adv-x="1000" 
d="M401 -143l86 129q-167 15 -266.5 133t-99.5 301q0 133 40.5 251t110.5 202.5t167.5 133.5t208.5 49q159 0 265 -91t122 -239v-1h-49q-16 128 -108.5 206.5t-229.5 78.5q-132 0 -242 -77.5t-172.5 -212.5t-62.5 -298q0 -176 99.5 -284t261.5 -108q126 0 226.5 65
t148.5 175h51q-54 -134 -167 -210t-259 -76l-82 -125q87 -7 135 -46t48 -106q0 -78 -56.5 -124t-147.5 -46q-94 0 -165 41l9 44q67 -40 157 -40q69 0 112 32t43 89q0 103 -142 116l-50 5z" />
    <glyph glyph-name="egrave" unicode="&#xe8;" horiz-adv-x="1017" 
d="M183 562h792q9 36 9 91q0 163 -90.5 260t-245.5 97q-174 0 -303.5 -125t-161.5 -323zM518 -16q-185 0 -294 114t-109 307q0 183 69.5 332.5t192.5 234t274 84.5q176 0 278.5 -108.5t102.5 -293.5q0 -78 -16 -137h-841q-10 -64 -10 -107q0 -175 96.5 -277.5t260.5 -102.5
q142 0 244.5 68t147.5 192h52q-48 -143 -166.5 -224.5t-281.5 -81.5zM761 1251h-49l-184 304h55z" />
    <glyph glyph-name="eacute" unicode="&#xe9;" horiz-adv-x="1017" 
d="M183 562h792q9 36 9 91q0 163 -90.5 260t-245.5 97q-174 0 -303.5 -125t-161.5 -323zM518 -16q-185 0 -294 114t-109 307q0 183 69.5 332.5t192.5 234t274 84.5q176 0 278.5 -108.5t102.5 -293.5q0 -78 -16 -137h-841q-10 -64 -10 -107q0 -175 96.5 -277.5t260.5 -102.5
q142 0 244.5 68t147.5 192h52q-48 -143 -166.5 -224.5t-281.5 -81.5zM764 1251h-59l308 304h64z" />
    <glyph glyph-name="ecircumflex" unicode="&#xea;" horiz-adv-x="1017" 
d="M183 562h792q9 36 9 91q0 163 -90.5 260t-245.5 97q-174 0 -303.5 -125t-161.5 -323zM518 -16q-185 0 -294 114t-109 307q0 183 69.5 332.5t192.5 234t274 84.5q176 0 278.5 -108.5t102.5 -293.5q0 -78 -16 -137h-841q-10 -64 -10 -107q0 -175 96.5 -277.5t260.5 -102.5
q142 0 244.5 68t147.5 192h52q-48 -143 -166.5 -224.5t-281.5 -81.5zM821 1555l188 -304h-57l-161 263h-2l-274 -263h-65l319 304h52z" />
    <glyph glyph-name="edieresis" unicode="&#xeb;" horiz-adv-x="1017" 
d="M183 562h792q9 36 9 91q0 163 -90.5 260t-245.5 97q-174 0 -303.5 -125t-161.5 -323zM518 -16q-185 0 -294 114t-109 307q0 183 69.5 332.5t192.5 234t274 84.5q176 0 278.5 -108.5t102.5 -293.5q0 -78 -16 -137h-841q-10 -64 -10 -107q0 -175 96.5 -277.5t260.5 -102.5
q142 0 244.5 68t147.5 192h52q-48 -143 -166.5 -224.5t-281.5 -81.5zM606 1251q-22 0 -38 16t-16 38t16 37.5t38 15.5t38 -15.5t16 -37.5t-16 -38t-38 -16zM883 1251q-22 0 -38 16t-16 38t16 37.5t38 15.5t38 -15.5t16 -37.5q0 -23 -15.5 -38.5t-38.5 -15.5z" />
    <glyph glyph-name="igrave" unicode="&#xec;" horiz-adv-x="286" 
d="M68 0l221 1040h49l-221 -1040h-49zM385 1251h-49l-184 304h55z" />
    <glyph glyph-name="iacute" unicode="&#xed;" horiz-adv-x="286" 
d="M68 0l221 1040h49l-221 -1040h-49zM388 1251h-59l308 304h64z" />
    <glyph glyph-name="icircumflex" unicode="&#xee;" horiz-adv-x="286" 
d="M68 0l221 1040h49l-221 -1040h-49zM445 1555l188 -304h-57l-161 263h-2l-274 -263h-65l319 304h52z" />
    <glyph glyph-name="idieresis" unicode="&#xef;" horiz-adv-x="286" 
d="M68 0l221 1040h49l-221 -1040h-49zM230 1251q-22 0 -38 16t-16 38t16 37.5t38 15.5t38 -15.5t16 -37.5t-16 -38t-38 -16zM507 1251q-22 0 -38 16t-16 38t16 37.5t38 15.5t38 -15.5t16 -37.5q0 -23 -15.5 -38.5t-38.5 -15.5z" />
    <glyph glyph-name="eth" unicode="&#xf0;" horiz-adv-x="1035" 
d="M498 -16q-170 0 -278 112.5t-108 286.5q0 182 69 327t191 226.5t275 81.5q134 0 231 -70t129 -186h4q2 12 2 52q0 240 -131 425l-310 -119l-7 40l293 112q-85 99 -176 155h69q75 -50 150 -139l290 115l7 -40l-274 -109q136 -197 136 -454q0 -128 -31 -290
q-47 -245 -189 -385.5t-342 -140.5zM987 634q0 153 -95.5 245t-250.5 92q-134 0 -243.5 -75t-172 -207.5t-62.5 -294.5q0 -167 93 -265.5t250 -98.5q131 0 242 80t175 219t64 305z" />
    <glyph glyph-name="ntilde" unicode="&#xf1;" horiz-adv-x="1034" 
d="M63 0l221 1040h49l-47 -222h4q63 110 164 174t229 64q152 0 247.5 -88t95.5 -223q0 -54 -11 -105l-137 -640h-50l134 629q14 68 14 107q0 123 -82.5 198.5t-221.5 75.5q-154 0 -271 -106t-150 -259l-138 -645h-50zM877 1251q-36 0 -66.5 17.5t-52 42t-42 49t-47 42
t-56.5 17.5q-46 0 -82.5 -41.5t-50.5 -114.5h-44q15 93 64 146t116 53q31 0 58 -12.5t45 -31t37.5 -40t35.5 -40t39 -31t49 -12.5q44 0 78.5 41t49.5 114h44q-19 -97 -65 -148t-110 -51z" />
    <glyph glyph-name="ograve" unicode="&#xf2;" horiz-adv-x="1076" 
d="M540 30q135 0 246 77t174.5 211.5t63.5 299.5q0 177 -100.5 284.5t-268.5 107.5q-135 0 -246 -77t-174.5 -211.5t-63.5 -299.5q0 -177 101 -284.5t268 -107.5zM655 1056q190 0 304.5 -119.5t114.5 -316.5q0 -180 -69.5 -325.5t-191.5 -228t-273 -82.5
q-190 0 -304.5 119.5t-114.5 316.5q0 180 69.5 325.5t192 228t272.5 82.5zM772 1251h-49l-184 304h55z" />
    <glyph glyph-name="oacute" unicode="&#xf3;" horiz-adv-x="1076" 
d="M540 30q135 0 246 77t174.5 211.5t63.5 299.5q0 177 -100.5 284.5t-268.5 107.5q-135 0 -246 -77t-174.5 -211.5t-63.5 -299.5q0 -177 101 -284.5t268 -107.5zM655 1056q190 0 304.5 -119.5t114.5 -316.5q0 -180 -69.5 -325.5t-191.5 -228t-273 -82.5
q-190 0 -304.5 119.5t-114.5 316.5q0 180 69.5 325.5t192 228t272.5 82.5zM775 1251h-59l308 304h64z" />
    <glyph glyph-name="ocircumflex" unicode="&#xf4;" horiz-adv-x="1076" 
d="M540 30q135 0 246 77t174.5 211.5t63.5 299.5q0 177 -100.5 284.5t-268.5 107.5q-135 0 -246 -77t-174.5 -211.5t-63.5 -299.5q0 -177 101 -284.5t268 -107.5zM655 1056q190 0 304.5 -119.5t114.5 -316.5q0 -180 -69.5 -325.5t-191.5 -228t-273 -82.5
q-190 0 -304.5 119.5t-114.5 316.5q0 180 69.5 325.5t192 228t272.5 82.5zM832 1555l188 -304h-57l-161 263h-2l-274 -263h-65l319 304h52z" />
    <glyph glyph-name="otilde" unicode="&#xf5;" horiz-adv-x="1076" 
d="M540 30q135 0 246 77t174.5 211.5t63.5 299.5q0 177 -100.5 284.5t-268.5 107.5q-135 0 -246 -77t-174.5 -211.5t-63.5 -299.5q0 -177 101 -284.5t268 -107.5zM655 1056q190 0 304.5 -119.5t114.5 -316.5q0 -180 -69.5 -325.5t-191.5 -228t-273 -82.5
q-190 0 -304.5 119.5t-114.5 316.5q0 180 69.5 325.5t192 228t272.5 82.5zM899 1251q-36 0 -66.5 17.5t-52 42t-42 49t-47 42t-56.5 17.5q-46 0 -82.5 -41.5t-50.5 -114.5h-44q15 93 64 146t116 53q31 0 58 -12.5t45 -31t37.5 -40t35.5 -40t39 -31t49 -12.5q44 0 78.5 41
t49.5 114h44q-19 -97 -65 -148t-110 -51z" />
    <glyph glyph-name="odieresis" unicode="&#xf6;" horiz-adv-x="1076" 
d="M540 30q135 0 246 77t174.5 211.5t63.5 299.5q0 177 -100.5 284.5t-268.5 107.5q-135 0 -246 -77t-174.5 -211.5t-63.5 -299.5q0 -177 101 -284.5t268 -107.5zM655 1056q190 0 304.5 -119.5t114.5 -316.5q0 -180 -69.5 -325.5t-191.5 -228t-273 -82.5
q-190 0 -304.5 119.5t-114.5 316.5q0 180 69.5 325.5t192 228t272.5 82.5zM617 1251q-22 0 -38 16t-16 38t16 37.5t38 15.5t38 -15.5t16 -37.5t-16 -38t-38 -16zM894 1251q-22 0 -38 16t-16 38t16 37.5t38 15.5t38 -15.5t16 -37.5q0 -23 -16 -38.5t-38 -15.5z" />
    <glyph glyph-name="divide" unicode="&#xf7;" horiz-adv-x="1179" 
d="M1141 555h-969l9 45h970zM728 841q-28 0 -49 20.5t-21 49.5q0 30 20.5 50t49.5 20q30 0 50.5 -20t20.5 -50q0 -29 -21 -49.5t-50 -20.5zM578 152q-28 0 -49 21t-21 49q0 30 20.5 50t49.5 20q30 0 50.5 -20t20.5 -50q0 -29 -21 -49.5t-50 -20.5z" />
    <glyph glyph-name="oslash" unicode="&#xf8;" horiz-adv-x="1076" 
d="M961 854l-702 -702q103 -122 281 -122q135 0 246 77t174.5 211.5t63.5 299.5q0 139 -63 236zM234 186l702 702q-100 122 -281 122q-135 0 -246 -77t-174.5 -211.5t-63.5 -299.5q0 -139 63 -236zM1113 1006l-116 -116q77 -109 77 -270q0 -180 -69.5 -325.5t-191.5 -228
t-273 -82.5q-202 0 -316 133l-112 -112l-30 29l116 116q-77 109 -77 270q0 180 69.5 325.5t192 228t272.5 82.5q202 0 316 -133l112 112z" />
    <glyph glyph-name="ugrave" unicode="&#xf9;" horiz-adv-x="1034" 
d="M1091 1040l-221 -1040h-48l47 220h-3q-63 -108 -165 -172t-229 -64q-154 0 -248.5 88t-94.5 223q0 47 11 105l137 640h49l-134 -629q-13 -59 -13 -106q0 -123 82 -199t220 -76q155 0 272.5 106t150.5 259l138 645h49zM737 1251h-49l-184 304h55z" />
    <glyph glyph-name="uacute" unicode="&#xfa;" horiz-adv-x="1034" 
d="M1091 1040l-221 -1040h-48l47 220h-3q-63 -108 -165 -172t-229 -64q-154 0 -248.5 88t-94.5 223q0 47 11 105l137 640h49l-134 -629q-13 -59 -13 -106q0 -123 82 -199t220 -76q155 0 272.5 106t150.5 259l138 645h49zM740 1251h-59l308 304h64z" />
    <glyph glyph-name="ucircumflex" unicode="&#xfb;" horiz-adv-x="1034" 
d="M1091 1040l-221 -1040h-48l47 220h-3q-63 -108 -165 -172t-229 -64q-154 0 -248.5 88t-94.5 223q0 47 11 105l137 640h49l-134 -629q-13 -59 -13 -106q0 -123 82 -199t220 -76q155 0 272.5 106t150.5 259l138 645h49zM797 1555l188 -304h-57l-161 263h-2l-274 -263h-65
l319 304h52z" />
    <glyph glyph-name="udieresis" unicode="&#xfc;" horiz-adv-x="1034" 
d="M1091 1040l-221 -1040h-48l47 220h-3q-63 -108 -165 -172t-229 -64q-154 0 -248.5 88t-94.5 223q0 47 11 105l137 640h49l-134 -629q-13 -59 -13 -106q0 -123 82 -199t220 -76q155 0 272.5 106t150.5 259l138 645h49zM582 1251q-22 0 -38 16t-16 38t16 37.5t38 15.5
t38 -15.5t16 -37.5t-16 -38t-38 -16zM859 1251q-22 0 -38 16t-16 38t16 37.5t38 15.5t38 -15.5t16 -37.5q0 -23 -15.5 -38.5t-38.5 -15.5z" />
    <glyph glyph-name="yacute" unicode="&#xfd;" horiz-adv-x="872" 
d="M64 -349q-32 0 -56 6l9 44q28 -5 50 -5q69 0 123.5 44t115.5 149l56 94l-179 1057h50l166 -991h4l579 991h56l-689 -1173q-73 -123 -136 -169.5t-149 -46.5zM680 1251h-59l308 304h64z" />
    <glyph glyph-name="thorn" unicode="&#xfe;" horiz-adv-x="1096" 
d="M574 30q130 0 239.5 77.5t172.5 212t63 295.5q0 183 -92 289t-250 106q-129 0 -240 -82t-176.5 -221t-65.5 -299q0 -170 96 -274t253 -104zM193 324l-150 -702h-49l386 1822h50l-139 -658h4q67 126 179.5 197.5t241.5 71.5q173 0 277.5 -120t104.5 -320q0 -175 -69 -320
t-190 -227.5t-267 -82.5q-153 0 -258.5 95t-118.5 244h-2z" />
    <glyph glyph-name="ydieresis" unicode="&#xff;" horiz-adv-x="872" 
d="M64 -349q-32 0 -56 6l9 44q28 -5 50 -5q69 0 123.5 44t115.5 149l56 94l-179 1057h50l166 -991h4l579 991h56l-689 -1173q-73 -123 -136 -169.5t-149 -46.5zM522 1251q-22 0 -38 16t-16 38t16 37.5t38 15.5t38 -15.5t16 -37.5t-16 -38t-38 -16zM799 1251q-22 0 -38 16
t-16 38t16 37.5t38 15.5t38 -15.5t16 -37.5q0 -23 -15.5 -38.5t-38.5 -15.5z" />
    <glyph glyph-name="Amacron" unicode="&#x100;" horiz-adv-x="1201" 
d="M844 1375l-489 -828h634l-141 828h-4zM1082 0l-86 502h-668l-299 -502h-59l861 1443h51l248 -1443h-48zM1194 1659l-9 -44h-583l9 44h583z" />
    <glyph glyph-name="amacron" unicode="&#x101;" horiz-adv-x="966" 
d="M413 30q152 0 272.5 94t151.5 237l42 191l-363 -21q-184 -10 -283.5 -82t-99.5 -194q0 -101 77.5 -163t202.5 -62zM407 -15q-143 0 -233.5 74t-90.5 192q0 143 112.5 227t320.5 96l371 22l20 93q10 53 10 85q0 110 -76.5 173t-212.5 63q-144 0 -242 -70t-124 -191h-51
q29 140 142.5 223.5t277.5 83.5q153 0 244.5 -76t91.5 -202q0 -43 -10 -90l-147 -688h-49l44 204l-4 1q-57 -101 -164 -160.5t-230 -59.5zM946 1346l-9 -44h-503l9 44h503z" />
    <glyph glyph-name="Abreve" unicode="&#x102;" horiz-adv-x="1201" 
d="M844 1375l-489 -828h634l-141 828h-4zM1082 0l-86 502h-668l-299 -502h-59l861 1443h51l248 -1443h-48zM643 1771h46q-1 -1 -1 -12q0 -75 54.5 -119t146.5 -44q89 0 149 48t70 127h46q-10 -98 -86 -158t-188 -60q-107 0 -172.5 55.5t-65.5 146.5q0 14 1 16z" />
    <glyph glyph-name="abreve" unicode="&#x103;" horiz-adv-x="966" 
d="M413 30q152 0 272.5 94t151.5 237l42 191l-363 -21q-184 -10 -283.5 -82t-99.5 -194q0 -101 77.5 -163t202.5 -62zM407 -15q-143 0 -233.5 74t-90.5 192q0 143 112.5 227t320.5 96l371 22l20 93q10 53 10 85q0 110 -76.5 173t-212.5 63q-144 0 -242 -70t-124 -191h-51
q29 140 142.5 223.5t277.5 83.5q153 0 244.5 -76t91.5 -202q0 -43 -10 -90l-147 -688h-49l44 204l-4 1q-57 -101 -164 -160.5t-230 -59.5zM438 1487h46q-2 -22 -2 -31q0 -75 54 -119t147 -44q92 0 152 53.5t66 140.5h46q-7 -105 -81.5 -171t-187.5 -66q-110 0 -176 55.5
t-66 147.5q0 10 2 34z" />
    <glyph glyph-name="Aogonek" unicode="&#x104;" horiz-adv-x="1201" 
d="M1050 -327l-9 -44q-27 -12 -73 -12q-68 0 -112 39.5t-44 100.5q0 79 69 145t200 110l-86 490h-667l-298 -502h-60l861 1443h51l248 -1446l-1 -1q-268 -94 -268 -231q0 -44 34.5 -74t86.5 -30q46 0 68 12zM843 1374l-489 -827h634l-141 827h-4z" />
    <glyph glyph-name="aogonek" unicode="&#x105;" horiz-adv-x="966" 
d="M411 30q155 0 275.5 94.5t150.5 236.5l42 191l-363 -21q-184 -10 -283.5 -82t-99.5 -194q0 -100 77 -162.5t201 -62.5zM720 -371q-26 -13 -75 -13q-67 0 -110.5 39t-43.5 99q0 151 274 262l40 188l-4 1q-56 -99 -163 -159.5t-233 -60.5q-142 0 -232 74.5t-90 191.5
q0 144 112.5 227.5t320.5 95.5l371 22l20 93q10 52 10 85q0 110 -77 172.5t-212 62.5q-144 0 -242 -70t-124 -190h-51q29 140 142.5 223.5t277.5 83.5q152 0 244 -76t92 -202q0 -43 -10 -90l-148 -692q-138 -59 -203.5 -116.5t-65.5 -118.5q0 -44 33.5 -73t85.5 -29
q47 0 70 12z" />
    <glyph glyph-name="Cacute" unicode="&#x106;" horiz-adv-x="1342" 
d="M1375 973v2q-3 194 -135.5 317.5t-349.5 123.5q-139 0 -263.5 -66t-213.5 -178.5t-141.5 -269.5t-52.5 -331q0 -244 141.5 -394t372.5 -150q190 0 332 96.5t204 268.5h54q-66 -194 -223.5 -303t-370.5 -109q-251 0 -405.5 161.5t-154.5 423.5q0 188 56 354.5t152 286
t230.5 188.5t286.5 69q236 0 382 -136.5t149 -351.5v-2h-50zM972 1554h-63l352 287h70z" />
    <glyph glyph-name="cacute" unicode="&#x107;" horiz-adv-x="1000" 
d="M648 1056q159 0 265 -91t122 -239v-1h-49q-16 128 -108.5 206.5t-229.5 78.5q-132 0 -242 -77.5t-172.5 -212.5t-62.5 -298q0 -176 99.5 -284t261.5 -108q126 0 226.5 65t148.5 175h51q-54 -134 -167 -210t-259 -76q-185 0 -298 120t-113 316q0 133 40.5 251t110.5 202.5
t167.5 133.5t208.5 49zM774 1251h-59l308 304h64z" />
    <glyph glyph-name="Ccircumflex" unicode="&#x108;" horiz-adv-x="1342" 
d="M1375 973v2q-3 194 -135.5 317.5t-349.5 123.5q-139 0 -263.5 -66t-213.5 -178.5t-141.5 -269.5t-52.5 -331q0 -244 141.5 -394t372.5 -150q190 0 332 96.5t204 268.5h54q-66 -194 -223.5 -303t-370.5 -109q-251 0 -405.5 161.5t-154.5 423.5q0 188 56 354.5t152 286
t230.5 188.5t286.5 69q236 0 382 -136.5t149 -351.5v-2h-50zM1022 1841l197 -287h-55l-166 245h-3l-269 -245h-65l319 287h42z" />
    <glyph glyph-name="ccircumflex" unicode="&#x109;" horiz-adv-x="1000" 
d="M648 1056q159 0 265 -91t122 -239v-1h-49q-16 128 -108.5 206.5t-229.5 78.5q-132 0 -242 -77.5t-172.5 -212.5t-62.5 -298q0 -176 99.5 -284t261.5 -108q126 0 226.5 65t148.5 175h51q-54 -134 -167 -210t-259 -76q-185 0 -298 120t-113 316q0 133 40.5 251t110.5 202.5
t167.5 133.5t208.5 49zM831 1555l188 -304h-57l-161 263h-2l-274 -263h-65l319 304h52z" />
    <glyph glyph-name="Cdotaccent" unicode="&#x10a;" horiz-adv-x="1342" 
d="M1375 973v2q-3 194 -135.5 317.5t-349.5 123.5q-139 0 -263.5 -66t-213.5 -178.5t-141.5 -269.5t-52.5 -331q0 -244 141.5 -394t372.5 -150q190 0 332 96.5t204 268.5h54q-66 -194 -223.5 -303t-370.5 -109q-251 0 -405.5 161.5t-154.5 423.5q0 188 56 354.5t152 286
t230.5 188.5t286.5 69q236 0 382 -136.5t149 -351.5v-2h-50zM977 1654q-26 0 -45.5 19t-19.5 44q0 26 19.5 45t45.5 19t45 -19t19 -45q0 -25 -19 -44t-45 -19z" />
    <glyph glyph-name="cdotaccent" unicode="&#x10b;" horiz-adv-x="1000" 
d="M648 1056q159 0 265 -91t122 -239v-1h-49q-16 128 -108.5 206.5t-229.5 78.5q-132 0 -242 -77.5t-172.5 -212.5t-62.5 -298q0 -176 99.5 -284t261.5 -108q126 0 226.5 65t148.5 175h51q-54 -134 -167 -210t-259 -76q-185 0 -298 120t-113 316q0 133 40.5 251t110.5 202.5
t167.5 133.5t208.5 49zM754 1251q-26 0 -45 19t-19 44q0 26 19 45t45 19t45.5 -19t19.5 -45q0 -25 -19.5 -44t-45.5 -19z" />
    <glyph glyph-name="Ccaron" unicode="&#x10c;" horiz-adv-x="1342" 
d="M1375 973v2q-3 194 -135.5 317.5t-349.5 123.5q-139 0 -263.5 -66t-213.5 -178.5t-141.5 -269.5t-52.5 -331q0 -244 141.5 -394t372.5 -150q190 0 332 96.5t204 268.5h54q-66 -194 -223.5 -303t-370.5 -109q-251 0 -405.5 161.5t-154.5 423.5q0 188 56 354.5t152 286
t230.5 188.5t286.5 69q236 0 382 -136.5t149 -351.5v-2h-50zM927 1554l-196 287h56l165 -244h2l270 244h64l-318 -287h-43z" />
    <glyph glyph-name="ccaron" unicode="&#x10d;" horiz-adv-x="1000" 
d="M648 1056q159 0 265 -91t122 -239v-1h-49q-16 128 -108.5 206.5t-229.5 78.5q-132 0 -242 -77.5t-172.5 -212.5t-62.5 -298q0 -176 99.5 -284t261.5 -108q126 0 226.5 65t148.5 175h51q-54 -134 -167 -210t-259 -76q-185 0 -298 120t-113 316q0 133 40.5 251t110.5 202.5
t167.5 133.5t208.5 49zM772 1251h-52l-187 304h57l160 -264h2l275 264h65z" />
    <glyph glyph-name="Dcaron" unicode="&#x10e;" horiz-adv-x="1348" 
d="M387 1443h425q275 0 425 -149t150 -406q0 -192 -61 -356t-171 -281.5t-270 -184t-351 -66.5h-453zM429 1396l-286 -1349h391q238 0 422 108.5t282.5 298t98.5 428.5q0 242 -136 378t-395 136h-377zM777 1554l-196 287h56l165 -244h2l270 244h64l-318 -287h-43z" />
    <glyph glyph-name="dcaron" unicode="&#x10f;" horiz-adv-x="1204" 
d="M1412 1443h49l-88 -355h-38zM490 -15q-167 0 -272.5 116t-105.5 300q0 131 44 252t117 209t173 140.5t208 52.5q151 0 254 -93t116 -243h4l154 724h51l-307 -1443h-51l54 253h-4q-66 -123 -184.5 -195.5t-250.5 -72.5zM499 30q140 0 254.5 84t177.5 221.5t63 296.5
q0 172 -93.5 275t-248.5 103q-127 0 -240.5 -83.5t-181.5 -223.5t-68 -297q0 -169 92.5 -272.5t244.5 -103.5z" />
    <glyph glyph-name="Dcroat" unicode="&#x110;" horiz-adv-x="1348" 
d="M143 47h391q238 0 422 108.5t282.5 298t98.5 428.5q0 242 -136 378t-395 136h-377l-135 -636h446l-10 -46h-446zM387 1443h425q275 0 425 -149t150 -406q0 -192 -61 -356t-171 -281.5t-270 -184t-351 -66.5h-453l151 714h-131l10 46h131z" />
    <glyph glyph-name="dcroat" unicode="&#x111;" horiz-adv-x="1091" 
d="M499 30q140 0 254.5 84t177.5 221.5t63 296.5q0 172 -93.5 275t-248.5 103q-127 0 -240.5 -83.5t-181.5 -223.5t-68 -297q0 -169 92.5 -272.5t244.5 -103.5zM1314 1287l-10 -44h-114l-264 -1243h-51l54 253h-4q-66 -123 -184.5 -195.5t-250.5 -72.5q-167 0 -272.5 116
t-105.5 300q0 131 44 252t117 209t173 140.5t208 52.5q151 0 254 -93t116 -243h4l111 524h-296l9 44h297l33 156h51l-33 -156h114z" />
    <glyph glyph-name="Emacron" unicode="&#x112;" horiz-adv-x="1038" 
d="M916 47l-10 -47h-826l307 1443h826l-10 -47h-776l-134 -632h740l-11 -46h-739l-142 -671h775zM1138 1659l-9 -44h-583l9 44h583z" />
    <glyph glyph-name="emacron" unicode="&#x113;" horiz-adv-x="1017" 
d="M183 562h792q9 36 9 91q0 163 -90.5 260t-245.5 97q-174 0 -303.5 -125t-161.5 -323zM518 -16q-185 0 -294 114t-109 307q0 183 69.5 332.5t192.5 234t274 84.5q176 0 278.5 -108.5t102.5 -293.5q0 -78 -16 -137h-841q-10 -64 -10 -107q0 -175 96.5 -277.5t260.5 -102.5
q142 0 244.5 68t147.5 192h52q-48 -143 -166.5 -224.5t-281.5 -81.5zM1004 1346l-9 -44h-503l9 44h503z" />
    <glyph glyph-name="Ebreve" unicode="&#x114;" horiz-adv-x="1038" 
d="M916 47l-10 -47h-826l307 1443h826l-10 -47h-776l-134 -632h740l-11 -46h-739l-142 -671h775zM587 1771h46q-1 -1 -1 -12q0 -75 54.5 -119t146.5 -44q89 0 149 48t70 127h46q-10 -98 -86 -158t-188 -60q-107 0 -172.5 55.5t-65.5 146.5q0 14 1 16z" />
    <glyph glyph-name="ebreve" unicode="&#x115;" horiz-adv-x="1017" 
d="M183 562h792q9 36 9 91q0 163 -90.5 260t-245.5 97q-174 0 -303.5 -125t-161.5 -323zM518 -16q-185 0 -294 114t-109 307q0 183 69.5 332.5t192.5 234t274 84.5q176 0 278.5 -108.5t102.5 -293.5q0 -78 -16 -137h-841q-10 -64 -10 -107q0 -175 96.5 -277.5t260.5 -102.5
q142 0 244.5 68t147.5 192h52q-48 -143 -166.5 -224.5t-281.5 -81.5zM496 1487h46q-2 -22 -2 -31q0 -75 54 -119t147 -44q92 0 152 53.5t66 140.5h46q-7 -105 -81.5 -171t-187.5 -66q-110 0 -176 55.5t-66 147.5q0 10 2 34z" />
    <glyph glyph-name="Edotaccent" unicode="&#x116;" horiz-adv-x="1038" 
d="M916 47l-10 -47h-826l307 1443h826l-10 -47h-776l-134 -632h740l-11 -46h-739l-142 -671h775zM856 1654q-26 0 -45.5 19t-19.5 44q0 26 19.5 45t45.5 19t45 -19t19 -45q0 -25 -19 -44t-45 -19z" />
    <glyph glyph-name="edotaccent" unicode="&#x117;" horiz-adv-x="1017" 
d="M183 562h792q9 36 9 91q0 163 -90.5 260t-245.5 97q-174 0 -303.5 -125t-161.5 -323zM518 -16q-185 0 -294 114t-109 307q0 183 69.5 332.5t192.5 234t274 84.5q176 0 278.5 -108.5t102.5 -293.5q0 -78 -16 -137h-841q-10 -64 -10 -107q0 -175 96.5 -277.5t260.5 -102.5
q142 0 244.5 68t147.5 192h52q-48 -143 -166.5 -224.5t-281.5 -81.5zM744 1251q-26 0 -45 19t-19 44q0 26 19 45t45 19t45.5 -19t19.5 -45q0 -25 -19.5 -44t-45.5 -19z" />
    <glyph glyph-name="Eogonek" unicode="&#x118;" horiz-adv-x="1038" 
d="M80 0l307 1443h826l-10 -47h-776l-134 -632h740l-11 -46h-740l-142 -671h776l-10 -46l-1 -1q-143 -60 -208 -116t-65 -119q0 -44 34 -74t86 -30q45 0 69 12l-10 -44q-27 -12 -72 -12q-68 0 -112 39.5t-44 100.5q0 70 61.5 131.5t179.5 111.5h-744z" />
    <glyph glyph-name="eogonek" unicode="&#x119;" horiz-adv-x="1017" 
d="M510 -384q-66 0 -109 39t-43 99q0 66 51.5 121.5t165.5 110.5v1q-18 -3 -59 -3q-185 0 -294 114t-109 307q0 183 69.5 332.5t192.5 234t274 84.5q176 0 278.5 -108.5t102.5 -293.5q0 -78 -16 -137h-841q-10 -64 -10 -107q0 -175 96.5 -277.5t260.5 -102.5q142 0 244.5 68
t147.5 192h52q-36 -106 -108 -174.5t-146 -98.5q-171 -78 -237.5 -134t-66.5 -122q0 -44 33.5 -73t84.5 -29q50 0 70 12l-9 -42q-26 -13 -75 -13zM181 562h792q9 36 9 91q0 163 -90 260t-245 97q-175 0 -304.5 -125t-161.5 -323z" />
    <glyph glyph-name="Ecaron" unicode="&#x11a;" horiz-adv-x="1038" 
d="M916 47l-10 -47h-826l307 1443h826l-10 -47h-776l-134 -632h740l-11 -46h-739l-142 -671h775zM806 1554l-196 287h56l165 -244h2l270 244h64l-318 -287h-43z" />
    <glyph glyph-name="ecaron" unicode="&#x11b;" horiz-adv-x="1017" 
d="M183 562h792q9 36 9 91q0 163 -90.5 260t-245.5 97q-174 0 -303.5 -125t-161.5 -323zM518 -16q-185 0 -294 114t-109 307q0 183 69.5 332.5t192.5 234t274 84.5q176 0 278.5 -108.5t102.5 -293.5q0 -78 -16 -137h-841q-10 -64 -10 -107q0 -175 96.5 -277.5t260.5 -102.5
q142 0 244.5 68t147.5 192h52q-48 -143 -166.5 -224.5t-281.5 -81.5zM762 1251h-52l-187 304h57l160 -264h2l275 264h65z" />
    <glyph glyph-name="Gcircumflex" unicode="&#x11c;" horiz-adv-x="1351" 
d="M1372 691l-40 -179q-56 -255 -214.5 -393.5t-392.5 -138.5q-249 0 -402.5 162t-153.5 423q0 248 92.5 453.5t257.5 325t368 119.5q218 0 360 -119.5t164 -319.5v-1h-50q-23 181 -151 287t-326 106q-185 0 -338.5 -113.5t-240 -307t-86.5 -424.5q0 -244 140 -394t369 -150
q211 0 357.5 129.5t198.5 361.5l29 127h-504l9 46h554zM982 1841l197 -287h-55l-166 245h-3l-269 -245h-65l319 287h42z" />
    <glyph glyph-name="gcircumflex" unicode="&#x11d;" horiz-adv-x="1084" 
d="M454 -371q-171 0 -281.5 82.5t-112.5 196.5h50q8 -98 103.5 -166t245.5 -68q156 0 264.5 84t140.5 228l60 280h-4q-61 -124 -174 -195.5t-247 -71.5q-175 0 -279.5 113.5t-104.5 304.5q0 171 72 318t196 233.5t270 86.5q154 0 253.5 -92t109.5 -242h4l70 319h51
l-228 -1059q-36 -165 -158.5 -258.5t-300.5 -93.5zM506 45q134 0 244.5 78t173.5 213.5t63 298.5q0 172 -91 273.5t-245 101.5q-130 0 -242.5 -80.5t-178.5 -216.5t-66 -293q0 -174 91.5 -274.5t250.5 -100.5zM827 1555l188 -304h-57l-161 263h-2l-274 -263h-65l319 304h52z
" />
    <glyph glyph-name="Gbreve" unicode="&#x11e;" horiz-adv-x="1351" 
d="M1372 691l-40 -179q-56 -255 -214.5 -393.5t-392.5 -138.5q-249 0 -402.5 162t-153.5 423q0 248 92.5 453.5t257.5 325t368 119.5q218 0 360 -119.5t164 -319.5v-1h-50q-23 181 -151 287t-326 106q-185 0 -338.5 -113.5t-240 -307t-86.5 -424.5q0 -244 140 -394t369 -150
q211 0 357.5 129.5t198.5 361.5l29 127h-504l9 46h554zM668 1771h46q-1 -1 -1 -12q0 -75 54.5 -119t146.5 -44q89 0 149 48t70 127h46q-10 -98 -86 -158t-188 -60q-107 0 -172.5 55.5t-65.5 146.5q0 14 1 16z" />
    <glyph glyph-name="gbreve" unicode="&#x11f;" horiz-adv-x="1084" 
d="M454 -371q-171 0 -281.5 82.5t-112.5 196.5h50q8 -98 103.5 -166t245.5 -68q156 0 264.5 84t140.5 228l60 280h-4q-61 -124 -174 -195.5t-247 -71.5q-175 0 -279.5 113.5t-104.5 304.5q0 171 72 318t196 233.5t270 86.5q154 0 253.5 -92t109.5 -242h4l70 319h51
l-228 -1059q-36 -165 -158.5 -258.5t-300.5 -93.5zM506 45q134 0 244.5 78t173.5 213.5t63 298.5q0 172 -91 273.5t-245 101.5q-130 0 -242.5 -80.5t-178.5 -216.5t-66 -293q0 -174 91.5 -274.5t250.5 -100.5zM502 1487h46q-2 -22 -2 -31q0 -75 54 -119t147 -44
q92 0 152 53.5t66 140.5h46q-7 -105 -81.5 -171t-187.5 -66q-110 0 -176 55.5t-66 147.5q0 10 2 34z" />
    <glyph glyph-name="Gdotaccent" unicode="&#x120;" horiz-adv-x="1351" 
d="M1372 691l-40 -179q-56 -255 -214.5 -393.5t-392.5 -138.5q-249 0 -402.5 162t-153.5 423q0 248 92.5 453.5t257.5 325t368 119.5q218 0 360 -119.5t164 -319.5v-1h-50q-23 181 -151 287t-326 106q-185 0 -338.5 -113.5t-240 -307t-86.5 -424.5q0 -244 140 -394t369 -150
q211 0 357.5 129.5t198.5 361.5l29 127h-504l9 46h554zM937 1654q-26 0 -45.5 19t-19.5 44q0 26 19.5 45t45.5 19t45 -19t19 -45q0 -25 -19 -44t-45 -19z" />
    <glyph glyph-name="gdotaccent" unicode="&#x121;" horiz-adv-x="1084" 
d="M454 -371q-171 0 -281.5 82.5t-112.5 196.5h50q8 -98 103.5 -166t245.5 -68q156 0 264.5 84t140.5 228l60 280h-4q-61 -124 -174 -195.5t-247 -71.5q-175 0 -279.5 113.5t-104.5 304.5q0 171 72 318t196 233.5t270 86.5q154 0 253.5 -92t109.5 -242h4l70 319h51
l-228 -1059q-36 -165 -158.5 -258.5t-300.5 -93.5zM506 45q134 0 244.5 78t173.5 213.5t63 298.5q0 172 -91 273.5t-245 101.5q-130 0 -242.5 -80.5t-178.5 -216.5t-66 -293q0 -174 91.5 -274.5t250.5 -100.5zM750 1251q-26 0 -45 19t-19 44q0 26 19 45t45 19t45.5 -19
t19.5 -45q0 -25 -19.5 -44t-45.5 -19z" />
    <glyph glyph-name="Gcommaaccent" unicode="&#x122;" horiz-adv-x="1351" 
d="M1372 691l-40 -179q-56 -255 -214.5 -393.5t-392.5 -138.5q-249 0 -402.5 162t-153.5 423q0 248 92.5 453.5t257.5 325t368 119.5q218 0 360 -119.5t164 -319.5v-1h-50q-23 181 -151 287t-326 106q-185 0 -338.5 -113.5t-240 -307t-86.5 -424.5q0 -244 140 -394t369 -150
q211 0 357.5 129.5t198.5 361.5l29 127h-504l9 46h554zM542 -475h-45l173 337h58z" />
    <glyph glyph-name="gcommaaccent" unicode="&#x123;" horiz-adv-x="1084" 
d="M454 -371q-171 0 -281.5 82.5t-112.5 196.5h50q8 -98 103.5 -166t245.5 -68q156 0 264.5 84t140.5 228l60 280h-4q-61 -124 -174 -195.5t-247 -71.5q-175 0 -279.5 113.5t-104.5 304.5q0 171 72 318t196 233.5t270 86.5q154 0 253.5 -92t109.5 -242h4l70 319h51
l-228 -1059q-36 -165 -158.5 -258.5t-300.5 -93.5zM506 45q134 0 244.5 78t173.5 213.5t63 298.5q0 172 -91 273.5t-245 101.5q-130 0 -242.5 -80.5t-178.5 -216.5t-66 -293q0 -174 91.5 -274.5t250.5 -100.5zM980 1515h45l-173 -337h-58z" />
    <glyph glyph-name="Hcircumflex" unicode="&#x124;" horiz-adv-x="1310" 
d="M1128 0h-50l153 718h-948l-153 -718h-50l307 1443h50l-144 -678h948l144 678h50zM1011 1841l197 -287h-55l-166 245h-3l-269 -245h-65l319 287h42z" />
    <glyph glyph-name="hcircumflex" unicode="&#x125;" horiz-adv-x="1040" 
d="M63 0l310 1443h50l-133 -620h4q62 107 161.5 169.5t226.5 62.5q155 0 251 -89t96 -229q0 -49 -9 -97l-139 -640h-48l135 629q11 60 11 98q0 128 -84 205.5t-223 77.5q-155 0 -271 -105.5t-149 -259.5l-139 -645h-50zM498 1841l197 -287h-55l-166 245h-3l-269 -245h-65
l319 287h42z" />
    <glyph glyph-name="Hbar" unicode="&#x126;" horiz-adv-x="1310" 
d="M1241 765l75 352h-948l-75 -352h948zM1476 1163l-10 -46h-100l-238 -1117h-50l153 718h-948l-153 -718h-50l238 1117h-97l10 46h96l60 280h50l-59 -280h948l59 280h50l-60 -280h101z" />
    <glyph glyph-name="hbar" unicode="&#x127;" horiz-adv-x="1040" 
d="M290 823h4q62 107 161.5 169.5t226.5 62.5q155 0 251 -89t96 -229q0 -49 -9 -97l-139 -640h-48l135 629q11 60 11 98q0 128 -84 205.5t-223 77.5q-155 0 -271 -105.5t-149 -259.5l-139 -645h-50l267 1243h-116l9 44h116l34 156h50l-33 -156h288l-9 -44h-289z" />
    <glyph glyph-name="Itilde" unicode="&#x128;" horiz-adv-x="311" 
d="M130 0h-50l307 1443h50zM587 1553q-36 0 -66.5 17.5t-52 42t-42 49t-47 42t-56.5 17.5q-46 0 -82.5 -41.5t-50.5 -114.5h-44q15 93 64 146t116 53q31 0 58 -12.5t45 -31t37.5 -40t35.5 -40t39 -31t49 -12.5q44 0 78.5 41t49.5 114h44q-19 -97 -65 -148t-110 -51z" />
    <glyph glyph-name="itilde" unicode="&#x129;" horiz-adv-x="286" 
d="M68 0l221 1040h49l-221 -1040h-49zM512 1251q-36 0 -66.5 17.5t-52 42t-42 49t-47 42t-56.5 17.5q-46 0 -82.5 -41.5t-50.5 -114.5h-44q15 93 64 146t116 53q31 0 58 -12.5t45 -31t37.5 -40t35.5 -40t39 -31t49 -12.5q44 0 78.5 41t49.5 114h44q-19 -97 -65 -148
t-110 -51z" />
    <glyph glyph-name="Imacron" unicode="&#x12a;" horiz-adv-x="311" 
d="M130 0h-50l307 1443h50zM750 1659l-9 -44h-583l9 44h583z" />
    <glyph glyph-name="imacron" unicode="&#x12b;" horiz-adv-x="286" 
d="M68 0l221 1040h49l-221 -1040h-49zM510 1346l-7 -44h-380l6 44h381z" />
    <glyph glyph-name="Ibreve" unicode="&#x12c;" horiz-adv-x="311" 
d="M130 0h-50l307 1443h50zM199 1771h46q-1 -1 -1 -12q0 -75 54.5 -119t146.5 -44q89 0 149 48t70 127h46q-10 -98 -86 -158t-188 -60q-107 0 -172.5 55.5t-65.5 146.5q0 14 1 16z" />
    <glyph glyph-name="ibreve" unicode="&#x12d;" horiz-adv-x="286" 
d="M68 0l221 1040h49l-221 -1040h-49zM120 1487h46q-2 -22 -2 -31q0 -75 54 -119t147 -44q92 0 152 53.5t66 140.5h46q-7 -105 -81.5 -171t-187.5 -66q-110 0 -176 55.5t-66 147.5q0 10 2 34z" />
    <glyph glyph-name="Iogonek" unicode="&#x12e;" horiz-adv-x="311" 
d="M35 -383q-68 0 -112 39.5t-44 100.5q0 135 203 254l305 1432h50l-308 -1445l-1 -1q-111 -68 -155.5 -119.5t-44.5 -111.5q0 -45 34.5 -75t86.5 -30q49 0 68 12l-9 -44q-27 -12 -73 -12z" />
    <glyph glyph-name="iogonek" unicode="&#x12f;" horiz-adv-x="285" 
d="M76 -371q-26 -13 -75 -13q-66 0 -109.5 39t-43.5 99q0 144 222 260l218 1026h49l-221 -1043l-2 -1q-112 -62 -164.5 -119t-52.5 -116q0 -44 33.5 -73t84.5 -29q52 0 70 12zM368 1259q-20 0 -34 13.5t-14 32.5q0 20 14 33.5t34 13.5t34 -13.5t14 -33.5q0 -19 -14 -32.5
t-34 -13.5z" />
    <glyph glyph-name="Idotaccent" unicode="&#x130;" horiz-adv-x="311" 
d="M130 0h-50l307 1443h50zM468 1654q-26 0 -45.5 19t-19.5 44q0 26 19.5 45t45.5 19t45 -19t19 -45q0 -25 -19 -44t-45 -19z" />
    <glyph glyph-name="dotlessi" unicode="&#x131;" horiz-adv-x="286" 
d="M68 0l221 1040h49l-221 -1040h-49z" />
    <glyph glyph-name="IJ" unicode="&#x132;" horiz-adv-x="1248" 
d="M130 0h-50l307 1443h50zM375 295q0 12 1 22h51q-1 -5 -1 -17q0 -122 84 -198.5t221 -76.5t232.5 87.5t128.5 243.5l231 1087h50l-235 -1108q-35 -168 -145 -262.5t-268 -94.5q-156 0 -253 88.5t-97 228.5z" />
    <glyph glyph-name="ij" unicode="&#x133;" horiz-adv-x="573" 
d="M67 0l221 1040h50l-221 -1040h-50zM369 1259q-20 0 -34 13.5t-14 32.5q0 20 14 33.5t34 13.5q19 0 33 -13.5t14 -33.5q0 -19 -14 -32.5t-33 -13.5zM660 1259q-20 0 -34 13.5t-14 32.5q0 20 14 33.5t34 13.5q19 0 33 -13.5t14 -33.5q0 -19 -14 -32.5t-33 -13.5zM624 1040
l-245 -1157q-26 -123 -92.5 -177.5t-178.5 -54.5q-32 0 -67 3l10 45q27 -3 57 -3q93 0 147 46.5t74 145.5l246 1152h49z" />
    <glyph glyph-name="Jcircumflex" unicode="&#x134;" horiz-adv-x="937" 
d="M64 295q0 12 1 22h51q-1 -5 -1 -17q0 -122 84 -198.5t221 -76.5t232.5 87.5t128.5 243.5l231 1087h50l-235 -1108q-35 -168 -145 -262.5t-268 -94.5q-156 0 -253 88.5t-97 228.5zM1138 1841l197 -287h-55l-166 245h-3l-269 -245h-65l319 287h42z" />
    <glyph glyph-name="jcircumflex" unicode="&#x135;" horiz-adv-x="290" 
d="M340 1040l-245 -1157q-26 -123 -92.5 -177.5t-178.5 -54.5q-32 0 -67 3l10 45q27 -3 57 -3q93 0 146.5 46.5t74.5 145.5l245 1152h50zM447 1555l188 -304h-57l-161 263h-2l-274 -263h-65l319 304h52z" />
    <glyph glyph-name="Kcommaaccent" unicode="&#x136;" horiz-adv-x="1109" 
d="M130 0h-50l307 1443h50l-176 -828h4l952 828h72l-716 -623l479 -820h-57l-459 788l-293 -253zM359 -475h-45l173 337h58z" />
    <glyph glyph-name="kcommaaccent" unicode="&#x137;" horiz-adv-x="861" 
d="M113 0h-50l307 1443h50l-202 -949h4l730 546h75l-596 -449l391 -591h-58l-374 564l-187 -142zM218 -475h-45l173 337h58z" />
    <glyph glyph-name="Lacute" unicode="&#x139;" horiz-adv-x="1002" 
d="M915 47l-10 -47h-825l307 1443h50l-297 -1396h775zM462 1554h-63l352 287h70z" />
    <glyph glyph-name="lacute" unicode="&#x13a;" horiz-adv-x="290" 
d="M70 0l307 1443h49l-307 -1443h-49zM452 1554h-63l352 287h70z" />
    <glyph glyph-name="Lcommaaccent" unicode="&#x13b;" horiz-adv-x="1002" 
d="M915 47l-10 -47h-825l307 1443h50l-297 -1396h775zM310 -475h-45l173 337h58z" />
    <glyph glyph-name="lcommaaccent" unicode="&#x13c;" horiz-adv-x="290" 
d="M70 0l307 1443h49l-307 -1443h-49zM-89 -475h-45l173 337h58z" />
    <glyph glyph-name="Lcaron" unicode="&#x13d;" horiz-adv-x="1002" 
d="M861 1443h49l-88 -355h-38zM915 47l-10 -47h-825l307 1443h50l-297 -1396h775z" />
    <glyph glyph-name="lcaron" unicode="&#x13e;" horiz-adv-x="398" 
d="M605 1443h49l-88 -355h-37zM70 0l307 1443h49l-307 -1443h-49z" />
    <glyph glyph-name="Lslash" unicode="&#x141;" horiz-adv-x="1002" 
d="M140 47h775l-10 -47h-825l132 621l-145 -68l10 50l146 68l164 772h50l-159 -746l499 232l-10 -50l-499 -233z" />
    <glyph glyph-name="lslash" unicode="&#x142;" horiz-adv-x="290" 
d="M426 1443l-139 -652l129 60l-10 -51l-130 -61l-157 -739h-49l152 714l-132 -62l10 52l133 62l144 677h49z" />
    <glyph glyph-name="Nacute" unicode="&#x143;" horiz-adv-x="1332" 
d="M130 0h-50l307 1443h48l679 -1362h4l289 1362h50l-307 -1443h-48l-679 1362h-4zM969 1554h-63l352 287h70z" />
    <glyph glyph-name="nacute" unicode="&#x144;" horiz-adv-x="1034" 
d="M63 0l221 1040h49l-47 -222h4q63 110 164 174t229 64q152 0 247.5 -88t95.5 -223q0 -54 -11 -105l-137 -640h-50l134 629q14 68 14 107q0 123 -82.5 198.5t-221.5 75.5q-154 0 -271 -106t-150 -259l-138 -645h-50zM753 1251h-59l308 304h64z" />
    <glyph glyph-name="Ncommaaccent" unicode="&#x145;" horiz-adv-x="1332" 
d="M130 0h-50l307 1443h48l679 -1362h4l289 1362h50l-307 -1443h-48l-679 1362h-4zM432 -475h-45l173 337h58z" />
    <glyph glyph-name="ncommaaccent" unicode="&#x146;" horiz-adv-x="1034" 
d="M63 0l221 1040h49l-47 -222h4q63 110 164 174t229 64q152 0 247.5 -88t95.5 -223q0 -54 -11 -105l-137 -640h-50l134 629q14 68 14 107q0 123 -82.5 198.5t-221.5 75.5q-154 0 -271 -106t-150 -259l-138 -645h-50zM287 -475h-45l173 337h58z" />
    <glyph glyph-name="Ncaron" unicode="&#x147;" horiz-adv-x="1332" 
d="M130 0h-50l307 1443h48l679 -1362h4l289 1362h50l-307 -1443h-48l-679 1362h-4zM924 1554l-196 287h56l165 -244h2l270 244h64l-318 -287h-43z" />
    <glyph glyph-name="ncaron" unicode="&#x148;" horiz-adv-x="1034" 
d="M63 0l221 1040h49l-47 -222h4q63 110 164 174t229 64q152 0 247.5 -88t95.5 -223q0 -54 -11 -105l-137 -640h-50l134 629q14 68 14 107q0 123 -82.5 198.5t-221.5 75.5q-154 0 -271 -106t-150 -259l-138 -645h-50zM751 1251h-52l-187 304h57l160 -264h2l275 264h65z" />
    <glyph glyph-name="Omacron" unicode="&#x14c;" horiz-adv-x="1436" 
d="M899 1416q-187 0 -342.5 -109t-245 -299t-89.5 -418q0 -257 142.5 -410t377.5 -153q187 0 342.5 109t245 299t89.5 418q0 257 -142.5 410t-377.5 153zM738 -20q-254 0 -410.5 165.5t-156.5 438.5q0 184 56.5 347.5t153.5 280t232.5 184t289.5 67.5q254 0 410 -165.5
t156 -438.5q0 -184 -56.5 -347.5t-153 -280t-232.5 -184t-289 -67.5zM1242 1659l-9 -44h-583l9 44h583z" />
    <glyph glyph-name="omacron" unicode="&#x14d;" horiz-adv-x="1076" 
d="M540 30q135 0 246 77t174.5 211.5t63.5 299.5q0 177 -100.5 284.5t-268.5 107.5q-135 0 -246 -77t-174.5 -211.5t-63.5 -299.5q0 -177 101 -284.5t268 -107.5zM655 1056q190 0 304.5 -119.5t114.5 -316.5q0 -180 -69.5 -325.5t-191.5 -228t-273 -82.5
q-190 0 -304.5 119.5t-114.5 316.5q0 180 69.5 325.5t192 228t272.5 82.5zM1015 1346l-9 -44h-503l9 44h503z" />
    <glyph glyph-name="Obreve" unicode="&#x14e;" horiz-adv-x="1436" 
d="M899 1416q-187 0 -342.5 -109t-245 -299t-89.5 -418q0 -257 142.5 -410t377.5 -153q187 0 342.5 109t245 299t89.5 418q0 257 -142.5 410t-377.5 153zM738 -20q-254 0 -410.5 165.5t-156.5 438.5q0 184 56.5 347.5t153.5 280t232.5 184t289.5 67.5q254 0 410 -165.5
t156 -438.5q0 -184 -56.5 -347.5t-153 -280t-232.5 -184t-289 -67.5zM691 1771h46q-1 -1 -1 -12q0 -75 54.5 -119t146.5 -44q89 0 149 48t70 127h46q-10 -98 -86 -158t-188 -60q-107 0 -172.5 55.5t-65.5 146.5q0 14 1 16z" />
    <glyph glyph-name="obreve" unicode="&#x14f;" horiz-adv-x="1076" 
d="M540 30q135 0 246 77t174.5 211.5t63.5 299.5q0 177 -100.5 284.5t-268.5 107.5q-135 0 -246 -77t-174.5 -211.5t-63.5 -299.5q0 -177 101 -284.5t268 -107.5zM655 1056q190 0 304.5 -119.5t114.5 -316.5q0 -180 -69.5 -325.5t-191.5 -228t-273 -82.5
q-190 0 -304.5 119.5t-114.5 316.5q0 180 69.5 325.5t192 228t272.5 82.5zM507 1487h46q-2 -22 -2 -31q0 -75 54 -119t147 -44q92 0 152 53.5t66 140.5h46q-7 -105 -81.5 -171t-187.5 -66q-110 0 -176 55.5t-66 147.5q0 10 2 34z" />
    <glyph glyph-name="Ohungarumlaut" unicode="&#x150;" horiz-adv-x="1436" 
d="M899 1416q-187 0 -342.5 -109t-245 -299t-89.5 -418q0 -257 142.5 -410t377.5 -153q187 0 342.5 109t245 299t89.5 418q0 257 -142.5 410t-377.5 153zM738 -20q-254 0 -410.5 165.5t-156.5 438.5q0 184 56.5 347.5t153.5 280t232.5 184t289.5 67.5q254 0 410 -165.5
t156 -438.5q0 -184 -56.5 -347.5t-153 -280t-232.5 -184t-289 -67.5zM1086 1554h-63l353 287h69zM831 1554h-63l353 287h69z" />
    <glyph glyph-name="ohungarumlaut" unicode="&#x151;" horiz-adv-x="1076" 
d="M540 30q135 0 246 77t174.5 211.5t63.5 299.5q0 177 -100.5 284.5t-268.5 107.5q-135 0 -246 -77t-174.5 -211.5t-63.5 -299.5q0 -177 101 -284.5t268 -107.5zM655 1056q190 0 304.5 -119.5t114.5 -316.5q0 -180 -69.5 -325.5t-191.5 -228t-273 -82.5
q-190 0 -304.5 119.5t-114.5 316.5q0 180 69.5 325.5t192 228t272.5 82.5zM834 1251l301 304h64l-306 -304h-59zM585 1251l301 304h64l-306 -304h-59z" />
    <glyph glyph-name="OE" unicode="&#x152;" horiz-adv-x="2220" 
d="M1244 0l74 347h-2q-99 -171 -256.5 -269t-343.5 -98q-253 0 -403.5 168.5t-150.5 451.5q0 179 57 339t154.5 275t233.5 182t288 67q230 0 376 -141.5t169 -385.5h4l107 507h825l-9 -47h-776l-134 -632h739l-11 -46h-739l-142 -671h775l-10 -47h-825zM1400 845
q0 261 -137.5 416t-367.5 155q-141 0 -268 -64t-217.5 -172.5t-144 -260t-53.5 -319.5q0 -262 137 -417.5t368 -155.5q141 0 268 64t217.5 173t144 260.5t53.5 320.5z" />
    <glyph glyph-name="oe" unicode="&#x153;" horiz-adv-x="1913" 
d="M1407 -16q-167 0 -276 93.5t-122 250.5h-4q-56 -154 -185.5 -249t-288.5 -95q-188 0 -301.5 118t-113.5 315q0 175 68 321t190.5 232t274.5 86q170 0 279.5 -98.5t130.5 -268.5h4q64 167 193.5 267t286.5 100q165 0 274 -116t109 -287q0 -62 -15 -131h-851
q-10 -67 -10 -123q0 -169 97.5 -269t263.5 -100q132 0 230 54.5t144 153.5h51q-43 -117 -159 -185.5t-270 -68.5zM1068 566h802q6 29 6 86q0 152 -95 255t-241 103q-164 0 -295 -124t-177 -320zM165 418q0 -180 100.5 -284t268.5 -104q136 0 247.5 78.5t173.5 214t62 299.5
q0 178 -100.5 283t-269.5 105q-136 0 -247.5 -80t-173 -215.5t-61.5 -296.5z" />
    <glyph glyph-name="Racute" unicode="&#x154;" horiz-adv-x="1142" 
d="M80 0l312 1443h394q207 0 320 -97.5t113 -264.5q0 -182 -117 -299.5t-320 -143.5l244 -638h-53l-242 632h-39h-425l-137 -632h-50zM432 1396l-155 -717h422q209 0 339.5 110.5t130.5 287.5q0 148 -100 233.5t-286 85.5h-351zM783 1554h-63l352 287h70z" />
    <glyph glyph-name="racute" unicode="&#x155;" horiz-adv-x="598" 
d="M63 0l221 1040h49l-41 -191h4q113 206 300 206q88 0 139 -29l-12 -50q-41 33 -134 33q-116 0 -210.5 -103.5t-130.5 -271.5l-135 -634h-50zM584 1251h-59l308 304h64z" />
    <glyph glyph-name="Rcommaaccent" unicode="&#x156;" horiz-adv-x="1142" 
d="M80 0l312 1443h394q207 0 320 -97.5t113 -264.5q0 -182 -117 -299.5t-320 -143.5l244 -638h-53l-242 632h-39h-425l-137 -632h-50zM432 1396l-155 -717h422q209 0 339.5 110.5t130.5 287.5q0 148 -100 233.5t-286 85.5h-351zM341 -475h-45l173 337h58z" />
    <glyph glyph-name="rcommaaccent" unicode="&#x157;" horiz-adv-x="598" 
d="M63 0l221 1040h49l-41 -191h4q113 206 300 206q88 0 139 -29l-12 -50q-41 33 -134 33q-116 0 -210.5 -103.5t-130.5 -271.5l-135 -634h-50zM-91 -475h-45l173 337h58z" />
    <glyph glyph-name="Rcaron" unicode="&#x158;" horiz-adv-x="1142" 
d="M80 0l312 1443h394q207 0 320 -97.5t113 -264.5q0 -182 -117 -299.5t-320 -143.5l244 -638h-53l-242 632h-39h-425l-137 -632h-50zM432 1396l-155 -717h422q209 0 339.5 110.5t130.5 287.5q0 148 -100 233.5t-286 85.5h-351zM738 1554l-196 287h56l165 -244h2l270 244h64
l-318 -287h-43z" />
    <glyph glyph-name="rcaron" unicode="&#x159;" horiz-adv-x="598" 
d="M63 0l221 1040h49l-41 -191h4q113 206 300 206q88 0 139 -29l-12 -50q-41 33 -134 33q-116 0 -210.5 -103.5t-130.5 -271.5l-135 -634h-50zM582 1251h-52l-187 304h57l160 -264h2l275 264h65z" />
    <glyph glyph-name="Sacute" unicode="&#x15a;" horiz-adv-x="1187" 
d="M114 401h50q8 -167 140 -270.5t337 -103.5q195 0 315 96.5t120 254.5q0 106 -67 178.5t-219 132.5l-130 51q-186 74 -265.5 157t-79.5 206q0 159 128.5 259.5t331.5 100.5q201 0 335 -110t146 -285h-50q-12 153 -132 250.5t-300 97.5t-294 -87.5t-114 -224.5
q0 -107 72 -179.5t243 -139.5l133 -52q165 -64 239 -147.5t74 -206.5q0 -177 -134.5 -288t-352.5 -111q-228 0 -373.5 116.5t-152.5 304.5zM822 1554h-63l352 287h70z" />
    <glyph glyph-name="sacute" unicode="&#x15b;" horiz-adv-x="915" 
d="M233 780q0 120 99.5 198t255.5 78q150 0 250 -84t113 -218h-49q-14 114 -100 185.5t-218 71.5q-130 0 -215.5 -65t-85.5 -163q0 -74 50.5 -123.5t166.5 -90.5l89 -32q143 -50 203 -111t60 -158q0 -126 -103 -205t-267 -79q-166 0 -279.5 87.5t-127.5 227.5h51
q16 -121 115 -195.5t244 -74.5q140 0 228.5 67t88.5 171q0 81 -52.5 131.5t-186.5 96.5l-90 33q-124 43 -182 104t-58 148zM714 1251h-59l308 304h64z" />
    <glyph glyph-name="Scircumflex" unicode="&#x15c;" horiz-adv-x="1187" 
d="M114 401h50q8 -167 140 -270.5t337 -103.5q195 0 315 96.5t120 254.5q0 106 -67 178.5t-219 132.5l-130 51q-186 74 -265.5 157t-79.5 206q0 159 128.5 259.5t331.5 100.5q201 0 335 -110t146 -285h-50q-12 153 -132 250.5t-300 97.5t-294 -87.5t-114 -224.5
q0 -107 72 -179.5t243 -139.5l133 -52q165 -64 239 -147.5t74 -206.5q0 -177 -134.5 -288t-352.5 -111q-228 0 -373.5 116.5t-152.5 304.5zM873 1841l197 -287h-55l-166 245h-3l-269 -245h-65l319 287h42z" />
    <glyph glyph-name="scircumflex" unicode="&#x15d;" horiz-adv-x="915" 
d="M233 780q0 120 99.5 198t255.5 78q150 0 250 -84t113 -218h-49q-14 114 -100 185.5t-218 71.5q-130 0 -215.5 -65t-85.5 -163q0 -74 50.5 -123.5t166.5 -90.5l89 -32q143 -50 203 -111t60 -158q0 -126 -103 -205t-267 -79q-166 0 -279.5 87.5t-127.5 227.5h51
q16 -121 115 -195.5t244 -74.5q140 0 228.5 67t88.5 171q0 81 -52.5 131.5t-186.5 96.5l-90 33q-124 43 -182 104t-58 148zM771 1555l188 -304h-57l-161 263h-2l-274 -263h-65l319 304h52z" />
    <glyph glyph-name="Scedilla" unicode="&#x15e;" horiz-adv-x="1187" 
d="M1256 1068h-50q-12 153 -132 250.5t-300 97.5t-294 -87.5t-114 -224.5q0 -107 72 -179.5t243 -139.5l133 -52q165 -64 239 -147.5t74 -206.5q0 -177 -134.5 -288t-352.5 -111h-7l-80 -121q87 -7 135 -46t48 -106q0 -78 -56.5 -124t-147.5 -46q-94 0 -165 41l9 44
q67 -40 157 -40q69 0 112 32t43 89q0 103 -142 116l-50 5l8 33l83 125q-207 14 -337 128.5t-136 290.5h50q8 -167 140 -270.5t337 -103.5q195 0 315 96.5t120 254.5q0 106 -67 178.5t-219 132.5l-130 51q-186 74 -265.5 157t-79.5 206q0 159 128.5 259.5t331.5 100.5
q201 0 335 -110t146 -285z" />
    <glyph glyph-name="scedilla" unicode="&#x15f;" horiz-adv-x="915" 
d="M951 754h-49q-14 114 -100 185.5t-218 71.5q-130 0 -215.5 -65t-85.5 -163q0 -74 50.5 -123.5t166.5 -90.5l89 -32q143 -50 203 -111t60 -158q0 -126 -103 -205t-267 -79h-23l-83 -125q87 -7 135 -46t48 -106q0 -78 -56.5 -124t-147.5 -46q-94 0 -165 41l9 44
q67 -40 157 -40q69 0 112 32t43 89q0 103 -142 116l-50 5l8 33l88 131q-142 17 -234.5 101.5t-105.5 209.5h51q16 -121 115 -195.5t244 -74.5q140 0 228.5 67t88.5 171q0 81 -52.5 131.5t-186.5 96.5l-90 33q-124 43 -182 104t-58 148q0 120 99.5 198t255.5 78
q150 0 250 -84t113 -218z" />
    <glyph glyph-name="Scaron" unicode="&#x160;" horiz-adv-x="1187" 
d="M114 401h50q8 -167 140 -270.5t337 -103.5q195 0 315 96.5t120 254.5q0 106 -67 178.5t-219 132.5l-130 51q-186 74 -265.5 157t-79.5 206q0 159 128.5 259.5t331.5 100.5q201 0 335 -110t146 -285h-50q-12 153 -132 250.5t-300 97.5t-294 -87.5t-114 -224.5
q0 -107 72 -179.5t243 -139.5l133 -52q165 -64 239 -147.5t74 -206.5q0 -177 -134.5 -288t-352.5 -111q-228 0 -373.5 116.5t-152.5 304.5zM778 1554l-196 287h56l165 -244h2l270 244h64l-318 -287h-43z" />
    <glyph glyph-name="scaron" unicode="&#x161;" horiz-adv-x="915" 
d="M233 780q0 120 99.5 198t255.5 78q150 0 250 -84t113 -218h-49q-14 114 -100 185.5t-218 71.5q-130 0 -215.5 -65t-85.5 -163q0 -74 50.5 -123.5t166.5 -90.5l89 -32q143 -50 203 -111t60 -158q0 -126 -103 -205t-267 -79q-166 0 -279.5 87.5t-127.5 227.5h51
q16 -121 115 -195.5t244 -74.5q140 0 228.5 67t88.5 171q0 81 -52.5 131.5t-186.5 96.5l-90 33q-124 43 -182 104t-58 148zM712 1251h-52l-187 304h57l160 -264h2l275 264h65z" />
    <glyph glyph-name="Tcedilla" unicode="&#x162;" horiz-adv-x="1143" 
d="M282 1443h1092l-10 -47h-521l-294 -1382h2l-3 -14l-93 -141q87 -7 135 -46t48 -106q0 -78 -56.5 -124t-147.5 -46q-94 0 -165 41l9 44q67 -40 157 -40q69 0 112 32t43 89q0 103 -142 116l-50 5l8 33l96 143h-6l297 1396h-521z" />
    <glyph glyph-name="tcedilla" unicode="&#x163;" horiz-adv-x="511" 
d="M375 995l-157 -742q-11 -44 -11 -76q0 -64 44 -98t125 -34q56 0 58 1l-10 -46q-1 0 -28 -0.5t-28 -0.5q-27 0 -51 3v-2l-93 -141q87 -7 135 -46t48 -106q0 -78 -56.5 -124t-147.5 -46q-94 0 -165 41l9 44q67 -40 157 -40q69 0 112 32t43 89q0 103 -142 116l-50 5l8 33
l102 153q-121 35 -121 153q0 36 11 89l158 743h-150l9 45h151l59 279h50l-59 -279h225l-10 -45h-225z" />
    <glyph glyph-name="Tcaron" unicode="&#x164;" horiz-adv-x="1143" 
d="M546 0h-50l297 1396h-521l10 47h1092l-10 -47h-521zM834 1554l-196 287h56l165 -244h2l270 244h64l-318 -287h-43z" />
    <glyph glyph-name="tcaron" unicode="&#x165;" horiz-adv-x="518" 
d="M637 1549h49l-88 -355h-37zM368 -1q-100 0 -156 42.5t-56 121.5q0 36 11 89l158 743h-150l9 45h151l59 279h50l-59 -279h225l-10 -45h-225l-157 -742q-11 -44 -11 -76q0 -64 44 -98t125 -34q56 0 58 1l-10 -46q-1 0 -28 -0.5t-28 -0.5z" />
    <glyph glyph-name="Tbar" unicode="&#x166;" horiz-adv-x="1143" 
d="M1364 1396h-521l-138 -650h417l-10 -46h-417l-149 -700h-50l149 700h-406l10 46h406l138 650h-521l10 47h1092z" />
    <glyph glyph-name="tbar" unicode="&#x167;" horiz-adv-x="511" 
d="M600 995h-225l-85 -400h261l-10 -46h-260l-63 -296q-11 -44 -11 -76q0 -64 44 -98t125 -34q56 0 58 1l-10 -46q-1 0 -28 -0.5t-28 -0.5q-100 0 -156 42.5t-56 121.5q0 36 11 89l63 297h-150l10 46h150l85 400h-150l9 45h151l59 279h50l-59 -279h225z" />
    <glyph glyph-name="Utilde" unicode="&#x168;" horiz-adv-x="1337" 
d="M663 -20q-215 0 -347.5 117t-133.5 305q0 71 14 143l193 898h50l-193 -901q-13 -57 -13 -136q0 -170 119 -274.5t315 -104.5q208 0 349.5 115.5t185.5 318.5l211 982h50l-212 -988q-48 -226 -202 -350.5t-386 -124.5zM1099 1553q-36 0 -66.5 17.5t-52 42t-42 49t-47 42
t-56.5 17.5q-46 0 -82.5 -41.5t-50.5 -114.5h-44q15 93 64 146t116 53q31 0 58 -12.5t45 -31t37.5 -40t35.5 -40t39 -31t49 -12.5q44 0 78.5 41t49.5 114h44q-19 -97 -65 -148t-110 -51z" />
    <glyph glyph-name="utilde" unicode="&#x169;" horiz-adv-x="1034" 
d="M1091 1040l-221 -1040h-48l47 220h-3q-63 -108 -165 -172t-229 -64q-154 0 -248.5 88t-94.5 223q0 47 11 105l137 640h49l-134 -629q-13 -59 -13 -106q0 -123 82 -199t220 -76q155 0 272.5 106t150.5 259l138 645h49zM864 1251q-36 0 -66.5 17.5t-52 42t-42 49t-47 42
t-56.5 17.5q-46 0 -82.5 -41.5t-50.5 -114.5h-44q15 93 64 146t116 53q31 0 58 -12.5t45 -31t37.5 -40t35.5 -40t39 -31t49 -12.5q44 0 78.5 41t49.5 114h44q-19 -97 -65 -148t-110 -51z" />
    <glyph glyph-name="Umacron" unicode="&#x16a;" horiz-adv-x="1337" 
d="M663 -20q-215 0 -347.5 117t-133.5 305q0 71 14 143l193 898h50l-193 -901q-13 -57 -13 -136q0 -170 119 -274.5t315 -104.5q208 0 349.5 115.5t185.5 318.5l211 982h50l-212 -988q-48 -226 -202 -350.5t-386 -124.5zM1262 1659l-9 -44h-583l9 44h583z" />
    <glyph glyph-name="umacron" unicode="&#x16b;" horiz-adv-x="1034" 
d="M1091 1040l-221 -1040h-48l47 220h-3q-63 -108 -165 -172t-229 -64q-154 0 -248.5 88t-94.5 223q0 47 11 105l137 640h49l-134 -629q-13 -59 -13 -106q0 -123 82 -199t220 -76q155 0 272.5 106t150.5 259l138 645h49zM980 1346l-9 -44h-503l9 44h503z" />
    <glyph glyph-name="Ubreve" unicode="&#x16c;" horiz-adv-x="1337" 
d="M663 -20q-215 0 -347.5 117t-133.5 305q0 71 14 143l193 898h50l-193 -901q-13 -57 -13 -136q0 -170 119 -274.5t315 -104.5q208 0 349.5 115.5t185.5 318.5l211 982h50l-212 -988q-48 -226 -202 -350.5t-386 -124.5zM711 1771h46q-1 -1 -1 -12q0 -75 54.5 -119
t146.5 -44q89 0 149 48t70 127h46q-10 -98 -86 -158t-188 -60q-107 0 -172.5 55.5t-65.5 146.5q0 14 1 16z" />
    <glyph glyph-name="ubreve" unicode="&#x16d;" horiz-adv-x="1034" 
d="M1091 1040l-221 -1040h-48l47 220h-3q-63 -108 -165 -172t-229 -64q-154 0 -248.5 88t-94.5 223q0 47 11 105l137 640h49l-134 -629q-13 -59 -13 -106q0 -123 82 -199t220 -76q155 0 272.5 106t150.5 259l138 645h49zM472 1487h46q-2 -22 -2 -31q0 -75 54 -119t147 -44
q92 0 152 53.5t66 140.5h46q-7 -105 -81.5 -171t-187.5 -66q-110 0 -176 55.5t-66 147.5q0 10 2 34z" />
    <glyph glyph-name="Uring" unicode="&#x16e;" horiz-adv-x="1337" 
d="M663 -20q-215 0 -347.5 117t-133.5 305q0 71 14 143l193 898h50l-193 -901q-13 -57 -13 -136q0 -170 119 -274.5t315 -104.5q208 0 349.5 115.5t185.5 318.5l211 982h50l-212 -988q-48 -226 -202 -350.5t-386 -124.5zM985 1566q-67 0 -115.5 48t-48.5 116
q0 69 48.5 117.5t116.5 48.5t115.5 -48t47.5 -116t-48 -117t-116 -49zM985 1605q53 0 89.5 37t36.5 90q-1 53 -36.5 89.5t-88.5 36.5q-54 0 -90 -36.5t-36 -90.5q0 -53 36 -89.5t89 -36.5z" />
    <glyph glyph-name="uring" unicode="&#x16f;" horiz-adv-x="1034" 
d="M1091 1040l-221 -1040h-48l47 220h-3q-63 -108 -165 -172t-229 -64q-154 0 -248.5 88t-94.5 223q0 47 11 105l137 640h49l-134 -629q-13 -59 -13 -106q0 -123 82 -199t220 -76q155 0 272.5 106t150.5 259l138 645h49zM726 1163q-68 0 -116 48.5t-48 115.5
q0 69 48.5 117.5t116.5 48.5t115.5 -48t47.5 -116t-48 -117t-116 -49zM726 1202q53 0 89.5 37t36.5 90q-1 53 -36.5 89.5t-88.5 36.5q-54 0 -90 -36.5t-36 -90.5q0 -53 36 -89.5t89 -36.5z" />
    <glyph glyph-name="Uhungarumlaut" unicode="&#x170;" horiz-adv-x="1337" 
d="M663 -20q-215 0 -347.5 117t-133.5 305q0 71 14 143l193 898h50l-193 -901q-13 -57 -13 -136q0 -170 119 -274.5t315 -104.5q208 0 349.5 115.5t185.5 318.5l211 982h50l-212 -988q-48 -226 -202 -350.5t-386 -124.5zM1107 1554h-63l353 287h69zM852 1554h-63l353 287h69
z" />
    <glyph glyph-name="uhungarumlaut" unicode="&#x171;" horiz-adv-x="1034" 
d="M1091 1040l-221 -1040h-48l47 220h-3q-63 -108 -165 -172t-229 -64q-154 0 -248.5 88t-94.5 223q0 47 11 105l137 640h49l-134 -629q-13 -59 -13 -106q0 -123 82 -199t220 -76q155 0 272.5 106t150.5 259l138 645h49zM799 1251l301 304h64l-306 -304h-59zM550 1251
l301 304h64l-306 -304h-59z" />
    <glyph glyph-name="Uogonek" unicode="&#x172;" horiz-adv-x="1337" 
d="M796 -371q-27 -12 -73 -12q-68 0 -111.5 39.5t-43.5 100.5q0 65 49.5 120.5t159.5 113.5v4q-55 -15 -114 -15q-223 0 -352 114t-130 309q0 73 14 137l194 903h51l-194 -906q-14 -72 -14 -130q0 -177 115.5 -278.5t319.5 -101.5q202 0 347.5 120t188.5 323l210 973h51
l-211 -979q-60 -277 -297 -416q-32 -19 -83 -47t-81.5 -45t-68 -42t-57.5 -45.5t-34.5 -47t-14.5 -55.5q0 -45 34 -75t86 -30q49 0 68 12z" />
    <glyph glyph-name="uogonek" unicode="&#x173;" horiz-adv-x="1036" 
d="M780 -371q-26 -13 -74 -13q-67 0 -110.5 39t-43.5 99q0 151 273 262l44 204h-3q-63 -108 -165 -172t-229 -64q-154 0 -248.5 88t-94.5 223q0 47 11 105l136 640h50l-134 -629q-13 -59 -13 -106q0 -123 82 -199t220 -76q155 0 272 106t150 259l139 645h49l-222 -1044
l-1 -1q-138 -59 -202.5 -115.5t-64.5 -118.5q0 -44 33.5 -73t84.5 -29q49 0 71 12z" />
    <glyph glyph-name="Wcircumflex" unicode="&#x174;" horiz-adv-x="1743" 
d="M1103 1341l-680 -1341h-48l-97 1443h49l90 -1342h4l680 1342h45l113 -1342h4l661 1342h54l-712 -1443h-46l-113 1341h-4zM1226 1841l197 -287h-55l-166 245h-3l-269 -245h-65l319 287h42z" />
    <glyph glyph-name="wcircumflex" unicode="&#x175;" horiz-adv-x="1380" 
d="M1546 1040l-525 -1040h-68l-94 980h-4l-511 -980h-69l-82 1040h48l76 -985h4l513 985h66l94 -985h4l493 985h55zM999 1555l188 -304h-57l-161 263h-2l-274 -263h-65l319 304h52z" />
    <glyph glyph-name="Ycircumflex" unicode="&#x176;" horiz-adv-x="1144" 
d="M548 0h-51l134 632l-354 811h54l331 -758h4l651 758h63l-699 -814zM928 1841l197 -287h-55l-166 245h-3l-269 -245h-65l319 287h42z" />
    <glyph glyph-name="ycircumflex" unicode="&#x177;" horiz-adv-x="872" 
d="M64 -349q-32 0 -56 6l9 44q28 -5 50 -5q69 0 123.5 44t115.5 149l56 94l-179 1057h50l166 -991h4l579 991h56l-689 -1173q-73 -123 -136 -169.5t-149 -46.5zM737 1555l188 -304h-57l-161 263h-2l-274 -263h-65l319 304h52z" />
    <glyph glyph-name="Ydieresis" unicode="&#x178;" horiz-adv-x="1144" 
d="M548 0h-51l134 632l-354 811h54l331 -758h4l651 758h63l-699 -814zM734 1601q-22 0 -38 16t-16 38t16 37.5t38 15.5t38 -15.5t16 -37.5t-16 -38t-38 -16zM1011 1601q-22 0 -38 16t-16 38t16 37.5t38 15.5t38 -15.5t16 -37.5q0 -23 -15.5 -38.5t-38.5 -15.5z" />
    <glyph glyph-name="Zacute" unicode="&#x179;" horiz-adv-x="1152" 
d="M16 0l9 42l1237 1351v4h-920l10 46h989l-9 -43l-1236 -1350v-4h949l-10 -46h-1019zM882 1554h-63l352 287h70z" />
    <glyph glyph-name="zacute" unicode="&#x17a;" horiz-adv-x="896" 
d="M8 0l10 46l904 945l1 4h-702l9 45h771l-10 -46l-904 -945l-1 -4h702l-9 -45h-771zM690 1251h-59l308 304h64z" />
    <glyph glyph-name="Zdotaccent" unicode="&#x17b;" horiz-adv-x="1152" 
d="M16 0l9 42l1237 1351v4h-920l10 46h989l-9 -43l-1236 -1350v-4h949l-10 -46h-1019zM888 1654q-26 0 -45.5 19t-19.5 44q0 26 19.5 45t45.5 19t45 -19t19 -45q0 -25 -19 -44t-45 -19z" />
    <glyph glyph-name="zdotaccent" unicode="&#x17c;" horiz-adv-x="896" 
d="M8 0l10 46l904 945l1 4h-702l9 45h771l-10 -46l-904 -945l-1 -4h702l-9 -45h-771zM670 1251q-26 0 -45 19t-19 44q0 26 19 45t45 19t45.5 -19t19.5 -45q0 -25 -19.5 -44t-45.5 -19z" />
    <glyph glyph-name="Zcaron" unicode="&#x17d;" horiz-adv-x="1152" 
d="M16 0l9 42l1237 1351v4h-920l10 46h989l-9 -43l-1236 -1350v-4h949l-10 -46h-1019zM838 1554l-196 287h56l165 -244h2l270 244h64l-318 -287h-43z" />
    <glyph glyph-name="zcaron" unicode="&#x17e;" horiz-adv-x="896" 
d="M8 0l10 46l904 945l1 4h-702l9 45h771l-10 -46l-904 -945l-1 -4h702l-9 -45h-771zM688 1251h-52l-187 304h57l160 -264h2l275 264h65z" />
    <glyph glyph-name="uni04D8" unicode="&#x18f;" horiz-adv-x="1374" 
d="M621 -20q-275 0 -401.5 184.5t-63.5 504.5q0 3 9 48h1170q3 6 3 21q40 318 -74.5 497.5t-392.5 179.5q-161 0 -307.5 -81t-233.5 -221h-51q87 158 251 254t348 96q201 0 327 -91.5t170 -252.5t13 -381q-31 -225 -143 -399t-274.5 -266.5t-349.5 -92.5zM623 28
q120 0 235.5 46.5t209 129.5t162 204t96.5 262h-1118q-21 -98 -21 -186q0 -218 111 -337t325 -119z" />
    <glyph glyph-name="uni04D8" unicode="&#x4d8;" horiz-adv-x="1374" 
d="M621 -20q-275 0 -401.5 184.5t-63.5 504.5q0 3 9 48h1170q3 6 3 21q40 318 -74.5 497.5t-392.5 179.5q-161 0 -307.5 -81t-233.5 -221h-51q87 158 251 254t348 96q201 0 327 -91.5t170 -252.5t13 -381q-31 -225 -143 -399t-274.5 -266.5t-349.5 -92.5zM623 28
q120 0 235.5 46.5t209 129.5t162 204t96.5 262h-1118q-21 -98 -21 -186q0 -218 111 -337t325 -119z" />
    <glyph glyph-name="florin" unicode="&#x192;" horiz-adv-x="1179" 
d="M174 -15q-106 0 -190 34l13 47q73 -33 173 -33q216 0 315 243l199 488h-422l10 45h429l153 374q113 280 362 280q93 0 186 -32l-11 -47q-86 32 -173 32q-106 0 -187.5 -62.5t-129.5 -181.5l-148 -363h442l-10 -45h-449l-203 -500q-114 -279 -359 -279z" />
    <glyph glyph-name="Ohorn" unicode="&#x1a0;" horiz-adv-x="1436" 
d="M1411 844q0 262 -137 418t-367 156q-141 0 -268 -64t-218 -173.5t-144.5 -261t-53.5 -320.5q0 -263 137 -417.5t368 -154.5q188 0 345 108t247.5 296t90.5 413zM1461 843q0 -239 -97 -437t-265.5 -312t-371.5 -114q-253 0 -403.5 167.5t-150.5 451.5q0 239 97 438
t265.5 313.5t371.5 114.5q80 0 148 -15.5t113 -38t84 -45t81 -38t85 -15.5q62 0 101.5 41.5t54.5 116.5l24 116h49l-26 -127q-39 -192 -203 -192q-59 0 -110 28v-4q73 -80 113 -196t40 -253z" />
    <glyph glyph-name="ohorn" unicode="&#x1a1;" horiz-adv-x="1131" 
d="M1070 623q0 -178 -68.5 -324t-191.5 -230.5t-275 -84.5q-188 0 -301.5 118t-113.5 315q0 175 68 321t190.5 232t274.5 86q67 0 123 -15t93 -36.5t69 -43t67.5 -36.5t72.5 -15q55 0 89 35.5t51 117.5l20 101h49l-25 -116q-36 -181 -178 -181q-52 0 -85 21v-4
q71 -105 71 -261zM169 418q0 -180 100.5 -284t268.5 -104q136 0 247 78.5t173 214t62 299.5q0 178 -100.5 283t-268.5 105q-136 0 -247.5 -80t-173 -215.5t-61.5 -296.5z" />
    <glyph glyph-name="Uhorn" unicode="&#x1af;" horiz-adv-x="1479" 
d="M654 -20q-223 0 -352.5 114t-129.5 309q0 70 14 137l194 903h51l-195 -906q-14 -67 -14 -130q1 -177 116.5 -278.5t319.5 -101.5q202 0 347.5 120t188.5 323l209 973h115q119 0 143 106l33 156h48l-35 -168q-16 -73 -61.5 -105.5t-130.5 -32.5h-71l-201 -935
q-49 -225 -206 -354.5t-383 -129.5z" />
    <glyph glyph-name="uhorn" unicode="&#x1b0;" horiz-adv-x="1204" 
d="M866 220q-63 -108 -165 -172t-229 -64q-154 0 -248.5 88t-94.5 223q0 47 11 105l136 640h50l-134 -629q-13 -59 -13 -106q0 -123 82 -199t220 -76q155 0 272 106t150 259l138 645h110q123 0 145 106l25 118h49l-29 -133q-15 -71 -60 -103t-128 -32h-71l-212 -996h-48
l47 220h-3z" />
    <glyph glyph-name="uni01C4" unicode="&#x1c4;" horiz-adv-x="2500" 
d="M387 1443h425q275 0 425 -149t150 -406q0 -192 -61 -356t-171 -281.5t-270 -184t-351 -66.5h-453zM429 1396l-286 -1349h391q238 0 422 108.5t282.5 298t98.5 428.5q0 242 -136 378t-395 136h-377zM1364 0l9 42l1237 1351v4h-920l10 46h989l-9 -43l-1236 -1350v-4h949
l-10 -46h-1019zM2186 1554l-196 287h56l165 -244h2l270 244h64l-318 -287h-43z" />
    <glyph glyph-name="uni01C5" unicode="&#x1c5;" horiz-adv-x="2244" 
d="M387 1443h425q275 0 425 -149t150 -406q0 -192 -61 -356t-171 -281.5t-270 -184t-351 -66.5h-453zM429 1396l-286 -1349h391q238 0 422 108.5t282.5 298t98.5 428.5q0 242 -136 378t-395 136h-377zM1356 0l10 46l904 945l1 4h-702l9 45h771l-10 -46l-904 -945l-1 -4h702
l-9 -45h-771zM2036 1251h-52l-187 304h57l160 -264h2l275 264h65z" />
    <glyph glyph-name="uni01C6" unicode="&#x1c6;" horiz-adv-x="1986" 
d="M490 -15q-167 0 -272.5 116t-105.5 300q0 131 44 252t117 209t173 140.5t208 52.5q151 0 254 -93t116 -243h4l154 724h51l-307 -1443h-51l54 253h-4q-66 -123 -184.5 -195.5t-250.5 -72.5zM499 30q140 0 254.5 84t177.5 221.5t63 296.5q0 172 -93.5 275t-248.5 103
q-127 0 -240.5 -83.5t-181.5 -223.5t-68 -297q0 -169 92.5 -272.5t244.5 -103.5zM1099 0l10 46l904 945l1 4h-702l9 45h771l-10 -46l-904 -945l-1 -4h702l-9 -45h-771zM1779 1251h-52l-187 304h57l160 -264h2l275 264h65z" />
    <glyph glyph-name="uni01C7" unicode="&#x1c7;" horiz-adv-x="1938" 
d="M915 47l-10 -47h-825l307 1443h50l-297 -1396h775zM1066 295q0 12 1 22h51q-1 -5 -1 -17q0 -122 84 -198.5t221 -76.5t232.5 87.5t128.5 243.5l231 1087h50l-235 -1108q-35 -168 -145 -262.5t-268 -94.5q-156 0 -253 88.5t-97 228.5z" />
    <glyph glyph-name="uni01C8" unicode="&#x1c8;" horiz-adv-x="1288" 
d="M915 47l-10 -47h-825l307 1443h50l-297 -1396h775zM1376 1259q-20 0 -34 13.5t-14 32.5q0 20 14 33.5t34 13.5q19 0 33 -13.5t14 -33.5q0 -19 -14 -32.5t-33 -13.5zM1340 1040l-245 -1157q-26 -123 -92.5 -177.5t-178.5 -54.5q-32 0 -67 3l10 45q27 -3 57 -3
q93 0 147 46.5t74 145.5l246 1152h49z" />
    <glyph glyph-name="uni01C9" unicode="&#x1c9;" horiz-adv-x="577" 
d="M70 0l307 1443h49l-307 -1443h-49zM664 1259q-20 0 -34 13.5t-14 32.5q0 20 14 33.5t34 13.5q19 0 33 -13.5t14 -33.5q0 -19 -14 -32.5t-33 -13.5zM628 1040l-245 -1157q-26 -123 -92.5 -177.5t-178.5 -54.5q-32 0 -67 3l10 45q27 -3 57 -3q93 0 147 46.5t74 145.5
l246 1152h49z" />
    <glyph glyph-name="uni01CA" unicode="&#x1ca;" horiz-adv-x="2268" 
d="M130 0h-50l307 1443h48l679 -1362h4l289 1362h50l-307 -1443h-48l-679 1362h-4zM1396 295q0 12 1 22h51q-1 -5 -1 -17q0 -122 84 -198.5t221 -76.5t232.5 87.5t128.5 243.5l231 1087h50l-235 -1108q-35 -168 -145 -262.5t-268 -94.5q-156 0 -253 88.5t-97 228.5z" />
    <glyph glyph-name="uni01CB" unicode="&#x1cb;" horiz-adv-x="1618" 
d="M130 0h-50l307 1443h48l679 -1362h4l289 1362h50l-307 -1443h-48l-679 1362h-4zM1706 1259q-20 0 -34 13.5t-14 32.5q0 20 14 33.5t34 13.5q19 0 33 -13.5t14 -33.5q0 -19 -14 -32.5t-33 -13.5zM1670 1040l-245 -1157q-26 -123 -92.5 -177.5t-178.5 -54.5q-32 0 -67 3
l10 45q27 -3 57 -3q93 0 147 46.5t74 145.5l246 1152h49z" />
    <glyph glyph-name="uni01CC" unicode="&#x1cc;" horiz-adv-x="1320" 
d="M63 0l221 1040h49l-47 -222h4q63 110 164 174t229 64q152 0 247.5 -88t95.5 -223q0 -54 -11 -105l-137 -640h-50l134 629q14 68 14 107q0 123 -82.5 198.5t-221.5 75.5q-154 0 -271 -106t-150 -259l-138 -645h-50zM1408 1259q-20 0 -34 13.5t-14 32.5q0 20 14 33.5
t34 13.5q19 0 33 -13.5t14 -33.5q0 -19 -14 -32.5t-33 -13.5zM1372 1040l-245 -1157q-26 -123 -92.5 -177.5t-178.5 -54.5q-32 0 -67 3l10 45q27 -3 57 -3q93 0 147 46.5t74 145.5l246 1152h49z" />
    <glyph glyph-name="Acaron" unicode="&#x1cd;" horiz-adv-x="1201" 
d="M844 1375l-489 -828h634l-141 828h-4zM1082 0l-86 502h-668l-299 -502h-59l861 1443h51l248 -1443h-48zM862 1554l-196 287h56l165 -244h2l270 244h64l-318 -287h-43z" />
    <glyph glyph-name="acaron" unicode="&#x1ce;" horiz-adv-x="966" 
d="M413 30q152 0 272.5 94t151.5 237l42 191l-363 -21q-184 -10 -283.5 -82t-99.5 -194q0 -101 77.5 -163t202.5 -62zM407 -15q-143 0 -233.5 74t-90.5 192q0 143 112.5 227t320.5 96l371 22l20 93q10 53 10 85q0 110 -76.5 173t-212.5 63q-144 0 -242 -70t-124 -191h-51
q29 140 142.5 223.5t277.5 83.5q153 0 244.5 -76t91.5 -202q0 -43 -10 -90l-147 -688h-49l44 204l-4 1q-57 -101 -164 -160.5t-230 -59.5zM704 1251h-52l-187 304h57l160 -264h2l275 264h65z" />
    <glyph glyph-name="Icaron" unicode="&#x1cf;" horiz-adv-x="311" 
d="M130 0h-50l307 1443h50zM418 1554l-196 287h56l165 -244h2l270 244h64l-318 -287h-43z" />
    <glyph glyph-name="icaron" unicode="&#x1d0;" horiz-adv-x="286" 
d="M68 0l221 1040h49l-221 -1040h-49zM386 1251h-52l-187 304h57l160 -264h2l275 264h65z" />
    <glyph glyph-name="Ocaron" unicode="&#x1d1;" horiz-adv-x="1436" 
d="M899 1416q-187 0 -342.5 -109t-245 -299t-89.5 -418q0 -257 142.5 -410t377.5 -153q187 0 342.5 109t245 299t89.5 418q0 257 -142.5 410t-377.5 153zM738 -20q-254 0 -410.5 165.5t-156.5 438.5q0 184 56.5 347.5t153.5 280t232.5 184t289.5 67.5q254 0 410 -165.5
t156 -438.5q0 -184 -56.5 -347.5t-153 -280t-232.5 -184t-289 -67.5zM910 1554l-196 287h56l165 -244h2l270 244h64l-318 -287h-43z" />
    <glyph glyph-name="ocaron" unicode="&#x1d2;" horiz-adv-x="1076" 
d="M540 30q135 0 246 77t174.5 211.5t63.5 299.5q0 177 -100.5 284.5t-268.5 107.5q-135 0 -246 -77t-174.5 -211.5t-63.5 -299.5q0 -177 101 -284.5t268 -107.5zM655 1056q190 0 304.5 -119.5t114.5 -316.5q0 -180 -69.5 -325.5t-191.5 -228t-273 -82.5
q-190 0 -304.5 119.5t-114.5 316.5q0 180 69.5 325.5t192 228t272.5 82.5zM773 1251h-52l-187 304h57l160 -264h2l275 264h65z" />
    <glyph glyph-name="Ucaron" unicode="&#x1d3;" horiz-adv-x="1337" 
d="M663 -20q-215 0 -347.5 117t-133.5 305q0 71 14 143l193 898h50l-193 -901q-13 -57 -13 -136q0 -170 119 -274.5t315 -104.5q208 0 349.5 115.5t185.5 318.5l211 982h50l-212 -988q-48 -226 -202 -350.5t-386 -124.5zM930 1554l-196 287h56l165 -244h2l270 244h64
l-318 -287h-43z" />
    <glyph glyph-name="ucaron" unicode="&#x1d4;" horiz-adv-x="1034" 
d="M1091 1040l-221 -1040h-48l47 220h-3q-63 -108 -165 -172t-229 -64q-154 0 -248.5 88t-94.5 223q0 47 11 105l137 640h49l-134 -629q-13 -59 -13 -106q0 -123 82 -199t220 -76q155 0 272.5 106t150.5 259l138 645h49zM738 1251h-52l-187 304h57l160 -264h2l275 264h65z
" />
    <glyph glyph-name="Udieresismacron" unicode="&#x1d5;" horiz-adv-x="1337" 
d="M663 -20q-215 0 -347.5 117t-133.5 305q0 71 14 143l193 898h50l-193 -901q-13 -57 -13 -136q0 -170 119 -274.5t315 -104.5q208 0 349.5 115.5t185.5 318.5l211 982h50l-212 -988q-48 -226 -202 -350.5t-386 -124.5zM820 1659q22 0 38 -15.5t16 -37.5t-16 -37.5
t-38 -15.5t-38 15.5t-16 37.5t16 37.5t38 15.5zM1310 1888l-9 -43h-582l10 43h581zM1096 1659q22 0 38 -15.5t16 -37.5t-16 -37.5t-38 -15.5t-38 15.5t-16 37.5t16 37.5t38 15.5z" />
    <glyph glyph-name="udieresismacron" unicode="&#x1d6;" horiz-adv-x="1034" 
d="M1091 1040l-221 -1040h-48l47 220h-3q-63 -108 -165 -172t-229 -64q-154 0 -248.5 88t-94.5 223q0 47 11 105l137 640h49l-134 -629q-13 -59 -13 -106q0 -123 82 -199t220 -76q155 0 272.5 106t150.5 259l138 645h49zM576 1218q-22 0 -38 15.5t-16 37.5t16 37.5t38 15.5
t38 -15.5t16 -37.5t-16 -37.5t-38 -15.5zM853 1218q-22 0 -38 15.5t-16 37.5t16 37.5t38 15.5t38 -15.5t16 -37.5t-16 -37.5t-38 -15.5zM1031 1591l-9 -44h-503l9 44h503z" />
    <glyph glyph-name="Udieresisacute" unicode="&#x1d7;" horiz-adv-x="1337" 
d="M663 -20q-215 0 -347.5 117t-133.5 305q0 71 14 143l193 898h50l-193 -901q-13 -57 -13 -136q0 -170 119 -274.5t315 -104.5q208 0 349.5 115.5t185.5 318.5l211 982h50l-212 -988q-48 -226 -202 -350.5t-386 -124.5zM934 1754l251 203h68l-255 -203h-64zM820 1553
q-22 0 -38 15.5t-16 37.5t16 37.5t38 15.5t38 -15.5t16 -37.5t-16 -37.5t-38 -15.5zM1096 1553q-22 0 -38 15.5t-16 37.5t16 37.5t38 15.5t38 -15.5t16 -37.5t-16 -37.5t-38 -15.5z" />
    <glyph glyph-name="udieresisacute" unicode="&#x1d8;" horiz-adv-x="1034" 
d="M1091 1040l-221 -1040h-48l47 220h-3q-63 -108 -165 -172t-229 -64q-154 0 -248.5 88t-94.5 223q0 47 11 105l137 640h49l-134 -629q-13 -59 -13 -106q0 -123 82 -199t220 -76q155 0 272.5 106t150.5 259l138 645h49zM727 1475l307 303h66l-314 -303h-59zM577 1217
q-22 0 -38 16t-16 38t16 37.5t38 15.5t38 -15.5t16 -37.5t-16 -38t-38 -16zM854 1217q-22 0 -38 16t-16 38t16 37.5t38 15.5t38 -15.5t16 -37.5q0 -23 -16 -38.5t-38 -15.5z" />
    <glyph glyph-name="Udieresiscaron" unicode="&#x1d9;" horiz-adv-x="1337" 
d="M663 -20q-215 0 -347.5 117t-133.5 305q0 71 14 143l193 898h50l-193 -901q-13 -57 -13 -136q0 -170 119 -274.5t315 -104.5q208 0 349.5 115.5t185.5 318.5l211 982h50l-212 -988q-48 -226 -202 -350.5t-386 -124.5zM972 1753l-220 204h64l180 -166h2l250 166h73
l-305 -204h-44zM820 1659q22 0 38 -15.5t16 -37.5t-16 -37.5t-38 -15.5t-38 15.5t-16 37.5t16 37.5t38 15.5zM1096 1659q22 0 38 -15.5t16 -37.5t-16 -37.5t-38 -15.5t-38 15.5t-16 37.5t16 37.5t38 15.5z" />
    <glyph glyph-name="udieresiscaron" unicode="&#x1da;" horiz-adv-x="1034" 
d="M1091 1040l-221 -1040h-48l47 220h-3q-63 -108 -165 -172t-229 -64q-154 0 -248.5 88t-94.5 223q0 47 11 105l137 640h49l-134 -629q-13 -59 -13 -106q0 -123 82 -199t220 -76q155 0 272.5 106t150.5 259l138 645h49zM576 1218q-22 0 -38 15.5t-16 37.5t16 37.5t38 15.5
t38 -15.5t16 -37.5t-16 -37.5t-38 -15.5zM853 1218q-22 0 -38 15.5t-16 37.5t16 37.5t38 15.5t38 -15.5t16 -37.5t-16 -37.5t-38 -15.5zM729 1473l-216 293h57l188 -253h2l297 253h65l-340 -293h-53z" />
    <glyph glyph-name="Udieresisgrave" unicode="&#x1db;" horiz-adv-x="1337" 
d="M663 -20q-215 0 -347.5 117t-133.5 305q0 71 14 143l193 898h50l-193 -901q-13 -57 -13 -136q0 -170 119 -274.5t315 -104.5q208 0 349.5 115.5t185.5 318.5l211 982h50l-212 -988q-48 -226 -202 -350.5t-386 -124.5zM1013 1754h-57l-187 203h63zM821 1553
q-22 0 -38 15.5t-16 37.5t16 37.5t38 15.5t38 -15.5t16 -37.5t-16 -37.5t-38 -15.5zM1097 1553q-22 0 -38 15.5t-16 37.5t16 37.5t38 15.5t38 -15.5t16 -37.5t-16 -37.5t-38 -15.5z" />
    <glyph glyph-name="udieresisgrave" unicode="&#x1dc;" horiz-adv-x="1034" 
d="M1091 1040l-221 -1040h-48l47 220h-3q-63 -108 -165 -172t-229 -64q-154 0 -248.5 88t-94.5 223q0 47 11 105l137 640h49l-134 -629q-13 -59 -13 -106q0 -123 82 -199t220 -76q155 0 272.5 106t150.5 259l138 645h49zM779 1475h-49l-191 303h53zM574 1217q-22 0 -38 16
t-16 38t16 37.5t38 15.5t38 -15.5t16 -37.5t-16 -38t-38 -16zM851 1217q-22 0 -38 16t-16 38t16 37.5t38 15.5t38 -15.5t16 -37.5q0 -23 -15.5 -38.5t-38.5 -15.5z" />
    <glyph glyph-name="uni04D9" unicode="&#x1dd;" horiz-adv-x="1039" 
d="M233 750h-51q47 143 165.5 224.5t281.5 81.5q185 0 294 -114t109 -307q0 -184 -69.5 -333t-192 -233.5t-274.5 -84.5q-176 0 -278.5 108.5t-102.5 293.5q0 71 16 137h841q11 71 11 106q0 176 -96.5 278.5t-261.5 102.5q-142 0 -244 -68t-148 -192zM499 30
q174 0 303.5 125t161.5 323h-792q-8 -32 -8 -91q0 -164 90 -260.5t245 -96.5z" />
    <glyph glyph-name="uni04D9" unicode="&#x4d9;" horiz-adv-x="1039" 
d="M233 750h-51q47 143 165.5 224.5t281.5 81.5q185 0 294 -114t109 -307q0 -184 -69.5 -333t-192 -233.5t-274.5 -84.5q-176 0 -278.5 108.5t-102.5 293.5q0 71 16 137h841q11 71 11 106q0 176 -96.5 278.5t-261.5 102.5q-142 0 -244 -68t-148 -192zM499 30
q174 0 303.5 125t161.5 323h-792q-8 -32 -8 -91q0 -164 90 -260.5t245 -96.5z" />
    <glyph glyph-name="uni04D9" unicode="&#x259;" horiz-adv-x="1039" 
d="M233 750h-51q47 143 165.5 224.5t281.5 81.5q185 0 294 -114t109 -307q0 -184 -69.5 -333t-192 -233.5t-274.5 -84.5q-176 0 -278.5 108.5t-102.5 293.5q0 71 16 137h841q11 71 11 106q0 176 -96.5 278.5t-261.5 102.5q-142 0 -244 -68t-148 -192zM499 30
q174 0 303.5 125t161.5 323h-792q-8 -32 -8 -91q0 -164 90 -260.5t245 -96.5z" />
    <glyph glyph-name="Adieresismacron" unicode="&#x1de;" horiz-adv-x="1201" 
d="M844 1375l-489 -828h634l-141 828h-4zM1082 0l-86 502h-668l-299 -502h-59l861 1443h51l248 -1443h-48zM752 1659q22 0 38 -15.5t16 -37.5t-16 -37.5t-38 -15.5t-38 15.5t-16 37.5t16 37.5t38 15.5zM1242 1888l-9 -43h-582l10 43h581zM1028 1659q22 0 38 -15.5t16 -37.5
t-16 -37.5t-38 -15.5t-38 15.5t-16 37.5t16 37.5t38 15.5z" />
    <glyph glyph-name="adieresismacron" unicode="&#x1df;" horiz-adv-x="966" 
d="M413 30q152 0 272.5 94t151.5 237l42 191l-363 -21q-184 -10 -283.5 -82t-99.5 -194q0 -101 77.5 -163t202.5 -62zM407 -15q-143 0 -233.5 74t-90.5 192q0 143 112.5 227t320.5 96l371 22l20 93q10 53 10 85q0 110 -76.5 173t-212.5 63q-144 0 -242 -70t-124 -191h-51
q29 140 142.5 223.5t277.5 83.5q153 0 244.5 -76t91.5 -202q0 -43 -10 -90l-147 -688h-49l44 204l-4 1q-57 -101 -164 -160.5t-230 -59.5zM542 1218q-22 0 -38 15.5t-16 37.5t16 37.5t38 15.5t38 -15.5t16 -37.5t-16 -37.5t-38 -15.5zM819 1218q-22 0 -38 15.5t-16 37.5
t16 37.5t38 15.5t38 -15.5t16 -37.5t-16 -37.5t-38 -15.5zM997 1591l-9 -44h-503l9 44h503z" />
    <glyph glyph-name="Adotmacron" unicode="&#x1e0;" horiz-adv-x="1201" 
d="M844 1375l-489 -828h634l-141 828h-4zM1082 0l-86 502h-668l-299 -502h-59l861 1443h51l248 -1443h-48zM893 1556q-26 0 -45 18.5t-19 44.5q0 25 19 44t45 19t45.5 -19t19.5 -44q0 -26 -19.5 -44.5t-45.5 -18.5zM1242 1888l-9 -43h-582l10 43h581z" />
    <glyph glyph-name="adotmacron" unicode="&#x1e1;" horiz-adv-x="966" 
d="M413 30q152 0 272.5 94t151.5 237l42 191l-363 -21q-184 -10 -283.5 -82t-99.5 -194q0 -101 77.5 -163t202.5 -62zM407 -15q-143 0 -233.5 74t-90.5 192q0 143 112.5 227t320.5 96l371 22l20 93q10 53 10 85q0 110 -76.5 173t-212.5 63q-144 0 -242 -70t-124 -191h-51
q29 140 142.5 223.5t277.5 83.5q153 0 244.5 -76t91.5 -202q0 -43 -10 -90l-147 -688h-49l44 204l-4 1q-57 -101 -164 -160.5t-230 -59.5zM683 1217q-26 0 -45 19t-19 44q0 26 19 44.5t45 18.5t45 -18.5t19 -44.5t-19 -44.5t-45 -18.5zM997 1591l-9 -44h-503l9 44h503z" />
    <glyph glyph-name="AEmacron" unicode="&#x1e2;" horiz-adv-x="1832" 
d="M1220 1397h-191l-674 -939h665zM922 0l88 411h-688l-294 -411h-59l1037 1443h982l-10 -47h-709l-134 -633h673l-11 -46h-673l-142 -670h709l-10 -47h-759zM1801 1659l-9 -44h-583l9 44h583z" />
    <glyph glyph-name="aemacron" unicode="&#x1e3;" horiz-adv-x="1801" 
d="M1295 -16q-159 0 -265.5 88.5t-130.5 238.5h-3q-29 -82 -83.5 -146.5t-120.5 -103t-136 -58t-137 -19.5q-143 0 -233 75t-90 192q0 142 110 219.5t319 88.5l385 20l23 110q11 47 11 85q0 110 -77 173t-212 63q-144 0 -245.5 -71.5t-125.5 -189.5h-51q27 139 143.5 223
t280.5 84q153 0 241 -75t91 -201h4q69 128 185.5 202t252.5 74q165 0 274 -116t109 -287q0 -57 -14 -123h-850q-12 -82 -12 -131q0 -167 98 -268t263 -101q132 0 230 54.5t144 153.5h51q-43 -117 -159 -185.5t-270 -68.5zM959 574h799q7 37 7 78q0 152 -95.5 255t-241.5 103
q-162 0 -292 -119t-177 -317zM425 30q156 0 282 95.5t157 235.5l38 175l-377 -21q-380 -22 -380 -260q0 -100 77.5 -162.5t202.5 -62.5zM1359 1346l-9 -44h-503l9 44h503z" />
    <glyph glyph-name="Gcaron" unicode="&#x1e6;" horiz-adv-x="1351" 
d="M1372 691l-40 -179q-56 -255 -214.5 -393.5t-392.5 -138.5q-249 0 -402.5 162t-153.5 423q0 248 92.5 453.5t257.5 325t368 119.5q218 0 360 -119.5t164 -319.5v-1h-50q-23 181 -151 287t-326 106q-185 0 -338.5 -113.5t-240 -307t-86.5 -424.5q0 -244 140 -394t369 -150
q211 0 357.5 129.5t198.5 361.5l29 127h-504l9 46h554zM887 1554l-196 287h56l165 -244h2l270 244h64l-318 -287h-43z" />
    <glyph glyph-name="gcaron" unicode="&#x1e7;" horiz-adv-x="1084" 
d="M454 -371q-171 0 -281.5 82.5t-112.5 196.5h50q8 -98 103.5 -166t245.5 -68q156 0 264.5 84t140.5 228l60 280h-4q-61 -124 -174 -195.5t-247 -71.5q-175 0 -279.5 113.5t-104.5 304.5q0 171 72 318t196 233.5t270 86.5q154 0 253.5 -92t109.5 -242h4l70 319h51
l-228 -1059q-36 -165 -158.5 -258.5t-300.5 -93.5zM506 45q134 0 244.5 78t173.5 213.5t63 298.5q0 172 -91 273.5t-245 101.5q-130 0 -242.5 -80.5t-178.5 -216.5t-66 -293q0 -174 91.5 -274.5t250.5 -100.5zM768 1251h-52l-187 304h57l160 -264h2l275 264h65z" />
    <glyph glyph-name="Kcaron" unicode="&#x1e8;" horiz-adv-x="1109" 
d="M130 0h-50l307 1443h50l-176 -828h4l952 828h72l-716 -623l479 -820h-57l-459 788l-293 -253zM775 1554l-196 287h56l165 -244h2l270 244h64l-318 -287h-43z" />
    <glyph glyph-name="kcaron" unicode="&#x1e9;" horiz-adv-x="861" 
d="M113 0h-50l307 1443h50l-202 -949h4l730 546h75l-596 -449l391 -591h-58l-374 564l-187 -142zM401 1554l-196 287h56l165 -244h2l270 244h64l-318 -287h-43z" />
    <glyph glyph-name="Oogonek" unicode="&#x1ea;" horiz-adv-x="1436" 
d="M858 -371q-27 -12 -73 -12q-68 0 -112 39.5t-44 100.5q0 67 46.5 118t163.5 116v4q-55 -15 -112 -15q-253 0 -403.5 168.5t-150.5 451.5q0 179 57 339t154.5 275t234 182t288.5 67q253 0 403.5 -168t150.5 -451q0 -257 -117.5 -471.5t-311.5 -316.5q-212 -109 -283 -167
t-71 -123q0 -45 34 -75t86 -30q48 0 69 12zM1411 845q0 261 -137 416t-367 155q-142 0 -268.5 -64t-217.5 -172.5t-144.5 -260t-53.5 -319.5q0 -262 137 -417.5t368 -155.5q141 0 268 64t217.5 173t144 260.5t53.5 320.5z" />
    <glyph glyph-name="oogonek" unicode="&#x1eb;" horiz-adv-x="1071" 
d="M587 -371q-26 -13 -75 -13q-66 0 -109.5 39t-43.5 99q0 63 47.5 117.5t156.5 111.5v4q-14 -2 -27 -2q-189 0 -302 117.5t-113 314.5q0 178 69.5 325t192 230.5t271.5 83.5q189 0 303 -118.5t114 -314.5q0 -204 -92 -366t-246 -232q-179 -80 -252 -140.5t-73 -123.5
q0 -44 33.5 -73t84.5 -29q49 0 70 12zM170 418q0 -178 99.5 -283t269.5 -105q135 0 245.5 78t173.5 213.5t63 300.5q0 178 -100 283t-269 105q-134 0 -244.5 -78t-174 -213.5t-63.5 -300.5z" />
    <glyph glyph-name="Oogonekmacron" unicode="&#x1ec;" horiz-adv-x="1436" 
d="M858 -371q-27 -12 -73 -12q-68 0 -112 39.5t-44 100.5q0 67 46.5 118t163.5 116v4q-55 -15 -112 -15q-253 0 -403.5 168.5t-150.5 451.5q0 179 57 339t154.5 275t234 182t288.5 67q253 0 403.5 -168t150.5 -451q0 -257 -117.5 -471.5t-311.5 -316.5q-212 -109 -283 -167
t-71 -123q0 -45 34 -75t86 -30q48 0 69 12zM1411 845q0 261 -137 416t-367 155q-142 0 -268.5 -64t-217.5 -172.5t-144.5 -260t-53.5 -319.5q0 -262 137 -417.5t368 -155.5q141 0 268 64t217.5 173t144 260.5t53.5 320.5zM1242 1659l-9 -44h-583l9 44h583z" />
    <glyph glyph-name="oogonekmacron" unicode="&#x1ed;" horiz-adv-x="1072" 
d="M587 -371q-26 -13 -75 -13q-66 0 -109.5 39t-43.5 99q0 63 47.5 117.5t156.5 111.5v4q-14 -2 -27 -2q-189 0 -302 117.5t-113 314.5q0 178 69.5 325t192 230.5t271.5 83.5q189 0 303 -118.5t114 -314.5q0 -204 -92 -366t-246 -232q-179 -80 -252 -140.5t-73 -123.5
q0 -44 33.5 -73t84.5 -29q49 0 70 12zM170 418q0 -178 99.5 -283t269.5 -105q135 0 245.5 78t173.5 213.5t63 300.5q0 178 -100 283t-269 105q-134 0 -244.5 -78t-174 -213.5t-63.5 -300.5zM1007 1346l-9 -44h-503l9 44h503z" />
    <glyph glyph-name="uni01F1" unicode="&#x1f1;" horiz-adv-x="2500" 
d="M387 1443h425q275 0 425 -149t150 -406q0 -192 -61 -356t-171 -281.5t-270 -184t-351 -66.5h-453zM429 1396l-286 -1349h391q238 0 422 108.5t282.5 298t98.5 428.5q0 242 -136 378t-395 136h-377zM1364 0l9 42l1237 1351v4h-920l10 46h989l-9 -43l-1236 -1350v-4h949
l-10 -46h-1019z" />
    <glyph glyph-name="uni01F2" unicode="&#x1f2;" horiz-adv-x="2244" 
d="M387 1443h425q275 0 425 -149t150 -406q0 -192 -61 -356t-171 -281.5t-270 -184t-351 -66.5h-453zM429 1396l-286 -1349h391q238 0 422 108.5t282.5 298t98.5 428.5q0 242 -136 378t-395 136h-377zM1356 0l10 46l904 945l1 4h-702l9 45h771l-10 -46l-904 -945l-1 -4h702
l-9 -45h-771z" />
    <glyph glyph-name="uni01F3" unicode="&#x1f3;" horiz-adv-x="1986" 
d="M490 -15q-167 0 -272.5 116t-105.5 300q0 131 44 252t117 209t173 140.5t208 52.5q151 0 254 -93t116 -243h4l154 724h51l-307 -1443h-51l54 253h-4q-66 -123 -184.5 -195.5t-250.5 -72.5zM499 30q140 0 254.5 84t177.5 221.5t63 296.5q0 172 -93.5 275t-248.5 103
q-127 0 -240.5 -83.5t-181.5 -223.5t-68 -297q0 -169 92.5 -272.5t244.5 -103.5zM1099 0l10 46l904 945l1 4h-702l9 45h771l-10 -46l-904 -945l-1 -4h702l-9 -45h-771z" />
    <glyph glyph-name="Gacute" unicode="&#x1f4;" horiz-adv-x="1351" 
d="M1372 691l-40 -179q-56 -255 -214.5 -393.5t-392.5 -138.5q-249 0 -402.5 162t-153.5 423q0 248 92.5 453.5t257.5 325t368 119.5q218 0 360 -119.5t164 -319.5v-1h-50q-23 181 -151 287t-326 106q-185 0 -338.5 -113.5t-240 -307t-86.5 -424.5q0 -244 140 -394t369 -150
q211 0 357.5 129.5t198.5 361.5l29 127h-504l9 46h554zM932 1554h-63l352 287h70z" />
    <glyph glyph-name="gacute" unicode="&#x1f5;" horiz-adv-x="1084" 
d="M454 -371q-171 0 -281.5 82.5t-112.5 196.5h50q8 -98 103.5 -166t245.5 -68q156 0 264.5 84t140.5 228l60 280h-4q-61 -124 -174 -195.5t-247 -71.5q-175 0 -279.5 113.5t-104.5 304.5q0 171 72 318t196 233.5t270 86.5q154 0 253.5 -92t109.5 -242h4l70 319h51
l-228 -1059q-36 -165 -158.5 -258.5t-300.5 -93.5zM506 45q134 0 244.5 78t173.5 213.5t63 298.5q0 172 -91 273.5t-245 101.5q-130 0 -242.5 -80.5t-178.5 -216.5t-66 -293q0 -174 91.5 -274.5t250.5 -100.5zM770 1251h-59l308 304h64z" />
    <glyph glyph-name="Ngrave" unicode="&#x1f8;" horiz-adv-x="1332" 
d="M130 0h-50l307 1443h48l679 -1362h4l289 1362h50l-307 -1443h-48l-679 1362h-4zM905 1554l-179 287h57l175 -287h-53z" />
    <glyph glyph-name="ngrave" unicode="&#x1f9;" horiz-adv-x="1034" 
d="M63 0l221 1040h49l-47 -222h4q63 110 164 174t229 64q152 0 247.5 -88t95.5 -223q0 -54 -11 -105l-137 -640h-50l134 629q14 68 14 107q0 123 -82.5 198.5t-221.5 75.5q-154 0 -271 -106t-150 -259l-138 -645h-50zM750 1251h-49l-184 304h55z" />
    <glyph glyph-name="Aringacute" unicode="&#x1fa;" horiz-adv-x="1201" 
d="M844 1375l-489 -828h634l-141 828h-4zM1082 0l-86 502h-668l-299 -502h-59l861 1443h51l248 -1443h-48zM910 1527q-68 0 -116 48t-48 115q0 68 48 116.5t116 48.5t116 -48t48 -116q0 -67 -48 -115.5t-116 -48.5zM910 1565q53 0 89 36.5t36 89.5t-36 89t-89 36t-89 -36.5
t-36 -89.5t36 -89t89 -36zM1110 2083h66l-191 -162h-60z" />
    <glyph glyph-name="aringacute" unicode="&#x1fb;" horiz-adv-x="966" 
d="M413 30q152 0 272.5 94t151.5 237l42 191l-363 -21q-184 -10 -283.5 -82t-99.5 -194q0 -101 77.5 -163t202.5 -62zM407 -15q-143 0 -233.5 74t-90.5 192q0 143 112.5 227t320.5 96l371 22l20 93q10 53 10 85q0 110 -76.5 173t-212.5 63q-144 0 -242 -70t-124 -191h-51
q29 140 142.5 223.5t277.5 83.5q153 0 244.5 -76t91.5 -202q0 -43 -10 -90l-147 -688h-49l44 204l-4 1q-57 -101 -164 -160.5t-230 -59.5zM698 1604l193 165h68l-201 -165h-60zM701 1197q-68 0 -116 48t-48 116t48.5 117t116.5 49t116 -48.5t47 -116.5q0 -68 -48 -116.5
t-116 -48.5zM576 1361q0 -53 36 -89.5t89 -36.5q54 0 90 36.5t36 90.5q0 53 -36 89.5t-89 36.5q-54 0 -90 -36.5t-36 -90.5z" />
    <glyph glyph-name="AEacute" unicode="&#x1fc;" horiz-adv-x="1832" 
d="M1220 1397h-191l-674 -939h665zM922 0l88 411h-688l-294 -411h-59l1037 1443h982l-10 -47h-709l-134 -633h673l-11 -46h-673l-142 -670h709l-10 -47h-759zM1514 1554h-63l352 287h70z" />
    <glyph glyph-name="aeacute" unicode="&#x1fd;" horiz-adv-x="1801" 
d="M1295 -16q-159 0 -265.5 88.5t-130.5 238.5h-3q-29 -82 -83.5 -146.5t-120.5 -103t-136 -58t-137 -19.5q-143 0 -233 75t-90 192q0 142 110 219.5t319 88.5l385 20l23 110q11 47 11 85q0 110 -77 173t-212 63q-144 0 -245.5 -71.5t-125.5 -189.5h-51q27 139 143.5 223
t280.5 84q153 0 241 -75t91 -201h4q69 128 185.5 202t252.5 74q165 0 274 -116t109 -287q0 -57 -14 -123h-850q-12 -82 -12 -131q0 -167 98 -268t263 -101q132 0 230 54.5t144 153.5h51q-43 -117 -159 -185.5t-270 -68.5zM959 574h799q7 37 7 78q0 152 -95.5 255t-241.5 103
q-162 0 -292 -119t-177 -317zM425 30q156 0 282 95.5t157 235.5l38 175l-377 -21q-380 -22 -380 -260q0 -100 77.5 -162.5t202.5 -62.5zM1119 1251h-59l308 304h64z" />
    <glyph glyph-name="Oslashacute" unicode="&#x1fe;" horiz-adv-x="1436" 
d="M1314 1841l-359 -287h-63l352 287h70zM1327 1198l-988 -988q144 -183 403 -183q187 0 342.5 109t245 299t89.5 418q0 203 -92 345zM314 245l988 988q-144 183 -403 183q-187 0 -342.5 -109t-245 -299t-89.5 -418q0 -203 92 -345zM1528 1399l-165 -165q106 -154 106 -375
q0 -184 -56.5 -347.5t-153 -280t-232.5 -184t-289 -67.5q-136 0 -247.5 50t-187.5 143l-159 -159l-31 30l164 164q-106 156 -106 376q0 184 56.5 347.5t153.5 280t232.5 184t289.5 67.5q136 0 247 -50.5t187 -143.5l160 160z" />
    <glyph glyph-name="oslashacute" unicode="&#x1ff;" horiz-adv-x="1076" 
d="M1088 1555l-313 -304h-59l308 304h64zM961 854l-702 -702q103 -122 281 -122q135 0 246 77t174.5 211.5t63.5 299.5q0 139 -63 236zM234 186l702 702q-100 122 -281 122q-135 0 -246 -77t-174.5 -211.5t-63.5 -299.5q0 -139 63 -236zM1113 1006l-116 -116
q77 -109 77 -270q0 -180 -69.5 -325.5t-191.5 -228t-273 -82.5q-202 0 -316 133l-112 -112l-30 29l116 116q-77 109 -77 270q0 180 69.5 325.5t192 228t272.5 82.5q202 0 316 -133l112 112z" />
    <glyph glyph-name="Adblgrave" unicode="&#x200;" horiz-adv-x="1201" 
d="M844 1375l-489 -828h634l-141 828h-4zM1082 0l-86 502h-668l-299 -502h-59l861 1443h51l248 -1443h-48zM726 1554l-179 287h57l175 -287h-53zM981 1554l-179 287h57l175 -287h-53z" />
    <glyph glyph-name="adblgrave" unicode="&#x201;" horiz-adv-x="966" 
d="M413 30q152 0 272.5 94t151.5 237l42 191l-363 -21q-184 -10 -283.5 -82t-99.5 -194q0 -101 77.5 -163t202.5 -62zM407 -15q-143 0 -233.5 74t-90.5 192q0 143 112.5 227t320.5 96l371 22l20 93q10 53 10 85q0 110 -76.5 173t-212.5 63q-144 0 -242 -70t-124 -191h-51
q29 140 142.5 223.5t277.5 83.5q153 0 244.5 -76t91.5 -202q0 -43 -10 -90l-147 -688h-49l44 204l-4 1q-57 -101 -164 -160.5t-230 -59.5zM602 1251h-50l-182 304h54zM823 1251h-50l-182 304h55z" />
    <glyph glyph-name="Ainvertedbreve" unicode="&#x202;" horiz-adv-x="1201" 
d="M844 1375l-489 -828h634l-141 828h-4zM1082 0l-86 502h-668l-299 -502h-59l861 1443h51l248 -1443h-48zM1148 1553h-46q2 2 2 21q0 69 -55 111.5t-145 42.5t-152 -48.5t-69 -126.5h-46q7 96 83.5 157t188.5 61q106 0 174 -54t68 -139q0 -19 -3 -25z" />
    <glyph glyph-name="ainvertedbreve" unicode="&#x203;" horiz-adv-x="966" 
d="M413 30q152 0 272.5 94t151.5 237l42 191l-363 -21q-184 -10 -283.5 -82t-99.5 -194q0 -101 77.5 -163t202.5 -62zM407 -15q-143 0 -233.5 74t-90.5 192q0 143 112.5 227t320.5 96l371 22l20 93q10 53 10 85q0 110 -76.5 173t-212.5 63q-144 0 -242 -70t-124 -191h-51
q29 140 142.5 223.5t277.5 83.5q153 0 244.5 -76t91.5 -202q0 -43 -10 -90l-147 -688h-49l44 204l-4 1q-57 -101 -164 -160.5t-230 -59.5zM934 1217h-46q2 2 2 21q0 76 -54.5 124.5t-146.5 48.5q-90 0 -150 -54.5t-69 -139.5h-46q10 103 84.5 170t185.5 67q108 0 175 -60.5
t67 -151.5q0 -21 -2 -25z" />
    <glyph glyph-name="Edblgrave" unicode="&#x204;" horiz-adv-x="1038" 
d="M916 47l-10 -47h-826l307 1443h826l-10 -47h-776l-134 -632h740l-11 -46h-739l-142 -671h775zM670 1554l-179 287h57l175 -287h-53zM925 1554l-179 287h57l175 -287h-53z" />
    <glyph glyph-name="edblgrave" unicode="&#x205;" horiz-adv-x="1017" 
d="M183 562h792q9 36 9 91q0 163 -90.5 260t-245.5 97q-174 0 -303.5 -125t-161.5 -323zM518 -16q-185 0 -294 114t-109 307q0 183 69.5 332.5t192.5 234t274 84.5q176 0 278.5 -108.5t102.5 -293.5q0 -78 -16 -137h-841q-10 -64 -10 -107q0 -175 96.5 -277.5t260.5 -102.5
q142 0 244.5 68t147.5 192h52q-48 -143 -166.5 -224.5t-281.5 -81.5zM660 1251h-50l-182 304h54zM881 1251h-50l-182 304h55z" />
    <glyph glyph-name="Einvertedbreve" unicode="&#x206;" horiz-adv-x="1038" 
d="M916 47l-10 -47h-826l307 1443h826l-10 -47h-776l-134 -632h740l-11 -46h-739l-142 -671h775zM1092 1553h-46q2 2 2 21q0 69 -55 111.5t-145 42.5t-152 -48.5t-69 -126.5h-46q7 96 83.5 157t188.5 61q106 0 174 -54t68 -139q0 -19 -3 -25z" />
    <glyph glyph-name="einvertedbreve" unicode="&#x207;" horiz-adv-x="1017" 
d="M183 562h792q9 36 9 91q0 163 -90.5 260t-245.5 97q-174 0 -303.5 -125t-161.5 -323zM518 -16q-185 0 -294 114t-109 307q0 183 69.5 332.5t192.5 234t274 84.5q176 0 278.5 -108.5t102.5 -293.5q0 -78 -16 -137h-841q-10 -64 -10 -107q0 -175 96.5 -277.5t260.5 -102.5
q142 0 244.5 68t147.5 192h52q-48 -143 -166.5 -224.5t-281.5 -81.5zM992 1217h-46q2 2 2 21q0 76 -54.5 124.5t-146.5 48.5q-90 0 -150 -54.5t-69 -139.5h-46q10 103 84.5 170t185.5 67q108 0 175 -60.5t67 -151.5q0 -21 -2 -25z" />
    <glyph glyph-name="Idblgrave" unicode="&#x208;" horiz-adv-x="311" 
d="M130 0h-50l307 1443h50zM281 1554l-179 287h57l175 -287h-53zM536 1554l-179 287h57l175 -287h-53z" />
    <glyph glyph-name="idblgrave" unicode="&#x209;" horiz-adv-x="286" 
d="M68 0l221 1040h49l-221 -1040h-49zM284 1251h-50l-182 304h54zM505 1251h-50l-182 304h55z" />
    <glyph glyph-name="Iinvertedbreve" unicode="&#x20a;" horiz-adv-x="311" 
d="M130 0h-50l307 1443h50zM704 1553h-46q2 2 2 21q0 69 -55 111.5t-145 42.5t-152 -48.5t-69 -126.5h-46q7 96 83.5 157t188.5 61q106 0 174 -54t68 -139q0 -19 -3 -25z" />
    <glyph glyph-name="iinvertedbreve" unicode="&#x20b;" horiz-adv-x="286" 
d="M68 0l221 1040h49l-221 -1040h-49zM616 1217h-46q2 2 2 21q0 76 -54.5 124.5t-146.5 48.5q-90 0 -150 -54.5t-69 -139.5h-46q10 103 84.5 170t185.5 67q108 0 175 -60.5t67 -151.5q0 -21 -2 -25z" />
    <glyph glyph-name="Odblgrave" unicode="&#x20c;" horiz-adv-x="1436" 
d="M899 1416q-187 0 -342.5 -109t-245 -299t-89.5 -418q0 -257 142.5 -410t377.5 -153q187 0 342.5 109t245 299t89.5 418q0 257 -142.5 410t-377.5 153zM738 -20q-254 0 -410.5 165.5t-156.5 438.5q0 184 56.5 347.5t153.5 280t232.5 184t289.5 67.5q254 0 410 -165.5
t156 -438.5q0 -184 -56.5 -347.5t-153 -280t-232.5 -184t-289 -67.5zM773 1554l-179 287h57l175 -287h-53zM1028 1554l-179 287h57l175 -287h-53z" />
    <glyph glyph-name="odblgrave" unicode="&#x20d;" horiz-adv-x="1076" 
d="M540 30q135 0 246 77t174.5 211.5t63.5 299.5q0 177 -100.5 284.5t-268.5 107.5q-135 0 -246 -77t-174.5 -211.5t-63.5 -299.5q0 -177 101 -284.5t268 -107.5zM655 1056q190 0 304.5 -119.5t114.5 -316.5q0 -180 -69.5 -325.5t-191.5 -228t-273 -82.5
q-190 0 -304.5 119.5t-114.5 316.5q0 180 69.5 325.5t192 228t272.5 82.5zM671 1251h-50l-182 304h54zM892 1251h-50l-182 304h55z" />
    <glyph glyph-name="Oinvertedbreve" unicode="&#x20e;" horiz-adv-x="1436" 
d="M899 1416q-187 0 -342.5 -109t-245 -299t-89.5 -418q0 -257 142.5 -410t377.5 -153q187 0 342.5 109t245 299t89.5 418q0 257 -142.5 410t-377.5 153zM738 -20q-254 0 -410.5 165.5t-156.5 438.5q0 184 56.5 347.5t153.5 280t232.5 184t289.5 67.5q254 0 410 -165.5
t156 -438.5q0 -184 -56.5 -347.5t-153 -280t-232.5 -184t-289 -67.5zM1196 1553h-46q2 2 2 21q0 69 -55 111.5t-145 42.5t-152 -48.5t-69 -126.5h-46q7 96 83.5 157t188.5 61q106 0 174 -54t68 -139q0 -19 -3 -25z" />
    <glyph glyph-name="oinvertedbreve" unicode="&#x20f;" horiz-adv-x="1076" 
d="M540 30q135 0 246 77t174.5 211.5t63.5 299.5q0 177 -100.5 284.5t-268.5 107.5q-135 0 -246 -77t-174.5 -211.5t-63.5 -299.5q0 -177 101 -284.5t268 -107.5zM655 1056q190 0 304.5 -119.5t114.5 -316.5q0 -180 -69.5 -325.5t-191.5 -228t-273 -82.5
q-190 0 -304.5 119.5t-114.5 316.5q0 180 69.5 325.5t192 228t272.5 82.5zM1003 1217h-46q2 2 2 21q0 76 -54.5 124.5t-146.5 48.5q-90 0 -150 -54.5t-69 -139.5h-46q10 103 84.5 170t185.5 67q108 0 175 -60.5t67 -151.5q0 -21 -2 -25z" />
    <glyph glyph-name="Rdblgrave" unicode="&#x210;" horiz-adv-x="1142" 
d="M80 0l312 1443h394q207 0 320 -97.5t113 -264.5q0 -182 -117 -299.5t-320 -143.5l244 -638h-53l-242 632h-39h-425l-137 -632h-50zM432 1396l-155 -717h422q209 0 339.5 110.5t130.5 287.5q0 148 -100 233.5t-286 85.5h-351zM602 1554l-179 287h57l175 -287h-53z
M857 1554l-179 287h57l175 -287h-53z" />
    <glyph glyph-name="rdblgrave" unicode="&#x211;" horiz-adv-x="598" 
d="M63 0l221 1040h49l-41 -191h4q113 206 300 206q88 0 139 -29l-12 -50q-41 33 -134 33q-116 0 -210.5 -103.5t-130.5 -271.5l-135 -634h-50zM480 1251h-50l-182 304h54zM701 1251h-50l-182 304h55z" />
    <glyph glyph-name="Rinvertedbreve" unicode="&#x212;" horiz-adv-x="1142" 
d="M80 0l312 1443h394q207 0 320 -97.5t113 -264.5q0 -182 -117 -299.5t-320 -143.5l244 -638h-53l-242 632h-39h-425l-137 -632h-50zM432 1396l-155 -717h422q209 0 339.5 110.5t130.5 287.5q0 148 -100 233.5t-286 85.5h-351zM1024 1553h-46q2 2 2 21q0 69 -55 111.5
t-145 42.5t-152 -48.5t-69 -126.5h-46q7 96 83.5 157t188.5 61q106 0 174 -54t68 -139q0 -19 -3 -25z" />
    <glyph glyph-name="rinvertedbreve" unicode="&#x213;" horiz-adv-x="598" 
d="M63 0l221 1040h49l-41 -191h4q113 206 300 206q88 0 139 -29l-12 -50q-41 33 -134 33q-116 0 -210.5 -103.5t-130.5 -271.5l-135 -634h-50zM811 1217h-46q2 2 2 21q0 76 -54.5 124.5t-146.5 48.5q-90 0 -150 -54.5t-69 -139.5h-46q10 103 84.5 170t185.5 67
q108 0 175 -60.5t67 -151.5q0 -21 -2 -25z" />
    <glyph glyph-name="Udblgrave" unicode="&#x214;" horiz-adv-x="1337" 
d="M663 -20q-215 0 -347.5 117t-133.5 305q0 71 14 143l193 898h50l-193 -901q-13 -57 -13 -136q0 -170 119 -274.5t315 -104.5q208 0 349.5 115.5t185.5 318.5l211 982h50l-212 -988q-48 -226 -202 -350.5t-386 -124.5zM794 1554l-179 287h57l175 -287h-53zM1049 1554
l-179 287h57l175 -287h-53z" />
    <glyph glyph-name="udblgrave" unicode="&#x215;" horiz-adv-x="1034" 
d="M1091 1040l-221 -1040h-48l47 220h-3q-63 -108 -165 -172t-229 -64q-154 0 -248.5 88t-94.5 223q0 47 11 105l137 640h49l-134 -629q-13 -59 -13 -106q0 -123 82 -199t220 -76q155 0 272.5 106t150.5 259l138 645h49zM636 1251h-50l-182 304h54zM857 1251h-50l-182 304
h55z" />
    <glyph glyph-name="Uinvertedbreve" unicode="&#x216;" horiz-adv-x="1337" 
d="M663 -20q-215 0 -347.5 117t-133.5 305q0 71 14 143l193 898h50l-193 -901q-13 -57 -13 -136q0 -170 119 -274.5t315 -104.5q208 0 349.5 115.5t185.5 318.5l211 982h50l-212 -988q-48 -226 -202 -350.5t-386 -124.5zM1216 1553h-46q2 2 2 21q0 69 -55 111.5t-145 42.5
t-152 -48.5t-69 -126.5h-46q7 96 83.5 157t188.5 61q106 0 174 -54t68 -139q0 -19 -3 -25z" />
    <glyph glyph-name="uinvertedbreve" unicode="&#x217;" horiz-adv-x="1034" 
d="M1091 1040l-221 -1040h-48l47 220h-3q-63 -108 -165 -172t-229 -64q-154 0 -248.5 88t-94.5 223q0 47 11 105l137 640h49l-134 -629q-13 -59 -13 -106q0 -123 82 -199t220 -76q155 0 272.5 106t150.5 259l138 645h49zM968 1217h-46q2 2 2 21q0 76 -54.5 124.5
t-146.5 48.5q-90 0 -150 -54.5t-69 -139.5h-46q10 103 84.5 170t185.5 67q108 0 175 -60.5t67 -151.5q0 -21 -2 -25z" />
    <glyph glyph-name="Scommaaccent" unicode="&#x218;" horiz-adv-x="1187" 
d="M114 401h50q8 -167 140 -270.5t337 -103.5q195 0 315 96.5t120 254.5q0 106 -67 178.5t-219 132.5l-130 51q-186 74 -265.5 157t-79.5 206q0 159 128.5 259.5t331.5 100.5q201 0 335 -110t146 -285h-50q-12 153 -132 250.5t-300 97.5t-294 -87.5t-114 -224.5
q0 -107 72 -179.5t243 -139.5l133 -52q165 -64 239 -147.5t74 -206.5q0 -177 -134.5 -288t-352.5 -111q-228 0 -373.5 116.5t-152.5 304.5zM438 -475h-45l173 337h58z" />
    <glyph glyph-name="scommaaccent" unicode="&#x219;" horiz-adv-x="915" 
d="M233 780q0 120 99.5 198t255.5 78q150 0 250 -84t113 -218h-49q-14 114 -100 185.5t-218 71.5q-130 0 -215.5 -65t-85.5 -163q0 -74 50.5 -123.5t166.5 -90.5l89 -32q143 -50 203 -111t60 -158q0 -126 -103 -205t-267 -79q-166 0 -279.5 87.5t-127.5 227.5h51
q16 -121 115 -195.5t244 -74.5q140 0 228.5 67t88.5 171q0 81 -52.5 131.5t-186.5 96.5l-90 33q-124 43 -182 104t-58 148zM261 -475h-45l173 337h58z" />
    <glyph glyph-name="Tcommaaccent" unicode="&#x21a;" horiz-adv-x="1143" 
d="M546 0h-50l297 1396h-521l10 47h1092l-10 -47h-521zM338 -475h-45l173 337h58z" />
    <glyph glyph-name="tcommaaccent" unicode="&#x21b;" horiz-adv-x="511" 
d="M368 -1q-100 0 -156 42.5t-56 121.5q0 36 11 89l158 743h-150l9 45h151l59 279h50l-59 -279h225l-10 -45h-225l-157 -742q-11 -44 -11 -76q0 -64 44 -98t125 -34q56 0 58 1l-10 -46q-1 0 -28 -0.5t-28 -0.5zM109 -475h-45l173 337h58z" />
    <glyph glyph-name="Hcaron" unicode="&#x21e;" horiz-adv-x="1310" 
d="M1128 0h-50l153 718h-948l-153 -718h-50l307 1443h50l-144 -678h948l144 678h50zM916 1554l-196 287h56l165 -244h2l270 244h64l-318 -287h-43z" />
    <glyph glyph-name="hcaron" unicode="&#x21f;" horiz-adv-x="1040" 
d="M63 0l310 1443h50l-133 -620h4q62 107 161.5 169.5t226.5 62.5q155 0 251 -89t96 -229q0 -49 -9 -97l-139 -640h-48l135 629q11 60 11 98q0 128 -84 205.5t-223 77.5q-155 0 -271 -105.5t-149 -259.5l-139 -645h-50zM403 1554l-196 287h56l165 -244h2l270 244h64
l-318 -287h-43z" />
    <glyph glyph-name="Adotaccent" unicode="&#x226;" horiz-adv-x="1201" 
d="M844 1375l-489 -828h634l-141 828h-4zM1082 0l-86 502h-668l-299 -502h-59l861 1443h51l248 -1443h-48zM912 1654q-26 0 -45.5 19t-19.5 44q0 26 19.5 45t45.5 19t45 -19t19 -45q0 -25 -19 -44t-45 -19z" />
    <glyph glyph-name="adotaccent" unicode="&#x227;" horiz-adv-x="966" 
d="M413 30q152 0 272.5 94t151.5 237l42 191l-363 -21q-184 -10 -283.5 -82t-99.5 -194q0 -101 77.5 -163t202.5 -62zM407 -15q-143 0 -233.5 74t-90.5 192q0 143 112.5 227t320.5 96l371 22l20 93q10 53 10 85q0 110 -76.5 173t-212.5 63q-144 0 -242 -70t-124 -191h-51
q29 140 142.5 223.5t277.5 83.5q153 0 244.5 -76t91.5 -202q0 -43 -10 -90l-147 -688h-49l44 204l-4 1q-57 -101 -164 -160.5t-230 -59.5zM686 1251q-26 0 -45 19t-19 44q0 26 19 45t45 19t45.5 -19t19.5 -45q0 -25 -19.5 -44t-45.5 -19z" />
    <glyph glyph-name="Ecedilla" unicode="&#x228;" horiz-adv-x="1038" 
d="M1203 1396h-776l-134 -632h740l-11 -46h-739l-142 -671h775l-10 -47h-368l-93 -141q87 -7 135 -46t48 -106q0 -78 -56.5 -124t-147.5 -46q-94 0 -165 41l9 44q67 -40 157 -40q69 0 112 32t43 89q0 103 -142 116l-50 5l8 33l96 143h-412l307 1443h826z" />
    <glyph glyph-name="ecedilla" unicode="&#x229;" horiz-adv-x="1017" 
d="M183 562h792q9 36 9 91q0 163 -90.5 260t-245.5 97q-174 0 -303.5 -125t-161.5 -323zM1016 517h-841q-10 -64 -10 -107q0 -175 96.5 -277.5t260.5 -102.5q142 0 244.5 68t147.5 192h52q-48 -143 -166.5 -224.5t-281.5 -81.5h-22l-83 -125q87 -7 135 -46t48 -106
q0 -78 -56.5 -124t-147.5 -46q-94 0 -165 41l9 44q67 -40 157 -40q69 0 112 32t43 89q0 103 -142 116l-50 5l8 33l88 131q-157 20 -247 131.5t-90 285.5q0 183 69.5 332.5t192.5 234t274 84.5q176 0 278.5 -108.5t102.5 -293.5q0 -78 -16 -137z" />
    <glyph glyph-name="Odieresismacron" unicode="&#x22a;" horiz-adv-x="1436" 
d="M899 1416q-187 0 -342.5 -109t-245 -299t-89.5 -418q0 -257 142.5 -410t377.5 -153q187 0 342.5 109t245 299t89.5 418q0 257 -142.5 410t-377.5 153zM738 -20q-254 0 -410.5 165.5t-156.5 438.5q0 184 56.5 347.5t153.5 280t232.5 184t289.5 67.5q254 0 410 -165.5
t156 -438.5q0 -184 -56.5 -347.5t-153 -280t-232.5 -184t-289 -67.5zM800 1659q22 0 38 -15.5t16 -37.5t-16 -37.5t-38 -15.5t-38 15.5t-16 37.5t16 37.5t38 15.5zM1290 1888l-9 -43h-582l10 43h581zM1076 1659q22 0 38 -15.5t16 -37.5t-16 -37.5t-38 -15.5t-38 15.5
t-16 37.5t16 37.5t38 15.5z" />
    <glyph glyph-name="odieresismacron" unicode="&#x22b;" horiz-adv-x="1076" 
d="M540 30q135 0 246 77t174.5 211.5t63.5 299.5q0 177 -100.5 284.5t-268.5 107.5q-135 0 -246 -77t-174.5 -211.5t-63.5 -299.5q0 -177 101 -284.5t268 -107.5zM655 1056q190 0 304.5 -119.5t114.5 -316.5q0 -180 -69.5 -325.5t-191.5 -228t-273 -82.5
q-190 0 -304.5 119.5t-114.5 316.5q0 180 69.5 325.5t192 228t272.5 82.5zM611 1218q-22 0 -38 15.5t-16 37.5t16 37.5t38 15.5t38 -15.5t16 -37.5t-16 -37.5t-38 -15.5zM888 1218q-22 0 -38 15.5t-16 37.5t16 37.5t38 15.5t38 -15.5t16 -37.5t-16 -37.5t-38 -15.5z
M1066 1591l-9 -44h-503l9 44h503z" />
    <glyph glyph-name="Otildemacron" unicode="&#x22c;" horiz-adv-x="1436" 
d="M899 1416q-187 0 -342.5 -109t-245 -299t-89.5 -418q0 -257 142.5 -410t377.5 -153q187 0 342.5 109t245 299t89.5 418q0 257 -142.5 410t-377.5 153zM738 -20q-254 0 -410.5 165.5t-156.5 438.5q0 184 56.5 347.5t153.5 280t232.5 184t289.5 67.5q254 0 410 -165.5
t156 -438.5q0 -184 -56.5 -347.5t-153 -280t-232.5 -184t-289 -67.5zM1290 1888l-9 -43h-582l10 43h581zM1049 1552q-28 0 -50.5 11.5t-35.5 28t-26.5 36.5t-25 36.5t-29.5 28t-40 11.5q-40 0 -76.5 -38.5t-49.5 -94.5h-42q16 77 64.5 125t108.5 48q40 0 69 -24t43 -52
t38.5 -52t55.5 -24q41 0 77 38t49 95h43q-19 -77 -66.5 -125t-106.5 -48z" />
    <glyph glyph-name="otildemacron" unicode="&#x22d;" horiz-adv-x="1076" 
d="M540 30q135 0 246 77t174.5 211.5t63.5 299.5q0 177 -100.5 284.5t-268.5 107.5q-135 0 -246 -77t-174.5 -211.5t-63.5 -299.5q0 -177 101 -284.5t268 -107.5zM655 1056q190 0 304.5 -119.5t114.5 -316.5q0 -180 -69.5 -325.5t-191.5 -228t-273 -82.5
q-190 0 -304.5 119.5t-114.5 316.5q0 180 69.5 325.5t192 228t272.5 82.5zM886 1196q-36 0 -66.5 17.5t-52 42t-42 49t-47 42t-56.5 17.5q-46 0 -82.5 -41.5t-50.5 -114.5h-44q15 93 64 146t116 53q36 0 66.5 -17t52 -41.5t42 -49.5t47 -42t56.5 -17q44 0 78.5 41t49.5 114
h44q-19 -97 -65 -148t-110 -51zM1066 1591l-9 -44h-503l9 44h503z" />
    <glyph glyph-name="Odotaccent" unicode="&#x22e;" horiz-adv-x="1436" 
d="M899 1416q-187 0 -342.5 -109t-245 -299t-89.5 -418q0 -257 142.5 -410t377.5 -153q187 0 342.5 109t245 299t89.5 418q0 257 -142.5 410t-377.5 153zM738 -20q-254 0 -410.5 165.5t-156.5 438.5q0 184 56.5 347.5t153.5 280t232.5 184t289.5 67.5q254 0 410 -165.5
t156 -438.5q0 -184 -56.5 -347.5t-153 -280t-232.5 -184t-289 -67.5zM960 1654q-26 0 -45.5 19t-19.5 44q0 26 19.5 45t45.5 19t45 -19t19 -45q0 -25 -19 -44t-45 -19z" />
    <glyph glyph-name="odotaccent" unicode="&#x22f;" horiz-adv-x="1076" 
d="M540 30q135 0 246 77t174.5 211.5t63.5 299.5q0 177 -100.5 284.5t-268.5 107.5q-135 0 -246 -77t-174.5 -211.5t-63.5 -299.5q0 -177 101 -284.5t268 -107.5zM655 1056q190 0 304.5 -119.5t114.5 -316.5q0 -180 -69.5 -325.5t-191.5 -228t-273 -82.5
q-190 0 -304.5 119.5t-114.5 316.5q0 180 69.5 325.5t192 228t272.5 82.5zM755 1251q-26 0 -45 19t-19 44q0 26 19 45t45 19t45.5 -19t19.5 -45q0 -25 -19.5 -44t-45.5 -19z" />
    <glyph glyph-name="Odotaccentmacron" unicode="&#x230;" horiz-adv-x="1436" 
d="M899 1416q-187 0 -342.5 -109t-245 -299t-89.5 -418q0 -257 142.5 -410t377.5 -153q187 0 342.5 109t245 299t89.5 418q0 257 -142.5 410t-377.5 153zM738 -20q-254 0 -410.5 165.5t-156.5 438.5q0 184 56.5 347.5t153.5 280t232.5 184t289.5 67.5q254 0 410 -165.5
t156 -438.5q0 -184 -56.5 -347.5t-153 -280t-232.5 -184t-289 -67.5zM941 1556q-26 0 -45 18.5t-19 44.5q0 25 19 44t45 19t45.5 -19t19.5 -44q0 -26 -19.5 -44.5t-45.5 -18.5zM1290 1888l-9 -43h-582l10 43h581z" />
    <glyph glyph-name="odotaccentmacron" unicode="&#x231;" horiz-adv-x="1076" 
d="M540 30q135 0 246 77t174.5 211.5t63.5 299.5q0 177 -100.5 284.5t-268.5 107.5q-135 0 -246 -77t-174.5 -211.5t-63.5 -299.5q0 -177 101 -284.5t268 -107.5zM655 1056q190 0 304.5 -119.5t114.5 -316.5q0 -180 -69.5 -325.5t-191.5 -228t-273 -82.5
q-190 0 -304.5 119.5t-114.5 316.5q0 180 69.5 325.5t192 228t272.5 82.5zM752 1217q-26 0 -45 19t-19 44q0 26 19 44.5t45 18.5t45 -18.5t19 -44.5t-19 -44.5t-45 -18.5zM1066 1591l-9 -44h-503l9 44h503z" />
    <glyph glyph-name="Ymacron" unicode="&#x232;" horiz-adv-x="1144" 
d="M548 0h-51l134 632l-354 811h54l331 -758h4l651 758h63l-699 -814zM1165 1659l-9 -44h-583l9 44h583z" />
    <glyph glyph-name="ymacron" unicode="&#x233;" horiz-adv-x="872" 
d="M64 -349q-32 0 -56 6l9 44q28 -5 50 -5q69 0 123.5 44t115.5 149l56 94l-179 1057h50l166 -991h4l579 991h56l-689 -1173q-73 -123 -136 -169.5t-149 -46.5zM920 1346l-9 -44h-503l9 44h503z" />
    <glyph glyph-name="dotlessj" unicode="&#x237;" horiz-adv-x="290" 
d="M340 1040l-245 -1157q-26 -123 -92.5 -177.5t-178.5 -54.5q-32 0 -67 3l10 45q27 -3 57 -3q93 0 146.5 46.5t74.5 145.5l245 1152h50z" />
    <glyph glyph-name="quoteright" unicode="&#x2bc;" horiz-adv-x="365" 
d="M318 1017h-43l185 426h52z" />
    <glyph glyph-name="quoteright" unicode="&#x2019;" horiz-adv-x="365" 
d="M318 1017h-43l185 426h52z" />
    <glyph glyph-name="circumflex" unicode="&#x2c6;" horiz-adv-x="811" 
d="M712 1555l188 -304h-57l-161 263h-2l-274 -263h-65l319 304h52z" />
    <glyph glyph-name="caron" unicode="&#x2c7;" horiz-adv-x="812" 
d="M644 1251h-52l-187 304h57l160 -264h2l275 264h65z" />
    <glyph glyph-name="breve" unicode="&#x2d8;" horiz-adv-x="864" 
d="M441 1487h46q-2 -22 -2 -31q0 -75 54 -119t147 -44q92 0 152 53.5t66 140.5h46q-7 -105 -81.5 -171t-187.5 -66q-110 0 -176 55.5t-66 147.5q0 10 2 34z" />
    <glyph glyph-name="dotaccent" unicode="&#x2d9;" horiz-adv-x="866" 
d="M662 1251q-26 0 -45 19t-19 44q0 26 19 45t45 19t45.5 -19t19.5 -45q0 -25 -19.5 -44t-45.5 -19z" />
    <glyph glyph-name="ring" unicode="&#x2da;" horiz-adv-x="811" 
d="M635 1163q-67 0 -115.5 48.5t-48.5 115.5q0 69 48.5 117.5t116.5 48.5t115.5 -48t47.5 -116t-48 -117t-116 -49zM635 1202q53 0 89.5 37t36.5 90q-1 53 -36.5 89.5t-88.5 36.5q-54 0 -90 -36.5t-36 -90.5q0 -53 36 -89.5t89 -36.5z" />
    <glyph glyph-name="ogonek" unicode="&#x2db;" horiz-adv-x="568" 
d="M308 -337l-9 -44q-39 -18 -90 -18q-70 0 -119.5 41.5t-49.5 115.5q0 75 54 139.5t142 109.5l44 -6q-78 -43 -134 -103.5t-56 -132.5q0 -56 37 -87.5t95 -31.5q54 0 86 17z" />
    <glyph glyph-name="tilde" unicode="&#x2dc;" horiz-adv-x="812" 
d="M778 1251q-36 0 -66.5 17.5t-52 42t-42 49t-47 42t-56.5 17.5q-46 0 -82.5 -41.5t-50.5 -114.5h-44q15 93 64 146t116 53q31 0 58 -12.5t45 -31t37.5 -40t35.5 -40t39 -31t49 -12.5q44 0 78.5 41t49.5 114h44q-19 -97 -65 -148t-110 -51z" />
    <glyph glyph-name="hungarumlaut" unicode="&#x2dd;" horiz-adv-x="811" 
d="M585 1251l301 304h64l-306 -304h-59zM336 1251l301 304h64l-306 -304h-59z" />
    <glyph glyph-name="gravecmb" unicode="&#x300;" 
d="M242 1251h-49l-184 304h55z" />
    <glyph glyph-name="acutecmb" unicode="&#x301;" 
d="M245 1251h-59l308 304h64z" />
    <glyph glyph-name="circumflexcmb" unicode="&#x302;" 
d="M302 1555l188 -304h-57l-161 263h-2l-274 -263h-65l319 304h52z" />
    <glyph glyph-name="tildecmb" unicode="&#x303;" 
d="M369 1251q-36 0 -66.5 17.5t-52 42t-42 49t-47 42t-56.5 17.5q-46 0 -82.5 -41.5t-50.5 -114.5h-44q15 93 64 146t116 53q31 0 58 -12.5t45 -31t37.5 -40t35.5 -40t39 -31t49 -12.5q44 0 78.5 41t49.5 114h44q-19 -97 -65 -148t-110 -51z" />
    <glyph glyph-name="macroncmb" unicode="&#x304;" 
d="M485 1346l-9 -44h-503l9 44h503z" />
    <glyph glyph-name="brevecmb" unicode="&#x306;" 
d="M-23 1487h46q-2 -22 -2 -31q0 -75 54 -119t147 -44q92 0 152 53.5t66 140.5h46q-7 -105 -81.5 -171t-187.5 -66q-110 0 -176 55.5t-66 147.5q0 10 2 34z" />
    <glyph glyph-name="dotaccentcmb" unicode="&#x307;" 
d="M225 1251q-26 0 -45 19t-19 44q0 26 19 45t45 19t45.5 -19t19.5 -45q0 -25 -19.5 -44t-45.5 -19z" />
    <glyph glyph-name="dieresiscmb" unicode="&#x308;" 
d="M87 1251q-22 0 -38 16t-16 38t16 37.5t38 15.5t38 -15.5t16 -37.5t-16 -38t-38 -16zM364 1251q-22 0 -38 16t-16 38t16 37.5t38 15.5t38 -15.5t16 -37.5q0 -23 -16 -38.5t-38 -15.5z" />
    <glyph glyph-name="hookabovecmb" unicode="&#x309;" 
d="M114 1448l9 42q35 23 98 23q61 0 100.5 -33t39.5 -85q0 -54 -36 -96t-95 -61l-22 33q50 16 78 46.5t28 70.5q0 38 -26.5 61t-71.5 23q-59 0 -102 -24z" />
    <glyph glyph-name="ringcmb" unicode="&#x30a;" 
d="M231 1163q-67 0 -115.5 48.5t-48.5 115.5q0 69 48.5 117.5t116.5 48.5t115.5 -48t47.5 -116t-48 -117t-116 -49zM231 1202q53 0 89.5 37t36.5 90q-1 53 -36.5 89.5t-88.5 36.5q-54 0 -90 -36.5t-36 -90.5q0 -53 36 -89.5t89 -36.5z" />
    <glyph glyph-name="hungarumlautcmb" unicode="&#x30b;" 
d="M304 1251l301 304h64l-306 -304h-59zM55 1251l301 304h64l-306 -304h-59z" />
    <glyph glyph-name="caroncmb" unicode="&#x30c;" 
d="M243 1251h-52l-187 304h57l160 -264h2l275 264h65z" />
    <glyph glyph-name="dblgravecmb" unicode="&#x30f;" 
d="M141 1251h-50l-182 304h54zM362 1251h-50l-182 304h55z" />
    <glyph glyph-name="invertedbrevecmb" unicode="&#x311;" 
d="M480 1250h-46q2 2 2 21q0 76 -54.5 124.5t-146.5 48.5q-90 0 -150 -54.5t-69 -139.5h-46q10 103 84.5 170t185.5 67q108 0 175 -60.5t67 -151.5q0 -21 -2 -25z" />
    <glyph glyph-name="horncmb" unicode="&#x31b;" 
d="M41 1013l9 45q28 -13 70 -13q145 0 182 169l23 107h47l-24 -116q-23 -107 -80 -156t-156 -49q-38 0 -71 13z" />
    <glyph glyph-name="dotbelowcmb" unicode="&#x323;" 
d="M-97 -272q-26 0 -45.5 19t-19.5 44q0 26 19.5 45t45.5 19t45 -19t19 -45q0 -25 -19 -44t-45 -19z" />
    <glyph glyph-name="dieresisbelowcmb" unicode="&#x324;" 
d="M-245 -317q-22 0 -38 16t-16 38t16 37.5t38 15.5t38 -15.5t16 -37.5t-16 -38t-38 -16zM32 -317q-22 0 -38 16t-16 38t16 37.5t38 15.5t38 -15.5t16 -37.5t-16 -38t-38 -16z" />
    <glyph glyph-name="ringbelowcmb" unicode="&#x325;" 
d="M-107 -429q-67 0 -115.5 48.5t-48.5 115.5q0 69 48.5 117.5t116.5 48.5t115.5 -48t47.5 -116t-48 -117t-116 -49zM-107 -390q53 0 89.5 37t36.5 90q-1 53 -36.5 89.5t-88.5 36.5q-54 0 -90 -36.5t-36 -90.5q0 -53 36 -89.5t89 -36.5z" />
    <glyph glyph-name="commabelowcmb" unicode="&#x326;" 
d="M-234 -475h-45l173 337h58z" />
    <glyph glyph-name="cedillacmb" unicode="&#x327;" 
d="M-176 -176l8 33l105 157h40l-3 -14l-93 -141q87 -7 135 -46t48 -106q0 -78 -56.5 -124t-147.5 -46q-94 0 -165 41l9 44q67 -40 157 -40q69 0 112 32t43 89q0 103 -142 116z" />
    <glyph glyph-name="ogonekcmb" unicode="&#x328;" 
d="M4 -337l-9 -44q-39 -18 -90 -18q-70 0 -119.5 41.5t-49.5 115.5q0 75 54 139.5t142 109.5l44 -6q-78 -43 -134 -103.5t-56 -132.5q0 -56 37 -87.5t95 -31.5q54 0 86 17z" />
    <glyph glyph-name="circumflexbelowcmb" unicode="&#x32d;" 
d="M-69 -165l197 -287h-55l-167 244h-2l-269 -244h-65l318 287h43z" />
    <glyph glyph-name="brevebelowcmb" unicode="&#x32e;" 
d="M-367 -155h46v-12q0 -75 54.5 -119t146.5 -44q88 0 148.5 48t70.5 127h46q-11 -98 -86.5 -158t-187.5 -60q-108 0 -173 55.5t-65 147.5v15z" />
    <glyph glyph-name="tildebelowcmb" unicode="&#x330;" 
d="M22 -370q-36 0 -66.5 17.5t-52 42t-42 49t-47 42t-56.5 17.5q-46 0 -82.5 -41.5t-50.5 -114.5h-44q15 93 64 146t116 53q36 0 66.5 -17t52 -41.5t42 -49.5t47 -42t56.5 -17q44 0 78.5 41t49.5 114h44q-19 -97 -65 -148t-110 -51z" />
    <glyph glyph-name="macronbelowcmb" unicode="&#x331;" 
d="M194 -224l-9 -44h-583l9 44h583z" />
    <glyph glyph-name="macronbelowcmb" unicode="&#x332;" 
d="M194 -224l-9 -44h-583l9 44h583z" />
    <glyph glyph-name="greekquestionmark" unicode="&#x37e;" horiz-adv-x="509" 
d="M381 780q-22 0 -37.5 15.5t-15.5 37.5t15.5 37.5t37.5 15.5t37.5 -15.5t15.5 -37.5t-15.5 -37.5t-37.5 -15.5zM85 -253h-44l185 427h52z" />
    <glyph glyph-name="tonosgreek" unicode="&#x384;" horiz-adv-x="768" 
d="M512 1187l146 295h65l-164 -295h-47z" />
    <glyph glyph-name="dieresistonosgreek" unicode="&#x385;" horiz-adv-x="896" 
d="M656 1251h-44l121 317h63zM847 1252q-22 0 -38 15.5t-16 37.5t16 37.5t38 15.5q23 0 39 -15.5t16 -37.5t-16 -37.5t-39 -15.5zM499 1252q-22 0 -38 15.5t-16 37.5t16 37.5t38 15.5q23 0 39 -15.5t16 -37.5t-16 -37.5t-39 -15.5z" />
    <glyph glyph-name="Alphatonosgreek" unicode="&#x386;" horiz-adv-x="1201" 
d="M844 1375l-489 -828h634l-141 828h-4zM1082 0l-86 502h-668l-299 -502h-59l861 1443h51l248 -1443h-48zM446 1149l146 294h65l-165 -294h-46z" />
    <glyph glyph-name="anoteleia" unicode="&#x387;" horiz-adv-x="509" 
d="M414 934q-22 0 -37.5 15.5t-15.5 36.5q0 22 15.5 37.5t37.5 15.5q21 0 36.5 -15.5t15.5 -37.5q0 -21 -15.5 -36.5t-36.5 -15.5z" />
    <glyph glyph-name="Epsilontonosgreek" unicode="&#x388;" horiz-adv-x="1176" 
d="M193 1149l146 294h65l-165 -294h-46zM1054 47l-10 -47h-826l307 1443h826l-10 -47h-776l-134 -632h740l-11 -46h-739l-142 -671h775z" />
    <glyph glyph-name="Etatonosgreek" unicode="&#x389;" horiz-adv-x="1447" 
d="M193 1149l146 294h65l-165 -294h-46zM1266 0h-50l153 718h-948l-153 -718h-50l307 1443h50l-144 -678h948l144 678h50z" />
    <glyph glyph-name="Iotatonosgreek" unicode="&#x38a;" horiz-adv-x="469" 
d="M193 1149l146 294h65l-165 -294h-46zM268 0h-50l307 1443h50z" />
    <glyph glyph-name="Omicrontonosgreek" unicode="&#x38c;" horiz-adv-x="1484" 
d="M193 1149l146 294h65l-165 -294h-46zM947 1416q-187 0 -342.5 -109t-245 -299t-89.5 -418q0 -257 142.5 -410t377.5 -153q187 0 342.5 109t245 299t89.5 418q0 257 -142.5 410t-377.5 153zM786 -20q-254 0 -410.5 165.5t-156.5 438.5q0 184 56.5 347.5t153.5 280
t232.5 184t289.5 67.5q254 0 410 -165.5t156 -438.5q0 -184 -56.5 -347.5t-153 -280t-232.5 -184t-289 -67.5z" />
    <glyph glyph-name="Upsilontonosgreek" unicode="&#x38e;" horiz-adv-x="1415" 
d="M283 1149l146 294h65l-165 -294h-46zM818 0h-51l134 632l-354 811h54l331 -758h4l651 758h63l-699 -814z" />
    <glyph glyph-name="Omegatonosgreek" unicode="&#x38f;" horiz-adv-x="1594" 
d="M193 1149l146 294h65l-165 -294h-46zM884 0l16 75q272 84 440 305t168 506q0 236 -141.5 383t-369.5 147q-125 0 -237.5 -41.5t-198 -115.5t-148.5 -171t-96 -211.5t-33 -234.5q0 -206 87.5 -339.5t283.5 -227.5l-16 -75h-503l9 47h452l1 4q-190 97 -277 237t-87 352
q0 161 55 309.5t152.5 262.5t243 182.5t315.5 68.5q252 0 405 -155t153 -410q0 -295 -162 -521.5t-449 -325.5l-1 -4h494l-9 -47h-547z" />
    <glyph glyph-name="iotadieresistonosgreek" unicode="&#x390;" horiz-adv-x="520" 
d="M369 1040l-168 -787q-10 -47 -10 -76q0 -65 44.5 -103t123.5 -38q52 0 85 10l-9 -46q-52 -10 -85 -10q-98 0 -154 46.5t-56 126.5q0 36 11 89l167 788h51zM372 1218h-44l121 317h63zM563 1219q-22 0 -38 15.5t-16 37.5t16 37.5t38 15.5q23 0 39 -15.5t16 -37.5t-16 -37.5
t-39 -15.5zM215 1219q-22 0 -38 15.5t-16 37.5t16 37.5t38 15.5q23 0 39 -15.5t16 -37.5t-16 -37.5t-39 -15.5z" />
    <glyph glyph-name="Alphagreek" unicode="&#x391;" horiz-adv-x="1201" 
d="M844 1375l-489 -828h634l-141 828h-4zM1082 0l-86 502h-668l-299 -502h-59l861 1443h51l248 -1443h-48z" />
    <glyph glyph-name="Betagreek" unicode="&#x392;" horiz-adv-x="1169" 
d="M572 0h-492l307 1443h466q169 0 264 -87t95 -228q0 -144 -104.5 -254.5t-257.5 -130.5l-1 -4q130 -16 210.5 -97.5t80.5 -215.5q0 -194 -157 -310t-411 -116zM427 1397l-134 -632h450q112 0 208 47t153.5 129t57.5 180q0 127 -82 201.5t-235 74.5h-418zM140 46h437
q228 0 370 105.5t142 271.5q0 144 -101 220t-261 76h-444z" />
    <glyph glyph-name="Gammagreek" unicode="&#x393;" horiz-adv-x="1112" 
d="M184 0h-50l307 1443h797l-10 -47h-747z" />
    <glyph glyph-name="Deltagreek" unicode="&#x394;" horiz-adv-x="1321" 
d="M1185 0h-1151l7 38l849 1405h52l252 -1404zM904 1375l-796 -1324l-1 -4h1035l1 4l-235 1324h-4z" />
    <glyph glyph-name="Deltagreek" unicode="&#x2206;" horiz-adv-x="1321" 
d="M1185 0h-1151l7 38l849 1405h52l252 -1404zM904 1375l-796 -1324l-1 -4h1035l1 4l-235 1324h-4z" />
    <glyph glyph-name="Epsilongreek" unicode="&#x395;" horiz-adv-x="1038" 
d="M916 47l-10 -47h-826l307 1443h826l-10 -47h-776l-134 -632h740l-11 -46h-739l-142 -671h775z" />
    <glyph glyph-name="Zetagreek" unicode="&#x396;" horiz-adv-x="1152" 
d="M16 0l9 42l1237 1351v4h-920l10 46h989l-9 -43l-1236 -1350v-4h949l-10 -46h-1019z" />
    <glyph glyph-name="Etagreek" unicode="&#x397;" horiz-adv-x="1310" 
d="M1128 0h-50l153 718h-948l-153 -718h-50l307 1443h50l-144 -678h948l144 678h50z" />
    <glyph glyph-name="Thetagreek" unicode="&#x398;" horiz-adv-x="1553" 
d="M1236 707h-707l10 46h707zM802 -20q-254 0 -410.5 165.5t-156.5 438.5q0 184 56.5 347.5t153 280t232.5 184t289 67.5q254 0 410.5 -165.5t156.5 -438.5q0 -184 -56.5 -347.5t-153 -280t-232.5 -184t-289 -67.5zM1483 853q0 257 -143 410t-377 153q-188 0 -343.5 -109
t-245 -298.5t-89.5 -418.5q0 -257 143 -410t377 -153q188 0 343.5 109t245 298.5t89.5 418.5z" />
    <glyph glyph-name="Iotagreek" unicode="&#x399;" horiz-adv-x="311" 
d="M130 0h-50l307 1443h50z" />
    <glyph glyph-name="Kappagreek" unicode="&#x39a;" horiz-adv-x="1109" 
d="M130 0h-50l307 1443h50l-176 -828h4l952 828h72l-716 -623l479 -820h-57l-459 788l-293 -253z" />
    <glyph glyph-name="Lambdagreek" unicode="&#x39b;" horiz-adv-x="1199" 
d="M844 1375l-805 -1375h-59l850 1443h52l236 -1443h-48l-222 1375h-4z" />
    <glyph glyph-name="Mugreek" unicode="&#x39c;" horiz-adv-x="1589" 
d="M129 0h-49l307 1443h50l316 -1381h4l898 1381h59l-307 -1443h-49l283 1329h-4l-866 -1328h-52l-303 1328h-4z" />
    <glyph glyph-name="Nugreek" unicode="&#x39d;" horiz-adv-x="1332" 
d="M130 0h-50l307 1443h48l679 -1362h4l289 1362h50l-307 -1443h-48l-679 1362h-4z" />
    <glyph glyph-name="Xigreek" unicode="&#x39e;" horiz-adv-x="1276" 
d="M389 1443h1009l-11 -51h-1009zM1185 718h-892l11 51h892zM93 51h1008l-9 -51h-1009z" />
    <glyph glyph-name="Omicrongreek" unicode="&#x39f;" horiz-adv-x="1436" 
d="M899 1416q-187 0 -342.5 -109t-245 -299t-89.5 -418q0 -257 142.5 -410t377.5 -153q187 0 342.5 109t245 299t89.5 418q0 257 -142.5 410t-377.5 153zM738 -20q-254 0 -410.5 165.5t-156.5 438.5q0 184 56.5 347.5t153.5 280t232.5 184t289.5 67.5q254 0 410 -165.5
t156 -438.5q0 -184 -56.5 -347.5t-153 -280t-232.5 -184t-289 -67.5z" />
    <glyph glyph-name="Pigreek" unicode="&#x3a0;" horiz-adv-x="1397" 
d="M1162 0h-50l297 1396h-928l-297 -1396h-50l307 1443h1028z" />
    <glyph glyph-name="Rhogreek" unicode="&#x3a1;" horiz-adv-x="1138" 
d="M392 1443h413q194 0 306.5 -104.5t112.5 -271.5q0 -213 -159.5 -339.5t-418.5 -126.5h-385l-131 -601h-50zM432 1396l-162 -748h381q150 0 267.5 49t186.5 144.5t69 222.5q0 147 -99.5 239.5t-275.5 92.5h-367z" />
    <glyph glyph-name="Sigmagreek" unicode="&#x3a3;" horiz-adv-x="1249" 
d="M153 50v-4h931l-10 -46h-1001l10 42l611 718l-304 638l9 45h961l-10 -46h-902l-1 -4l304 -634l-3 -13z" />
    <glyph glyph-name="Taugreek" unicode="&#x3a4;" horiz-adv-x="1143" 
d="M546 0h-50l297 1396h-521l10 47h1092l-10 -47h-521z" />
    <glyph glyph-name="Upsilongreek" unicode="&#x3a5;" horiz-adv-x="1144" 
d="M548 0h-51l134 632l-354 811h54l331 -758h4l651 758h63l-699 -814z" />
    <glyph glyph-name="Phigreek" unicode="&#x3a6;" horiz-adv-x="1634" 
d="M728 -59l27 126q-289 12 -448 160t-159 390q0 160 59 298.5t169.5 241.5t280 162.5t378.5 60.5l23 110h50l-23 -110q289 -11 448 -159t159 -390q0 -160 -59 -298.5t-169.5 -242t-280 -163t-378.5 -60.5l-27 -126h-50zM765 114l260 1219q-196 -3 -354 -59.5t-260.5 -152.5
t-157.5 -224.5t-55 -276.5q0 -224 143.5 -361t423.5 -145zM815 114q196 3 354 59.5t260.5 153t157.5 224.5t55 277q0 224 -143.5 360.5t-423.5 144.5z" />
    <glyph glyph-name="Chigreek" unicode="&#x3a7;" horiz-adv-x="1156" 
d="M-29 0l681 726l-369 717h56l349 -680h1l636 680h66l-679 -725l368 -718h-56l-348 681h-1l-638 -681h-66z" />
    <glyph glyph-name="Psigreek" unicode="&#x3a8;" horiz-adv-x="1541" 
d="M746 0h-50l75 357q-217 1 -343 114t-126 305q0 70 16 140l112 527h50l-112 -527q-16 -78 -16 -135q0 -178 113.5 -277t315.5 -100l222 1039h49l-221 -1039q286 7 432 135.5t207 419.5l103 484h50l-103 -488q-35 -165 -93 -279t-145 -185t-198.5 -102.5t-261.5 -31.5z" />
    <glyph glyph-name="Omegagreek" unicode="&#x3a9;" horiz-adv-x="1567" 
d="M857 0l16 75q272 84 440 305t168 506q0 236 -141.5 383t-369.5 147q-125 0 -237.5 -41.5t-198 -115.5t-148.5 -171t-96 -211.5t-33 -234.5q0 -206 87.5 -339.5t283.5 -227.5l-16 -75h-503l9 47h452l1 4q-190 97 -277 237t-87 352q0 161 55 309.5t152.5 262.5t243 182.5
t315.5 68.5q252 0 405 -155t153 -410q0 -295 -162 -521.5t-449 -325.5l-1 -4h494l-9 -47h-547z" />
    <glyph glyph-name="Omegagreek" unicode="&#x2126;" horiz-adv-x="1567" 
d="M857 0l16 75q272 84 440 305t168 506q0 236 -141.5 383t-369.5 147q-125 0 -237.5 -41.5t-198 -115.5t-148.5 -171t-96 -211.5t-33 -234.5q0 -206 87.5 -339.5t283.5 -227.5l-16 -75h-503l9 47h452l1 4q-190 97 -277 237t-87 352q0 161 55 309.5t152.5 262.5t243 182.5
t315.5 68.5q252 0 405 -155t153 -410q0 -295 -162 -521.5t-449 -325.5l-1 -4h494l-9 -47h-547z" />
    <glyph glyph-name="Iotadieresisgreek" unicode="&#x3aa;" horiz-adv-x="311" 
d="M130 0h-50l307 1443h50zM319 1601q-22 0 -38 16t-16 38t16 37.5t38 15.5t38 -15.5t16 -37.5t-16 -38t-38 -16zM596 1601q-22 0 -38 16t-16 38t16 37.5t38 15.5t38 -15.5t16 -37.5q0 -23 -16 -38.5t-38 -15.5z" />
    <glyph glyph-name="Upsilondieresisgreek" unicode="&#x3ab;" horiz-adv-x="1144" 
d="M548 0h-51l134 632l-354 811h54l331 -758h4l651 758h63l-699 -814zM734 1601q-22 0 -38 16t-16 38t16 37.5t38 15.5t38 -15.5t16 -37.5t-16 -38t-38 -16zM1011 1601q-22 0 -38 16t-16 38t16 37.5t38 15.5t38 -15.5t16 -37.5q0 -23 -15.5 -38.5t-38.5 -15.5z" />
    <glyph glyph-name="alphatonosgreek" unicode="&#x3ac;" horiz-adv-x="1254" 
d="M520 -15q-164 0 -265.5 114.5t-101.5 299.5q0 132 42.5 253t114 209.5t170 141t205.5 52.5q148 0 250 -97t110 -243h3l70 325h50l-167 -783q-24 -120 -24 -142q0 -42 20.5 -60.5t69.5 -18.5q41 0 70 10l-10 -45q-25 -10 -69 -10q-68 0 -100.5 28.5t-32.5 89.5
q0 27 26 145h-4q-67 -123 -182.5 -196t-244.5 -73zM528 30q133 0 245.5 83t177 221t64.5 295q0 170 -91.5 275.5t-241.5 105.5q-127 0 -238 -83.5t-176.5 -223.5t-65.5 -300q0 -170 89 -271.5t237 -101.5zM832 1187l146 295h65l-164 -295h-47z" />
    <glyph glyph-name="epsilontonosgreek" unicode="&#x3ad;" horiz-adv-x="1072" 
d="M514 -16q-167 0 -265.5 72t-98.5 198q0 116 74 191.5t205 95.5v3q-76 11 -125.5 66t-49.5 129q0 148 112 232.5t302 84.5q178 0 287 -86t108 -236h-49q4 126 -95.5 201t-256.5 75q-163 0 -259.5 -68t-96.5 -186q0 -89 71 -142t198 -53h141l-10 -47h-145
q-174 0 -267 -66.5t-93 -192.5q0 -102 86 -163.5t229 -61.5q156 0 280 74t172 192h50q-46 -137 -186.5 -224.5t-317.5 -87.5zM804 1187l146 295h65l-164 -295h-47z" />
    <glyph glyph-name="etatonosgreek" unicode="&#x3ae;" horiz-adv-x="1218" 
d="M888 -339l206 968q13 62 13 106q0 123 -82.5 198.5t-220.5 75.5q-155 0 -272 -105.5t-150 -259.5l-138 -644h-50l182 853q8 40 8 65q0 46 -20 66t-69 20q-41 0 -71 -10l9 45q24 10 70 10q131 0 132 -116q0 -28 -19 -115h4q64 109 165.5 173.5t228.5 64.5q153 0 248 -88
t95 -224q0 -55 -11 -106l-209 -977h-49zM994 1187l146 295h65l-164 -295h-47z" />
    <glyph glyph-name="iotatonosgreek" unicode="&#x3af;" horiz-adv-x="520" 
d="M369 1040l-168 -787q-10 -47 -10 -76q0 -65 44.5 -103t123.5 -38q52 0 85 10l-9 -46q-52 -10 -85 -10q-98 0 -154 46.5t-56 126.5q0 36 11 89l167 788h51zM460 1187l146 295h65l-164 -295h-47z" />
    <glyph glyph-name="upsilondieresistonosgreek" unicode="&#x3b0;" horiz-adv-x="1047" 
d="M948 1040h52q17 -113 17 -257q0 -384 -140.5 -591.5t-400.5 -207.5q-147 0 -228.5 75t-81.5 209q0 64 14 128l138 644h49l-135 -634q-16 -84 -16 -135q0 -114 68.5 -177.5t191.5 -63.5q236 0 363.5 196.5t127.5 561.5q0 135 -19 252zM712 1218h-44l121 317h63zM903 1219
q-22 0 -38 15.5t-16 37.5t16 37.5t38 15.5q23 0 39 -15.5t16 -37.5t-16 -37.5t-39 -15.5zM555 1219q-22 0 -38 15.5t-16 37.5t16 37.5t38 15.5q23 0 39 -15.5t16 -37.5t-16 -37.5t-39 -15.5z" />
    <glyph glyph-name="alphagreek" unicode="&#x3b1;" horiz-adv-x="1254" 
d="M520 -15q-164 0 -265.5 114.5t-101.5 299.5q0 132 42.5 253t114 209.5t170 141t205.5 52.5q148 0 250 -97t110 -243h3l70 325h50l-167 -783q-24 -120 -24 -142q0 -42 20.5 -60.5t69.5 -18.5q41 0 70 10l-10 -45q-25 -10 -69 -10q-68 0 -100.5 28.5t-32.5 89.5
q0 27 26 145h-4q-67 -123 -182.5 -196t-244.5 -73zM528 30q133 0 245.5 83t177 221t64.5 295q0 170 -91.5 275.5t-241.5 105.5q-127 0 -238 -83.5t-176.5 -223.5t-65.5 -300q0 -170 89 -271.5t237 -101.5z" />
    <glyph glyph-name="betagreek" unicode="&#x3b2;" horiz-adv-x="1167" 
d="M322 982q54 256 162 366.5t298 110.5q156 0 246 -83t90 -226q0 -148 -84.5 -245.5t-229.5 -124.5v-4q144 -27 221.5 -112t77.5 -218q0 -209 -125.5 -335t-338.5 -126q-158 0 -271.5 95.5t-132.5 244.5h-4l-140 -664h-50zM550 754l10 47h118q175 0 284.5 93.5t109.5 244.5
q0 133 -75.5 203t-219.5 70q-161 0 -259.5 -103t-146.5 -327l-93 -436q-14 -64 -14 -141q0 -164 107 -269.5t274 -105.5q184 0 296.5 112t112.5 295q0 148 -103.5 232.5t-279.5 84.5h-121z" />
    <glyph glyph-name="gammagreek" unicode="&#x3b3;" horiz-adv-x="993" 
d="M1033 1040q-8 -132 -40 -241q-49 -173 -177 -355.5t-386 -453.5l-65 -314h-50l65 314l-151 1050h50l140 -990h4q232 241 354 418t170 345q30 114 36 227h50z" />
    <glyph glyph-name="deltagreek" unicode="&#x3b4;" horiz-adv-x="1113" 
d="M570 -16q-85 0 -161 27t-137.5 79.5t-98 139t-36.5 196.5q0 233 145.5 380.5t368.5 149.5h30l1 4q-220 94 -220 242q0 115 104 186t275 71q86 0 166 -18t117 -46l-11 -46q-88 64 -275 64q-147 0 -236.5 -57.5t-89.5 -153.5q0 -67 53.5 -116.5t201.5 -119.5
q320 -152 320 -450q0 -228 -147.5 -380t-369.5 -152zM576 30q195 0 328.5 138.5t133.5 346.5q0 166 -111 284t-268 118q-204 0 -338 -137t-134 -353q0 -84 23 -152t61 -113t89.5 -75.5t105 -43.5t110.5 -13z" />
    <glyph glyph-name="epsilongreek" unicode="&#x3b5;" horiz-adv-x="1072" 
d="M514 -16q-167 0 -265.5 72t-98.5 198q0 116 74 191.5t205 95.5v3q-76 11 -125.5 66t-49.5 129q0 148 112 232.5t302 84.5q178 0 287 -86t108 -236h-49q4 126 -95.5 201t-256.5 75q-163 0 -259.5 -68t-96.5 -186q0 -89 71 -142t198 -53h141l-10 -47h-145
q-174 0 -267 -66.5t-93 -192.5q0 -102 86 -163.5t229 -61.5q156 0 280 74t172 192h50q-46 -137 -186.5 -224.5t-317.5 -87.5z" />
    <glyph glyph-name="zetagreek" unicode="&#x3b6;" horiz-adv-x="868" 
d="M674 -393l-42 16q51 52 73.5 89t22.5 79q0 59 -44 102.5t-165 98.5q-207 96 -291.5 192t-84.5 247q0 241 217.5 500.5t582.5 459.5v4h-569l11 48h658l2 -48q-251 -125 -446.5 -292.5t-300.5 -341.5t-105 -327q0 -136 72 -218.5t275 -178.5q136 -65 187.5 -115t51.5 -125
q0 -95 -105 -190z" />
    <glyph glyph-name="etagreek" unicode="&#x3b7;" horiz-adv-x="1218" 
d="M888 -339l206 968q13 62 13 106q0 123 -82.5 198.5t-220.5 75.5q-155 0 -272 -105.5t-150 -259.5l-138 -644h-50l182 853q8 40 8 65q0 46 -20 66t-69 20q-41 0 -71 -10l9 45q24 10 70 10q131 0 132 -116q0 -28 -19 -115h4q64 109 165.5 173.5t228.5 64.5q153 0 248 -88
t95 -224q0 -55 -11 -106l-209 -977h-49z" />
    <glyph glyph-name="thetagreek" unicode="&#x3b8;" horiz-adv-x="1106" 
d="M510 -16q-365 0 -365 450q0 120 29 289q66 376 206 556t355 180q182 0 275 -118.5t93 -350.5q0 -131 -29 -299q-64 -367 -201.5 -537t-362.5 -170zM514 30q201 0 325 160t185 500h-806q-23 -146 -23 -252q0 -408 319 -408zM226 735h805q22 121 22 251q0 427 -324 427
q-382 0 -503 -678z" />
    <glyph glyph-name="iotagreek" unicode="&#x3b9;" horiz-adv-x="520" 
d="M369 1040l-168 -787q-10 -47 -10 -76q0 -65 44.5 -103t123.5 -38q52 0 85 10l-9 -46q-52 -10 -85 -10q-98 0 -154 46.5t-56 126.5q0 36 11 89l167 788h51z" />
    <glyph glyph-name="kappagreek" unicode="&#x3ba;" horiz-adv-x="1096" 
d="M1050 1049q49 0 69 -10l-9 -45q-30 10 -61 10q-43 0 -82 -22t-89 -72l-216 -217l301 -693h-55l-283 658l-407 -405l-53 -253h-49l218 1040h49l-147 -703h3l606 605q60 60 105 83.5t100 23.5z" />
    <glyph glyph-name="lambdagreek" unicode="&#x3bb;" horiz-adv-x="1074" 
d="M909 36q29 0 62 10l-9 -45q-34 -10 -65 -10q-63 0 -97 28.5t-42 89.5l-116 825h-4l-552 -934h-56l601 1012l-32 216q-14 100 -50 142.5t-105 42.5q-54 0 -82 -13l10 46q28 13 77 13q89 0 135 -51t62 -171l155 -1105q8 -53 32 -74.5t76 -21.5z" />
    <glyph glyph-name="nugreek" unicode="&#x3bd;" horiz-adv-x="1000" 
d="M1033 1040q-7 -134 -44 -256q-50 -165 -175.5 -342t-373.5 -442h-62l-149 1040h50l140 -990h4q230 243 350 413.5t168 332.5q36 119 42 244h50z" />
    <glyph glyph-name="xigreek" unicode="&#x3be;" horiz-adv-x="915" 
d="M697 -393l-42 16q52 52 74.5 89.5t22.5 78.5q0 61 -44.5 103t-165.5 99q-223 104 -309.5 193.5t-86.5 216.5q0 149 104 250.5t292 122.5l1 4q-120 29 -178.5 87.5t-58.5 154.5q0 146 108.5 239t317.5 131v4h-348l9 48h638l3 -47l-119 -9q-268 -20 -415.5 -113.5
t-147.5 -247.5q0 -223 384 -223h87l-9 -48h-79q-270 0 -404.5 -95.5t-134.5 -259.5q0 -108 77 -185.5t288 -177.5q137 -65 189 -115.5t52 -125.5q0 -95 -105 -190z" />
    <glyph glyph-name="omicrongreek" unicode="&#x3bf;" horiz-adv-x="1076" 
d="M540 30q135 0 246 77t174.5 211.5t63.5 299.5q0 177 -100.5 284.5t-268.5 107.5q-135 0 -246 -77t-174.5 -211.5t-63.5 -299.5q0 -177 101 -284.5t268 -107.5zM655 1056q190 0 304.5 -119.5t114.5 -316.5q0 -180 -69.5 -325.5t-191.5 -228t-273 -82.5
q-190 0 -304.5 119.5t-114.5 316.5q0 180 69.5 325.5t192 228t272.5 82.5z" />
    <glyph glyph-name="pigreek" unicode="&#x3c0;" horiz-adv-x="1229" 
d="M861 183l172 809h-575l-211 -992h-49l211 992h-206l9 48h1091l-10 -48h-211l-169 -805q-10 -45 -10 -71q0 -43 20 -61.5t74 -18.5q35 0 66 10l-10 -46q-32 -10 -65 -10q-138 0 -138 118q0 26 11 75z" />
    <glyph glyph-name="rhogreek" unicode="&#x3c1;" horiz-adv-x="1171" 
d="M587 30q205 0 344.5 169.5t139.5 425.5q0 176 -94.5 280.5t-267.5 104.5q-104 0 -193 -53.5t-146.5 -139.5t-90 -191t-32.5 -211q0 -166 97 -275.5t243 -109.5zM714 1056q186 0 296 -118.5t110 -310.5q0 -183 -72 -331t-192 -229.5t-263 -81.5q-152 0 -255 94.5
t-121 245.5h-3l-141 -664h-50l186 870q57 263 192.5 394t312.5 131z" />
    <glyph glyph-name="sigmafinalgreek" unicode="&#x3c2;" horiz-adv-x="1098" 
d="M800 -200q0 -98 -105 -193l-43 16q51 51 74 89.5t23 81.5q0 58 -46 101.5t-156 94.5q-217 100 -300 203t-83 274q0 124 42 234t114 187.5t170.5 122.5t207.5 45q164 0 266.5 -83.5t122.5 -218.5h-49q-17 116 -108.5 186t-227.5 70q-108 0 -200.5 -46t-155 -122
t-97.5 -173.5t-35 -201.5q0 -158 76 -248t276 -184q130 -62 182 -113.5t52 -121.5z" />
    <glyph glyph-name="sigmagreek" unicode="&#x3c3;" horiz-adv-x="1186" 
d="M537 -16q-180 0 -281.5 108t-101.5 299q0 288 155 468.5t404 180.5h564l-10 -48h-380l-2 -3q100 -48 145.5 -134t45.5 -227q0 -184 -69 -331.5t-192 -230t-278 -82.5zM538 30q104 0 195 46t155 126.5t101 193t37 240.5q0 167 -86.5 262.5t-239.5 95.5q-215 0 -355.5 -169
t-140.5 -430q0 -172 88.5 -268.5t245.5 -96.5z" />
    <glyph glyph-name="taugreek" unicode="&#x3c4;" horiz-adv-x="929" 
d="M707 46l-10 -46q-37 -10 -93 -10q-96 0 -151.5 43.5t-55.5 116.5q0 44 10 86l159 756h-364l11 48h832l-10 -48h-420l-158 -752q-9 -39 -9 -75q0 -63 44.5 -96t125.5 -33q55 0 89 10z" />
    <glyph glyph-name="upsilongreek" unicode="&#x3c5;" horiz-adv-x="1047" 
d="M948 1040h52q17 -113 17 -257q0 -384 -140.5 -591.5t-400.5 -207.5q-147 0 -228.5 75t-81.5 209q0 64 14 128l138 644h49l-135 -634q-16 -84 -16 -135q0 -114 68.5 -177.5t191.5 -63.5q236 0 363.5 196.5t127.5 561.5q0 135 -19 252z" />
    <glyph glyph-name="phigreek" unicode="&#x3c6;" horiz-adv-x="1438" 
d="M572 -339l69 324q-219 20 -344 137.5t-125 307.5q0 279 189.5 452t505.5 174l56 263h49l-56 -263q222 -22 345 -141.5t123 -309.5q0 -279 -188.5 -450t-505.5 -171l-69 -323h-49zM652 31l204 979q-283 0 -458.5 -161t-175.5 -414q0 -173 116 -282t314 -122zM702 30
q283 1 457.5 158.5t174.5 410.5q0 174 -117 287t-312 124z" />
    <glyph glyph-name="chigreek" unicode="&#x3c7;" horiz-adv-x="1093" 
d="M929 -348q-72 0 -107 29.5t-59 109.5l-145 490h-5l-470 -620h-59l514 672l-162 553q-17 61 -49 89.5t-83 28.5q-35 0 -65 -10l10 45q31 10 65 10q64 0 104 -31.5t61 -102.5l159 -538h5l485 663h58l-528 -715l149 -511q20 -66 47 -91t81 -25q29 0 65 9l-10 -45
q-35 -10 -61 -10z" />
    <glyph glyph-name="psigreek" unicode="&#x3c8;" horiz-adv-x="1276" 
d="M542 -339h-49l69 323q-194 1 -294.5 75t-100.5 218q0 57 15 120l137 643h49l-138 -649q-13 -63 -13 -111q0 -127 87 -188t268 -61l271 1289h49l-272 -1290q297 18 438.5 208.5t141.5 549.5q0 130 -20 252h52q17 -109 17 -257q0 -781 -638 -799z" />
    <glyph glyph-name="omegagreek" unicode="&#x3c9;" horiz-adv-x="1448" 
d="M1390 633q0 -286 -112.5 -467.5t-290.5 -181.5q-115 0 -186 68.5t-72 184.5h-4q-41 -117 -126 -185t-192 -68q-131 0 -201 92t-70 264q0 202 92 401t219 299h61q-136 -107 -229 -305.5t-93 -387.5q0 -151 59.5 -234t167.5 -83q238 0 318 367l66 315h49l-66 -312
q-13 -61 -13 -117q0 -122 58.5 -187.5t168.5 -65.5q99 0 178.5 77t124 214.5t44.5 308.5q0 139 -24 246.5t-61 163.5h59q35 -59 55 -169t20 -238z" />
    <glyph glyph-name="iotadieresisgreek" unicode="&#x3ca;" horiz-adv-x="520" 
d="M369 1040l-168 -787q-10 -47 -10 -76q0 -65 44.5 -103t123.5 -38q52 0 85 10l-9 -46q-52 -10 -85 -10q-98 0 -154 46.5t-56 126.5q0 36 11 89l167 788h51zM227 1251q-22 0 -38 16t-16 38t16 37.5t38 15.5t38 -15.5t16 -37.5t-16 -38t-38 -16zM504 1251q-22 0 -38 16
t-16 38t16 37.5t38 15.5t38 -15.5t16 -37.5q0 -23 -16 -38.5t-38 -15.5z" />
    <glyph glyph-name="upsilondieresisgreek" unicode="&#x3cb;" horiz-adv-x="1047" 
d="M948 1040h52q17 -113 17 -257q0 -384 -140.5 -591.5t-400.5 -207.5q-147 0 -228.5 75t-81.5 209q0 64 14 128l138 644h49l-135 -634q-16 -84 -16 -135q0 -114 68.5 -177.5t191.5 -63.5q236 0 363.5 196.5t127.5 561.5q0 135 -19 252zM568 1251q-22 0 -38 16t-16 38
t16 37.5t38 15.5t38 -15.5t16 -37.5t-16 -38t-38 -16zM845 1251q-22 0 -38 16t-16 38t16 37.5t38 15.5t38 -15.5t16 -37.5q0 -23 -15.5 -38.5t-38.5 -15.5z" />
    <glyph glyph-name="omicrontonosgreek" unicode="&#x3cc;" horiz-adv-x="1076" 
d="M540 30q135 0 246 77t174.5 211.5t63.5 299.5q0 177 -100.5 284.5t-268.5 107.5q-135 0 -246 -77t-174.5 -211.5t-63.5 -299.5q0 -177 101 -284.5t268 -107.5zM655 1056q190 0 304.5 -119.5t114.5 -316.5q0 -180 -69.5 -325.5t-191.5 -228t-273 -82.5
q-190 0 -304.5 119.5t-114.5 316.5q0 180 69.5 325.5t192 228t272.5 82.5zM850 1187l146 295h65l-164 -295h-47z" />
    <glyph glyph-name="upsilontonosgreek" unicode="&#x3cd;" horiz-adv-x="1047" 
d="M948 1040h52q17 -113 17 -257q0 -384 -140.5 -591.5t-400.5 -207.5q-147 0 -228.5 75t-81.5 209q0 64 14 128l138 644h49l-135 -634q-16 -84 -16 -135q0 -114 68.5 -177.5t191.5 -63.5q236 0 363.5 196.5t127.5 561.5q0 135 -19 252zM801 1187l146 295h65l-164 -295h-47z
" />
    <glyph glyph-name="omegatonosgreek" unicode="&#x3ce;" horiz-adv-x="1448" 
d="M1390 633q0 -286 -112.5 -467.5t-290.5 -181.5q-115 0 -186 68.5t-72 184.5h-4q-41 -117 -126 -185t-192 -68q-131 0 -201 92t-70 264q0 202 92 401t219 299h61q-136 -107 -229 -305.5t-93 -387.5q0 -151 59.5 -234t167.5 -83q238 0 318 367l66 315h49l-66 -312
q-13 -61 -13 -117q0 -122 58.5 -187.5t168.5 -65.5q99 0 178.5 77t124 214.5t44.5 308.5q0 139 -24 246.5t-61 163.5h59q35 -59 55 -169t20 -238zM1016 1187l146 295h65l-164 -295h-47z" />
    <glyph glyph-name="uni0400" unicode="&#x400;" horiz-adv-x="1048" 
d="M921 47l-10 -47h-826l307 1443h826l-10 -47h-776l-134 -632h740l-11 -46h-739l-142 -671h775zM793 1554l-179 287h57l175 -287h-53z" />
    <glyph glyph-name="Iocyrillic" unicode="&#x401;" horiz-adv-x="1048" 
d="M921 47l-10 -47h-826l307 1443h826l-10 -47h-776l-134 -632h740l-11 -46h-739l-142 -671h775zM712 1601q-22 0 -38 16t-16 38t16 37.5t38 15.5t38 -15.5t16 -37.5t-16 -38t-38 -16zM989 1601q-22 0 -38 16t-16 38t16 37.5t38 15.5t38 -15.5t16 -37.5q0 -23 -15.5 -38.5
t-38.5 -15.5z" />
    <glyph glyph-name="Djecyrillic" unicode="&#x402;" horiz-adv-x="1599" 
d="M553 0l297 1397h-520l10 47h1092l-10 -47h-522l-148 -695h8q180 154 391 154q188 0 290 -101t102 -280q0 -210 -135.5 -347.5t-341.5 -137.5q-75 0 -103 10l10 47q25 -9 98 -9q178 0 299.5 125.5t121.5 308.5q0 162 -87 249.5t-256 87.5q-106 0 -218.5 -49t-193.5 -127
l-134 -633h-50z" />
    <glyph glyph-name="Gjecyrillic" unicode="&#x403;" horiz-adv-x="1030" 
d="M135 0h-50l307 1443h816l-10 -47h-766zM840 1554h-63l352 287h70z" />
    <glyph glyph-name="Ecyrillic" unicode="&#x404;" horiz-adv-x="1371" 
d="M1343 428q-61 -212 -225 -330.5t-395 -118.5q-251 0 -402 164t-145 432q2 185 61.5 349.5t160 283t240.5 187.5t296 69q206 0 352 -123.5t160 -310.5q2 -18 2 -39h-51q0 182 -133.5 304t-331.5 122q-249 0 -440.5 -182t-247.5 -470h773l-10 -47h-772q-32 -200 19.5 -358
t174.5 -246t296 -88q207 0 355 105.5t210 296.5h53z" />
    <glyph glyph-name="Dzecyrillic" unicode="&#x405;" horiz-adv-x="1197" 
d="M119 401h50q8 -167 140 -270.5t337 -103.5q195 0 315 96.5t120 254.5q0 106 -67 178.5t-219 132.5l-130 51q-186 74 -265.5 157t-79.5 206q0 159 128.5 259.5t331.5 100.5q201 0 335 -110t146 -285h-50q-12 153 -132 250.5t-300 97.5t-294 -87.5t-114 -224.5
q0 -107 72 -179.5t243 -139.5l133 -52q165 -64 239 -147.5t74 -206.5q0 -177 -134.5 -288t-352.5 -111q-228 0 -373.5 116.5t-152.5 304.5z" />
    <glyph glyph-name="Icyrillic" unicode="&#x406;" horiz-adv-x="321" 
d="M135 0h-50l307 1443h50z" />
    <glyph glyph-name="Yicyrillic" unicode="&#x407;" horiz-adv-x="321" 
d="M135 0h-50l307 1443h50zM324 1601q-22 0 -38 16t-16 38t16 37.5t38 15.5t38 -15.5t16 -37.5t-16 -38t-38 -16zM601 1601q-22 0 -38 16t-16 38t16 37.5t38 15.5t38 -15.5t16 -37.5q0 -23 -15.5 -38.5t-38.5 -15.5z" />
    <glyph glyph-name="Jecyrillic" unicode="&#x408;" horiz-adv-x="947" 
d="M69 295q0 12 1 22h51q-1 -5 -1 -17q0 -122 84 -198.5t221 -76.5t232.5 87.5t128.5 243.5l231 1087h50l-235 -1108q-35 -168 -145 -262.5t-268 -94.5q-156 0 -253 88.5t-97 228.5z" />
    <glyph glyph-name="Ljecyrillic" unicode="&#x409;" horiz-adv-x="2071" 
d="M398 450q-63 -233 -151.5 -346t-211.5 -113q-31 0 -53 9l9 47q22 -9 53 -9q190 0 305 419l269 986h759l-127 -601h365q188 0 302.5 -97t114.5 -256q0 -217 -148.5 -353t-389.5 -136h-474l297 1396h-660zM1609 795h-369l-160 -748h413q218 0 353.5 121t135.5 315
q0 144 -101 228t-272 84z" />
    <glyph glyph-name="Njecyrillic" unicode="&#x40a;" horiz-adv-x="2071" 
d="M1055 0l153 718h-924l-153 -718h-50l307 1443h50l-144 -678h923l145 678h50l-145 -678h359q183 0 294.5 -90.5t111.5 -239.5q0 -193 -145.5 -314t-380.5 -121h-451zM1114 47h390q214 0 346 106t132 276q0 133 -98 211t-264 78h-362z" />
    <glyph glyph-name="Tshecyrillic" unicode="&#x40b;" horiz-adv-x="1612" 
d="M1117 809q-78 0 -153 -19.5t-130.5 -51t-90.5 -56.5t-59 -49l-134 -633h-50l297 1396h-520l10 47h1092l-10 -47h-522l-148 -693h9q74 65 181 109t232 44q198 0 292.5 -127t48.5 -344l-82 -385h-51l83 387q43 201 -41.5 311.5t-253.5 110.5z" />
    <glyph glyph-name="Kjecyrillic" unicode="&#x40c;" horiz-adv-x="1126" 
d="M1194 1841l-359 -287h-63l352 287h70zM1306 1443l-962 -708l721 -735h-67l-705 719h-5l-153 -719h-50l307 1443h50l-145 -684h6l926 684h77z" />
    <glyph glyph-name="uni040D" unicode="&#x40d;" horiz-adv-x="1338" 
d="M1102 0l288 1354h-5l-1250 -1354h-50l307 1443h50l-288 -1350h5l1250 1350h49l-307 -1443h-49zM914 1554l-179 287h57l175 -287h-53z" />
    <glyph glyph-name="Ushortcyrillic" unicode="&#x40e;" horiz-adv-x="1116" 
d="M203 -9q-40 0 -67 9l10 47q23 -9 63 -9q89 0 162 65t201 256l-284 1084h51l268 -1026h5l671 1026h58l-705 -1075q-149 -227 -235 -302t-198 -75zM615 1780h48q-18 -87 29 -136t143 -49q93 0 163.5 49.5t88.5 135.5h48q-23 -108 -105 -167.5t-199 -59.5q-118 0 -178.5 60
t-37.5 167z" />
    <glyph glyph-name="Dzhecyrillic" unicode="&#x40f;" horiz-adv-x="1308" 
d="M1122 0h-466l-61 -285h-47l61 285h-524l307 1443h50l-297 -1396h937l297 1396h50z" />
    <glyph glyph-name="Acyrillic" unicode="&#x410;" horiz-adv-x="1211" 
d="M849 1375l-489 -828h634l-141 828h-4zM1087 0l-86 502h-668l-299 -502h-59l861 1443h51l248 -1443h-48z" />
    <glyph glyph-name="Becyrillic" unicode="&#x411;" horiz-adv-x="1118" 
d="M559 0h-474l307 1443h803l-10 -47h-753l-123 -577h371q192 0 304.5 -96t112.5 -245q0 -210 -147.5 -344t-390.5 -134zM145 47h413q217 0 353 118t136 307q0 134 -99 217t-274 83h-375z" />
    <glyph glyph-name="Vecyrillic" unicode="&#x412;" horiz-adv-x="1179" 
d="M577 0h-492l307 1443h466q169 0 264 -87t95 -228q0 -144 -104.5 -254.5t-257.5 -130.5l-1 -4q130 -16 210.5 -97.5t80.5 -215.5q0 -194 -157 -310t-411 -116zM432 1397l-134 -632h450q112 0 208 47t153.5 129t57.5 180q0 127 -82 201.5t-235 74.5h-418zM145 46h437
q228 0 370 105.5t142 271.5q0 144 -101 220t-261 76h-444z" />
    <glyph glyph-name="Gecyrillic" unicode="&#x413;" horiz-adv-x="1030" 
d="M135 0h-50l307 1443h816l-10 -47h-766z" />
    <glyph glyph-name="Decyrillic" unicode="&#x414;" horiz-adv-x="1373" 
d="M384 448q-81 -296 -208 -393l-2 -8h899l287 1349h-717zM35 0l-61 -286h-49l71 333h93q153 68 244 407l271 989h816l-297 -1396h189l-70 -333h-49l61 286h-1219z" />
    <glyph glyph-name="Iecyrillic" unicode="&#x415;" horiz-adv-x="1048" 
d="M921 47l-10 -47h-826l307 1443h826l-10 -47h-776l-134 -632h740l-11 -46h-739l-142 -671h775z" />
    <glyph glyph-name="Zhecyrillic" unicode="&#x416;" horiz-adv-x="1733" 
d="M946 723l-909 -723h-77l945 749l-563 694h62l550 -683h5l146 683h50l-146 -683h6l841 683h72l-872 -708l614 -735h-63l-600 723h-6l-153 -723h-50l154 723h-6z" />
    <glyph glyph-name="Zecyrillic" unicode="&#x417;" horiz-adv-x="1158" 
d="M474 726l10 47h215q180 0 302.5 96.5t122.5 242.5t-97.5 226.5t-264.5 80.5q-147 0 -261.5 -87t-163.5 -229h-51q50 166 180.5 264t299.5 98q186 0 297 -93.5t111 -255.5q0 -146 -105 -248.5t-273 -121.5l-1 -4q138 -22 220 -108.5t82 -223.5q0 -183 -143 -307t-371 -124
q-111 0 -204.5 35.5t-151 92t-88.5 122t-30 129.5h49q-2 -58 27.5 -117t83.5 -107t137 -78.5t180 -30.5q202 0 331.5 109.5t129.5 272.5q0 147 -107.5 233t-286.5 86h-179z" />
    <glyph glyph-name="Iicyrillic" unicode="&#x418;" horiz-adv-x="1338" 
d="M1102 0l288 1354h-5l-1250 -1354h-50l307 1443h50l-288 -1350h5l1250 1350h49l-307 -1443h-49z" />
    <glyph glyph-name="Iishortcyrillic" unicode="&#x419;" horiz-adv-x="1338" 
d="M1102 0l288 1354h-5l-1250 -1354h-50l307 1443h50l-288 -1350h5l1250 1350h49l-307 -1443h-49zM736 1780h48q-18 -87 29 -136t143 -49q93 0 163.5 49.5t88.5 135.5h48q-23 -108 -105 -167.5t-199 -59.5q-118 0 -178.5 60t-37.5 167z" />
    <glyph glyph-name="Kacyrillic" unicode="&#x41a;" horiz-adv-x="1126" 
d="M1306 1443l-962 -708l721 -735h-67l-705 719h-5l-153 -719h-50l307 1443h50l-145 -684h6l926 684h77z" />
    <glyph glyph-name="Elcyrillic" unicode="&#x41b;" horiz-adv-x="1275" 
d="M1089 0h-50l297 1396h-679l-259 -946q-22 -79 -45 -142.5t-55 -124.5t-69 -102t-87 -65.5t-107 -24.5q-9 0 -17.5 1t-14.5 2.5t-11 2.5t-8 2l-2 1l9 47q9 -9 53 -9q191 0 305 419l269 986h778z" />
    <glyph glyph-name="Emcyrillic" unicode="&#x41c;" horiz-adv-x="1599" 
d="M134 0h-49l307 1443h50l316 -1381h4l898 1381h59l-307 -1443h-49l283 1329h-4l-866 -1328h-52l-303 1328h-4z" />
    <glyph glyph-name="Encyrillic" unicode="&#x41d;" horiz-adv-x="1320" 
d="M1133 0h-50l153 718h-948l-153 -718h-50l307 1443h50l-144 -678h948l144 678h50z" />
    <glyph glyph-name="Ocyrillic" unicode="&#x41e;" horiz-adv-x="1446" 
d="M904 1416q-187 0 -342.5 -109t-245 -299t-89.5 -418q0 -257 142.5 -410t377.5 -153q187 0 342.5 109t245 299t89.5 418q0 257 -142.5 410t-377.5 153zM743 -20q-254 0 -410.5 165.5t-156.5 438.5q0 184 56.5 347.5t153.5 280t232.5 184t289.5 67.5q254 0 410 -165.5
t156 -438.5q0 -184 -56.5 -347.5t-153 -280t-232.5 -184t-289 -67.5z" />
    <glyph glyph-name="Pecyrillic" unicode="&#x41f;" horiz-adv-x="1308" 
d="M1122 0h-50l297 1396h-937l-297 -1396h-50l307 1443h1037z" />
    <glyph glyph-name="Ercyrillic" unicode="&#x420;" horiz-adv-x="1148" 
d="M397 1443h413q194 0 306.5 -104.5t112.5 -271.5q0 -213 -159.5 -339.5t-418.5 -126.5h-385l-131 -601h-50zM437 1396l-162 -748h381q150 0 267.5 49t186.5 144.5t69 222.5q0 147 -99.5 239.5t-275.5 92.5h-367z" />
    <glyph glyph-name="Escyrillic" unicode="&#x421;" horiz-adv-x="1352" 
d="M1380 973v2q-3 194 -135.5 317.5t-349.5 123.5q-139 0 -263.5 -66t-213.5 -178.5t-141.5 -269.5t-52.5 -331q0 -244 141.5 -394t372.5 -150q190 0 332 96.5t204 268.5h54q-66 -194 -223.5 -303t-370.5 -109q-251 0 -405.5 161.5t-154.5 423.5q0 188 56 354.5t152 286
t230.5 188.5t286.5 69q236 0 382 -136.5t149 -351.5v-2h-50z" />
    <glyph glyph-name="Tecyrillic" unicode="&#x422;" horiz-adv-x="1153" 
d="M551 0h-50l297 1396h-521l10 47h1092l-10 -47h-521z" />
    <glyph glyph-name="Ucyrillic" unicode="&#x423;" horiz-adv-x="1116" 
d="M203 -9q-40 0 -67 9l10 47q23 -9 63 -9q89 0 162 65t201 256l-284 1084h51l268 -1026h5l671 1026h58l-705 -1075q-149 -227 -235 -302t-198 -75z" />
    <glyph glyph-name="Efcyrillic" unicode="&#x424;" horiz-adv-x="1508" 
d="M726 -11h-50l34 160q-264 1 -409.5 124t-145.5 347q0 147 59 272.5t164 214t253.5 138.5t322.5 50l34 159h49l-33 -159q264 -1 409.5 -124t145.5 -348q0 -147 -59 -272t-164 -213.5t-253.5 -138.5t-322.5 -50zM207 621q0 -204 134.5 -314.5t378.5 -111.5l224 1053
q-213 0 -381.5 -80t-262 -223t-93.5 -324zM1507 822q0 204 -134.5 315t-378.5 111l-224 -1053q213 0 381 80.5t262 223.5t94 323z" />
    <glyph glyph-name="Xacyrillic" unicode="&#x425;" horiz-adv-x="1166" 
d="M-24 0l681 726l-369 717h56l349 -680h1l636 680h66l-679 -725l368 -718h-56l-348 681h-1l-638 -681h-66z" />
    <glyph glyph-name="Tsecyrillic" unicode="&#x426;" horiz-adv-x="1371" 
d="M1237 -285h-49l61 285h-1168l307 1443h50l-297 -1396h927l297 1396h51l-298 -1396h190z" />
    <glyph glyph-name="Checyrillic" unicode="&#x427;" horiz-adv-x="1181" 
d="M995 0h-50l155 731h-3q-65 -55 -180 -99t-272 -44q-207 0 -312 128.5t-59 344.5l82 382h50l-82 -385q-42 -195 51 -309t274 -114q153 0 272.5 47.5t191.5 113.5l139 647h50z" />
    <glyph glyph-name="Shacyrillic" unicode="&#x428;" horiz-adv-x="1740" 
d="M85 0l307 1443h50l-297 -1396h659l297 1396h51l-298 -1396h660l297 1396h50l-307 -1443h-1469z" />
    <glyph glyph-name="Shchacyrillic" unicode="&#x429;" horiz-adv-x="1814" 
d="M1682 -285h-49l61 285h-1609l307 1443h50l-297 -1396h659l297 1396h51l-298 -1396h660l297 1396h50l-297 -1396h189z" />
    <glyph glyph-name="Hardsigncyrillic" unicode="&#x42a;" horiz-adv-x="1461" 
d="M843 0h-474l297 1396h-358l10 47h408l-128 -603h366q192 0 304.5 -99t112.5 -253q0 -216 -147.5 -352t-390.5 -136zM957 794h-369l-159 -747h413q217 0 353 121t136 316q0 138 -99 224t-275 86z" />
    <glyph glyph-name="Yericyrillic" unicode="&#x42b;" horiz-adv-x="1447" 
d="M673 794h-369l-159 -747h413q217 0 352.5 121t135.5 316q0 142 -101 226t-272 84zM85 0l307 1443h50l-128 -603h366q187 0 302 -96.5t115 -255.5q0 -219 -149 -353.5t-389 -134.5h-474zM1265 0h-50l307 1443h50z" />
    <glyph glyph-name="Softsigncyrillic" unicode="&#x42c;" horiz-adv-x="1135" 
d="M673 794h-369l-159 -747h413q217 0 352.5 121t135.5 316q0 142 -101 226t-272 84zM85 0l307 1443h50l-128 -603h366q187 0 302 -96.5t115 -255.5q0 -219 -149 -353.5t-389 -134.5h-474z" />
    <glyph glyph-name="Ereversedcyrillic" unicode="&#x42d;" horiz-adv-x="1373" 
d="M643 -20q-211 0 -356.5 127t-156.5 321h51q10 -173 141.5 -287t322.5 -114q170 0 318 88t246.5 245.5t129.5 357.5h-760l10 47h756q24 188 -30.5 336.5t-175.5 231.5t-288 83q-209 0 -358 -110.5t-215 -314.5h-53q66 223 232 347.5t396 124.5q250 0 401 -164t146 -431
q-3 -247 -103.5 -451t-273 -320.5t-380.5 -116.5z" />
    <glyph glyph-name="IUcyrillic" unicode="&#x42e;" horiz-adv-x="1872" 
d="M1164 27q186 0 343 108.5t250 302.5t93 431q0 248 -134.5 397.5t-360.5 149.5q-191 0 -349 -114t-247 -307t-89 -421q0 -248 134 -397.5t360 -149.5zM298 765h339q26 148 90.5 276t157 221.5t214.5 147t258 53.5q248 0 395.5 -164t147.5 -428q0 -188 -58 -354
t-157 -283.5t-235.5 -185.5t-287.5 -68q-248 0 -395 163t-147 427q0 79 10 148h-342l-153 -718h-50l307 1443h50z" />
    <glyph glyph-name="IAcyrillic" unicode="&#x42f;" horiz-adv-x="1208" 
d="M741 672h374l154 724h-413q-217 0 -353 -116t-136 -301q0 -138 99 -222.5t275 -84.5zM693 627l-555 -627h-64l560 634q-149 24 -233 116.5t-84 222.5q0 206 148 338t390 132h474l-307 -1443h-50l133 625h-369q-15 0 -43 2z" />
    <glyph glyph-name="acyrillic" unicode="&#x430;" horiz-adv-x="966" 
d="M413 30q152 0 272.5 94t151.5 237l42 191l-363 -21q-184 -10 -283.5 -82t-99.5 -194q0 -101 77.5 -163t202.5 -62zM407 -15q-143 0 -233.5 74t-90.5 192q0 143 112.5 227t320.5 96l371 22l20 93q10 53 10 85q0 110 -76.5 173t-212.5 63q-144 0 -242 -70t-124 -191h-51
q29 140 142.5 223.5t277.5 83.5q153 0 244.5 -76t91.5 -202q0 -43 -10 -90l-147 -688h-49l44 204l-4 1q-57 -101 -164 -160.5t-230 -59.5z" />
    <glyph glyph-name="becyrillic" unicode="&#x431;" horiz-adv-x="1084" 
d="M666 1042q188 0 300.5 -117.5t112.5 -312.5q0 -176 -68.5 -319.5t-191 -226t-274.5 -82.5q-189 0 -302.5 119t-113.5 319q0 124 58 337q35 130 72.5 225t92.5 177.5t124.5 133.5t165.5 79.5t218 29.5q100 0 183 8q95 10 150 29l-10 -44q-56 -20 -144 -29
q-87 -10 -189 -10q-129 0 -225.5 -34.5t-166.5 -106.5t-118.5 -169t-89.5 -237h4q67 112 176.5 171.5t235.5 59.5zM549 30q135 0 245.5 77t173 209.5t62.5 291.5q0 179 -100.5 283.5t-269.5 104.5q-137 0 -248 -78t-172 -210t-61 -290q0 -179 100.5 -283.5t269.5 -104.5z
" />
    <glyph glyph-name="vecyrillic" unicode="&#x432;" horiz-adv-x="930" 
d="M68 0l221 1040h368q125 0 197 -60t72 -154q0 -114 -73.5 -189.5t-184.5 -96.5l-1 -5q92 -7 151 -58.5t59 -141.5q0 -143 -119 -239t-311 -96h-379zM543 513h-316l-101 -469h329q165 0 269.5 85.5t104.5 204.5q0 89 -73 134t-213 45zM647 995h-319l-92 -438h314
q140 0 232.5 75t92.5 184q0 86 -59.5 132.5t-168.5 46.5z" />
    <glyph glyph-name="gecyrillic" unicode="&#x433;" horiz-adv-x="816" 
d="M927 995h-597l-212 -995h-50l222 1040h647z" />
    <glyph glyph-name="decyrillic" unicode="&#x434;" horiz-adv-x="1187" 
d="M878 45l202 950h-561q-80 -302 -161 -566q-45 -143 -88 -235.5t-102 -143.5l-1 -5h711zM-2 -275h-48l68 320h81q114 67 212 390q84 268 172 605h656l-212 -995h173l-68 -320h-49l59 275h-985z" />
    <glyph glyph-name="iecyrillic" unicode="&#x435;" horiz-adv-x="1027" 
d="M188 562h792q9 36 9 91q0 163 -90.5 260t-245.5 97q-174 0 -303.5 -125t-161.5 -323zM523 -16q-185 0 -294 114t-109 307q0 183 69.5 332.5t192.5 234t274 84.5q176 0 278.5 -108.5t102.5 -293.5q0 -78 -16 -137h-841q-10 -64 -10 -107q0 -175 96.5 -277.5t260.5 -102.5
q142 0 244.5 68t147.5 192h52q-48 -143 -166.5 -224.5t-281.5 -81.5z" />
    <glyph glyph-name="zhecyrillic" unicode="&#x436;" horiz-adv-x="1329" 
d="M1446 1040l-645 -505l458 -535h-63l-444 519h-3l-111 -519h-49l110 520h-3l-653 -520h-75l688 546l-426 494h62l412 -480h3l103 480h49l-102 -482h3l611 482h75z" />
    <glyph glyph-name="zecyrillic" unicode="&#x437;" horiz-adv-x="929" 
d="M852 310q-1 -150 -119 -239.5t-290 -89.5q-168 0 -259 79t-101 207h49q10 -105 89.5 -173t222.5 -68q151 0 254.5 79t103.5 201q0 206 -286 206h-169l9 44h170q149 0 243.5 69.5t94.5 176.5q0 102 -69.5 153.5t-201.5 51.5q-124 0 -218 -69t-134 -184h-50
q46 134 150.5 216.5t258.5 82.5q150 0 232 -65.5t82 -179.5q0 -110 -78 -182.5t-189 -88.5l-1 -3q90 -11 148 -68t58 -156z" />
    <glyph glyph-name="iicyrillic" unicode="&#x438;" horiz-adv-x="1038" 
d="M120 0h-52l222 1040h50l-203 -952h5l897 952h50l-221 -1040h-49l203 951h-5z" />
    <glyph glyph-name="iishortcyrillic" unicode="&#x439;" horiz-adv-x="1038" 
d="M120 0h-52l222 1040h50l-203 -952h5l897 952h50l-221 -1040h-49l203 951h-5zM522 1488h49q-19 -92 26.5 -144t142.5 -52q99 0 166.5 52t86.5 144h49q-23 -112 -103.5 -175t-204.5 -63q-114 0 -174.5 64.5t-37.5 173.5z" />
    <glyph glyph-name="kacyrillic" unicode="&#x43a;" horiz-adv-x="882" 
d="M998 1040l-712 -503l525 -537h-67l-510 520h-5l-111 -520h-50l222 1040h50l-103 -481h4l680 481h77z" />
    <glyph glyph-name="elcyrillic" unicode="&#x43b;" horiz-adv-x="1049" 
d="M342 429q-25 -81 -45.5 -138.5t-49.5 -118t-59.5 -97.5t-71.5 -60.5t-88 -23.5q-9 0 -17 1t-14 2.5t-10.5 2.5t-6.5 2l-3 1l10 47q0 -1 5.5 -3t18 -4t26.5 -2q43 0 80 29t69 86.5t57 123t53 157.5q82 270 169 606h635l-222 -1040h-50l212 995h-539q-125 -457 -159 -566z
" />
    <glyph glyph-name="emcyrillic" unicode="&#x43c;" horiz-adv-x="1303" 
d="M118 0h-50l222 1040h53l272 -977h3l676 977h61l-221 -1040h-50l201 942h-4l-651 -940h-44l-263 940h-5z" />
    <glyph glyph-name="encyrillic" unicode="&#x43d;" horiz-adv-x="1028" 
d="M68 0l222 1040h50l-103 -479h690l102 479h50l-222 -1040h-49l110 516h-691l-109 -516h-50z" />
    <glyph glyph-name="ocyrillic" unicode="&#x43e;" horiz-adv-x="1086" 
d="M545 30q135 0 246 77t174.5 211.5t63.5 299.5q0 177 -100.5 284.5t-268.5 107.5q-135 0 -246 -77t-174.5 -211.5t-63.5 -299.5q0 -177 101 -284.5t268 -107.5zM660 1056q190 0 304.5 -119.5t114.5 -316.5q0 -180 -69.5 -325.5t-191.5 -228t-273 -82.5
q-190 0 -304.5 119.5t-114.5 316.5q0 180 69.5 325.5t192 228t272.5 82.5z" />
    <glyph glyph-name="pecyrillic" unicode="&#x43f;" horiz-adv-x="1018" 
d="M799 0l211 995h-680l-212 -995h-50l222 1040h779l-221 -1040h-49z" />
    <glyph glyph-name="ercyrillic" unicode="&#x440;" horiz-adv-x="1096" 
d="M569 30q130 0 239 77.5t172 212t63 295.5q0 183 -91.5 289t-249.5 106q-129 0 -240 -82t-176.5 -221t-65.5 -299q0 -170 96 -274t253 -104zM46 -339h-50l293 1379h48l-53 -254h6q67 126 179 197.5t242 71.5q173 0 277.5 -120t104.5 -320q0 -131 -40.5 -248t-110.5 -201
t-168 -132.5t-208 -48.5q-153 0 -258.5 95t-117.5 244h-4z" />
    <glyph glyph-name="escyrillic" unicode="&#x441;" horiz-adv-x="1010" 
d="M653 1056q159 0 265 -91t122 -239v-1h-49q-16 128 -108.5 206.5t-229.5 78.5q-132 0 -242 -77.5t-172.5 -212.5t-62.5 -298q0 -176 99.5 -284t261.5 -108q126 0 226.5 65t148.5 175h51q-54 -134 -167 -210t-259 -76q-185 0 -298 120t-113 316q0 133 40.5 251t110.5 202.5
t167.5 133.5t208.5 49z" />
    <glyph glyph-name="tecyrillic" unicode="&#x442;" horiz-adv-x="912" 
d="M1035 1040l-10 -45h-388l-212 -995h-50l212 995h-389l10 45h827z" />
    <glyph glyph-name="ucyrillic" unicode="&#x443;" horiz-adv-x="882" 
d="M69 -349q-32 0 -56 6l9 44q28 -5 50 -5q69 0 123.5 44t115.5 149l56 94l-179 1057h50l166 -991h4l579 991h56l-689 -1173q-73 -123 -136 -169.5t-149 -46.5z" />
    <glyph glyph-name="efcyrillic" unicode="&#x444;" horiz-adv-x="1341" 
d="M564 -379h-49l77 360q-217 7 -341.5 127t-124.5 320q0 127 50 239.5t138.5 197t219.5 135t285 54.5l79 368h49l-79 -369q217 -7 341.5 -126.5t124.5 -320.5q0 -126 -50 -239t-138.5 -197t-219.5 -134.5t-285 -54.5zM1282 601q0 186 -112.5 293t-310.5 114l-208 -982
q140 4 259 52t200 126t126.5 181t45.5 216zM178 433q0 -186 112.5 -293t311.5 -114l208 982q-140 -4 -259.5 -52t-200.5 -126t-126.5 -180.5t-45.5 -216.5z" />
    <glyph glyph-name="hacyrillic" unicode="&#x445;" horiz-adv-x="873" 
d="M502 476h-4l-454 -476h-65l497 523l-278 517h55l257 -479h4l456 479h65l-500 -525l278 -515h-56z" />
    <glyph glyph-name="tsecyrillic" unicode="&#x446;" horiz-adv-x="1117" 
d="M963 -275h-49l59 275h-905l222 1040h50l-213 -995h681l212 995h49l-211 -995h173z" />
    <glyph glyph-name="checyrillic" unicode="&#x447;" horiz-adv-x="952" 
d="M782 0h-49l108 507h-9q-59 -47 -145 -78t-185 -31q-169 0 -248 103t-43 271l57 268h50l-57 -265q-33 -152 31 -242t216 -90q103 0 193 37t155 98l98 462h49z" />
    <glyph glyph-name="shacyrillic" unicode="&#x448;" horiz-adv-x="1498" 
d="M68 0l222 1040h50l-213 -995h556l212 995h50l-212 -995h555l213 995h48l-221 -1040h-1260z" />
    <glyph glyph-name="shchacyrillic" unicode="&#x449;" horiz-adv-x="1597" 
d="M1443 -275h-49l59 275h-1385l222 1040h50l-213 -995h556l212 995h50l-212 -995h555l213 995h48l-211 -995h173z" />
    <glyph glyph-name="hardsigncyrillic" unicode="&#x44a;" horiz-adv-x="1060" 
d="M574 0h-319l213 995h-280l9 45h330l-84 -394h269q147 0 226 -68t79 -194q0 -159 -121 -271.5t-322 -112.5zM702 601h-269l-118 -556h266q88 0 162 28t122 75t74.5 107t26.5 125q0 221 -264 221z" />
    <glyph glyph-name="yericyrillic" unicode="&#x44b;" horiz-adv-x="1138" 
d="M915 0l221 1040h49l-221 -1040h-49zM514 601h-268l-119 -556h266q175 0 280.5 99t105.5 236q0 221 -265 221zM68 0l222 1040h50l-84 -394h269q147 0 225.5 -68t78.5 -194q0 -78 -30.5 -147.5t-86 -122t-140 -83.5t-185.5 -31h-319z" />
    <glyph glyph-name="softsigncyrillic" unicode="&#x44c;" horiz-adv-x="873" 
d="M514 601h-268l-119 -556h266q175 0 280.5 99t105.5 236q0 221 -265 221zM68 0l222 1040h50l-84 -394h269q147 0 225.5 -68t78.5 -194q0 -78 -30.5 -147.5t-86 -122t-140 -83.5t-185.5 -31h-319z" />
    <glyph glyph-name="ereversedcyrillic" unicode="&#x44d;" horiz-adv-x="1014" 
d="M176 753q45 138 161 220t271 82q181 0 290 -112t109 -299q0 -185 -70.5 -336.5t-196 -239t-279.5 -87.5q-151 0 -255 79t-122 206h49q21 -109 111 -174.5t221 -65.5q181 0 315.5 138.5t167.5 351.5h-567l9 45h563q4 33 4 76q0 170 -95.5 271t-257.5 101
q-130 0 -231.5 -70t-146.5 -186h-50z" />
    <glyph glyph-name="iucyrillic" unicode="&#x44e;" horiz-adv-x="1453" 
d="M921 -16q-185 0 -295.5 118t-110.5 315q0 47 5 99h-293l-109 -516h-49l221 1040h50l-103 -479h289q40 217 179.5 356t332.5 139q184 0 296 -118.5t112 -314.5q0 -178 -67.5 -324t-188 -230.5t-269.5 -84.5zM924 30q134 0 242.5 78.5t169.5 214t61 299.5q0 178 -98 283
t-263 105q-134 0 -242.5 -80t-169 -215.5t-60.5 -296.5q0 -180 97.5 -284t262.5 -104z" />
    <glyph glyph-name="iacyrillic" unicode="&#x44f;" horiz-adv-x="951" 
d="M560 478h274l109 517h-276q-180 0 -281.5 -83t-101.5 -212q0 -112 67 -167t209 -55zM731 0l92 432h-274h-10l-406 -432h-65l413 437q-121 14 -184.5 80.5t-63.5 178.5q0 154 117.5 249t324.5 95h327l-221 -1040h-50z" />
    <glyph glyph-name="uni0450" unicode="&#x450;" horiz-adv-x="1027" 
d="M188 562h792q9 36 9 91q0 163 -90.5 260t-245.5 97q-174 0 -303.5 -125t-161.5 -323zM523 -16q-185 0 -294 114t-109 307q0 183 69.5 332.5t192.5 234t274 84.5q176 0 278.5 -108.5t102.5 -293.5q0 -78 -16 -137h-841q-10 -64 -10 -107q0 -175 96.5 -277.5t260.5 -102.5
q142 0 244.5 68t147.5 192h52q-48 -143 -166.5 -224.5t-281.5 -81.5zM766 1251h-49l-184 304h55z" />
    <glyph glyph-name="iocyrillic" unicode="&#x451;" horiz-adv-x="1027" 
d="M188 562h792q9 36 9 91q0 163 -90.5 260t-245.5 97q-174 0 -303.5 -125t-161.5 -323zM523 -16q-185 0 -294 114t-109 307q0 183 69.5 332.5t192.5 234t274 84.5q176 0 278.5 -108.5t102.5 -293.5q0 -78 -16 -137h-841q-10 -64 -10 -107q0 -175 96.5 -277.5t260.5 -102.5
q142 0 244.5 68t147.5 192h52q-48 -143 -166.5 -224.5t-281.5 -81.5zM611 1251q-22 0 -38 16t-16 38t16 37.5t38 15.5t38 -15.5t16 -37.5t-16 -38t-38 -16zM888 1251q-22 0 -38 16t-16 38t16 37.5t38 15.5t38 -15.5t16 -37.5q0 -23 -16 -38.5t-38 -15.5z" />
    <glyph glyph-name="djecyrillic" unicode="&#x452;" horiz-adv-x="1046" 
d="M294 823h4q63 108 162.5 170t225.5 62q155 0 251 -88.5t96 -229.5q0 -55 -9 -97l-156 -728q-29 -133 -102.5 -187.5t-199.5 -46.5q-2 0 -18 1t-17 1l10 46l28 -2q108 -6 167.5 38.5t82.5 151.5l153 715q11 60 11 98q0 128 -83.5 205.5t-222.5 77.5q-154 0 -271 -105.5
t-150 -258.5l-138 -646h-50l265 1238h-120l10 43h119l37 174h49l-37 -174h285l-9 -43h-285z" />
    <glyph glyph-name="gjecyrillic" unicode="&#x453;" horiz-adv-x="816" 
d="M927 995h-597l-212 -995h-50l222 1040h647zM683 1251h-59l308 304h64z" />
    <glyph glyph-name="ecyrillic" unicode="&#x454;" horiz-adv-x="1020" 
d="M958 266q-40 -122 -161 -203.5t-271 -81.5q-183 0 -291.5 112.5t-108.5 299.5q0 185 71 336.5t195.5 238.5t277.5 87q155 0 260.5 -84t119.5 -216h-48q-17 115 -108.5 184.5t-227.5 69.5q-170 0 -300.5 -125.5t-173.5 -322.5h567l-9 -44h-566q-8 -61 -8 -118
q0 -171 95.5 -272t256.5 -101q127 0 234 70t145 170h51z" />
    <glyph glyph-name="dzecyrillic" unicode="&#x455;" horiz-adv-x="925" 
d="M238 780q0 120 99.5 198t255.5 78q150 0 250 -84t113 -218h-49q-14 114 -100 185.5t-218 71.5q-130 0 -215.5 -65t-85.5 -163q0 -74 50.5 -123.5t166.5 -90.5l89 -32q143 -50 203 -111t60 -158q0 -126 -103 -205t-267 -79q-166 0 -279.5 87.5t-127.5 227.5h51
q16 -121 115 -195.5t244 -74.5q140 0 228.5 67t88.5 171q0 81 -52.5 131.5t-186.5 96.5l-90 33q-124 43 -182 104t-58 148z" />
    <glyph glyph-name="icyrillic" unicode="&#x456;" horiz-adv-x="296" 
d="M72 0l221 1040h50l-221 -1040h-50zM374 1259q-20 0 -34 13.5t-14 32.5q0 20 14 33.5t34 13.5q19 0 33 -13.5t14 -33.5q0 -19 -14 -32.5t-33 -13.5z" />
    <glyph glyph-name="yicyrillic" unicode="&#x457;" horiz-adv-x="294" 
d="M266 1259q-20 0 -34 13.5t-14 33.5q0 19 14 32.5t34 13.5q19 0 33 -13.5t14 -32.5t-14 -33t-33 -14zM507 1259q-19 0 -33 14t-14 33t14 32.5t33 13.5q20 0 34 -13.5t14 -32.5q0 -20 -14 -33.5t-34 -13.5zM77 0l221 1040h49l-221 -1040h-49z" />
    <glyph glyph-name="jecyrillic" unicode="&#x458;" horiz-adv-x="297" 
d="M379 1259q-20 0 -34 13.5t-14 32.5q0 20 14 33.5t34 13.5q19 0 33 -13.5t14 -33.5q0 -19 -14 -32.5t-33 -13.5zM343 1040l-245 -1157q-26 -123 -92.5 -177.5t-178.5 -54.5q-33 0 -67 3l10 45q27 -3 57 -3q93 0 147 46.5t74 145.5l246 1152h49z" />
    </font>
</defs>
</svg>
